Subcategories
Tags
Language
Tags

Nancy Harms - Ellington at Night (2016) {Gazelle}

Posted By: shamanicus
Nancy Harms - Ellington at Night (2016) {Gazelle}

Nancy Harms - Ellington at Night (2016)
EAC Rip | FLAC (tracks+.cue, log) | Artwork | RAR | 311 mb
Jazz, Vocal Jazz, Contemporary Jazz | Label: Gazelle Records - GNH-003

Possessing a voice filled with delicious subtleties and striking authenticity, Harms uses Ellington's gorgeous music to explore all the richness that the night has to offer….from loneliness to luxuriousness, from flirtation to melancholy…

Nancy Harms - Ellington at Night (2016) {Gazelle}


“…What makes ‘Ellington at Night’ so remarkable is the way that Nancy Harms and chief collaborator Jeremy Siskind have found a whole new way to sing Ellington, one that's perfectly in keeping with the Ellington tradition, yet, at the same time, fresh and original. …..her vocal timbre might be characterized as "cool" – though there's an undeniable warmth to her singing as well.

Nancy Harms - Ellington at Night (2016) {Gazelle}


Her sound is understated, yet it doesn't hold anything back. She doesn't give us anything more than we need – no note is unnecessarily higher or longer than it should be – and yet her spirit and energy are giving, even generous beyond the cool of duty. She swings like crazy, but she never makes the rhythm more important than the narrative……there's no doubt as to exactly what she means.……Ellington's most familiar songs…sound anything but overdone when Nancy sings them…… I can only imagine that on whatever turquoise cloud (Ellington) might be reclining on, he couldn't help but love her madly.”
WILL FRIEDWALD (music critic for the Wall Street Journal and celebrated author)



Tracklist:

01. Lush Life (3:39)
02. Rocks In My Bed (4:13)
03. Do Nothin' Till You Hear From Me (2:56)
04. Lost In Meditation (5:41)
05. Troubled Waters (3:24)
06. Prelude To A Kiss (5:31)
07. Long, Strong And Consecutive (4:56)
08. Strange Feeling (4:27)
09. Reflections (3:15)
10. I Got It Bad (And That Ain't Good) (4:37)
11. I'm Beginning To See The Light (3:25)
12. I Like The Sunrise (5:08)

Nancy Harms - Ellington at Night (2016) {Gazelle}




Exact Audio Copy V1.3 from 2. September 2016

EAC extraction logfile from 2. February 2017, 17:44

Nancy Harms / Ellington at Night

Used drive : ATAPI iHBS112 2 Adapter: 1 ID: 1

Read mode : Secure
Utilize accurate stream : Yes
Defeat audio cache : Yes
Make use of C2 pointers : No

Read offset correction : 6
Overread into Lead-In and Lead-Out : No
Fill up missing offset samples with silence : Yes
Delete leading and trailing silent blocks : No
Null samples used in CRC calculations : Yes
Used interface : Native Win32 interface for Win NT & 2000
Gap handling : Appended to previous track

Used output format : User Defined Encoder
Selected bitrate : 128 kBit/s
Quality : High
Add ID3 tag : No
Command line compressor : C:\Program Files (x86)\Exact Audio Copy\Flac\flac.exe
Additional command line options : -8 -V -T "ARTIST=%artist%" -T "TITLE=%title%" -T "ALBUM=%albumtitle%" -T "DATE=%year%" -T "TRACKNUMBER=%tracknr%" -T "GENRE=%genre%" -T "PERFORMER=%albuminterpret%" -T "COMPOSER=%composer%" -T "ALBUMARTIST=%albumartist%" -T "DISCNUMBER=%cdnumber%" -T "TOTALDISCS=%totalcds%" -T "TOTALTRACKS=%numtracks%" -T "COMMENT=EAC Secure Mode, Test & Copy, AccurateRip, FLAC -8" %source% -o %dest%


TOC of the extracted CD

Track | Start | Length | Start sector | End sector
––––––––––––––––––––––––––––-
1 | 0:00.00 | 3:42.62 | 0 | 16711
2 | 3:42.62 | 4:15.27 | 16712 | 35863
3 | 7:58.14 | 3:00.16 | 35864 | 49379
4 | 10:58.30 | 5:45.49 | 49380 | 75303
5 | 16:44.04 | 3:28.05 | 75304 | 90908
6 | 20:12.09 | 5:34.47 | 90909 | 116005
7 | 25:46.56 | 4:59.53 | 116006 | 138483
8 | 30:46.34 | 4:31.22 | 138484 | 158830
9 | 35:17.56 | 3:19.42 | 158831 | 173797
10 | 38:37.23 | 4:41.25 | 173798 | 194897
11 | 43:18.48 | 3:29.49 | 194898 | 210621
12 | 46:48.22 | 5:08.63 | 210622 | 233784


Track 1

Filename G:\DL\Nancy Harms - Ellington at Night (2016) [FLAC]\01 - Lush Life.wav

Pre-gap length 0:00:02.00

Peak level 87.0 %
Extraction speed 5.0 X
Track quality 100.0 %
Test CRC 59320947
Copy CRC 59320947
Accurately ripped (confidence 2) [30CA8FC5] (AR v2)
Copy OK

Track 2

Filename G:\DL\Nancy Harms - Ellington at Night (2016) [FLAC]\02 - Rocks In My Bed.wav

Pre-gap length 0:00:01.23

Peak level 99.8 %
Extraction speed 5.6 X
Track quality 100.0 %
Test CRC 4DE5D36B
Copy CRC 4DE5D36B
Accurately ripped (confidence 2) [AA84AA8A] (AR v2)
Copy OK

Track 3

Filename G:\DL\Nancy Harms - Ellington at Night (2016) [FLAC]\03 - Do Nothin' Til You Hear From Me.wav

Pre-gap length 0:00:02.00

Peak level 88.8 %
Extraction speed 5.7 X
Track quality 100.0 %
Test CRC 5835C863
Copy CRC 5835C863
Accurately ripped (confidence 2) [C4794E41] (AR v2)
Copy OK

Track 4

Filename G:\DL\Nancy Harms - Ellington at Night (2016) [FLAC]\04 - Lost In Meditation.wav

Pre-gap length 0:00:01.67

Peak level 74.8 %
Extraction speed 6.8 X
Track quality 100.0 %
Test CRC 380326F2
Copy CRC 380326F2
Accurately ripped (confidence 2) [A9BAAEF7] (AR v2)
Copy OK

Track 5

Filename G:\DL\Nancy Harms - Ellington at Night (2016) [FLAC]\05 - Troubled Waters.wav

Pre-gap length 0:00:02.00

Peak level 87.4 %
Extraction speed 6.8 X
Track quality 100.0 %
Test CRC D5DD6604
Copy CRC D5DD6604
Accurately ripped (confidence 2) [F806256B] (AR v2)
Copy OK

Track 6

Filename G:\DL\Nancy Harms - Ellington at Night (2016) [FLAC]\06 - Prelude To A Kiss.wav

Pre-gap length 0:00:02.00

Peak level 79.0 %
Extraction speed 6.7 X
Track quality 99.9 %
Test CRC 33237E1C
Copy CRC 33237E1C
Accurately ripped (confidence 2) [52304A2E] (AR v2)
Copy OK

Track 7

Filename G:\DL\Nancy Harms - Ellington at Night (2016) [FLAC]\07 - Long, Strong, and Consecutive.wav

Pre-gap length 0:00:02.00

Peak level 93.0 %
Extraction speed 7.4 X
Track quality 100.0 %
Test CRC 3ED23FA9
Copy CRC 3ED23FA9
Accurately ripped (confidence 2) [0E17F59B] (AR v2)
Copy OK

Track 8

Filename G:\DL\Nancy Harms - Ellington at Night (2016) [FLAC]\08 - Strange Feeling.wav

Pre-gap length 0:00:02.00

Peak level 75.8 %
Extraction speed 8.4 X
Track quality 100.0 %
Test CRC F17A3687
Copy CRC F17A3687
Accurately ripped (confidence 2) [163DF97C] (AR v2)
Copy OK

Track 9

Filename G:\DL\Nancy Harms - Ellington at Night (2016) [FLAC]\09 - Reflections.wav

Pre-gap length 0:00:01.52

Peak level 68.1 %
Extraction speed 6.8 X
Track quality 99.9 %
Test CRC FCB968C5
Copy CRC FCB968C5
Accurately ripped (confidence 2) [650776B2] (AR v2)
Copy OK

Track 10

Filename G:\DL\Nancy Harms - Ellington at Night (2016) [FLAC]\10 - I Got It Bad (And That Ain't Good).wav

Pre-gap length 0:00:02.36

Peak level 99.2 %
Extraction speed 9.0 X
Track quality 100.0 %
Test CRC D50B5CBB
Copy CRC D50B5CBB
Accurately ripped (confidence 2) [BA299D0F] (AR v2)
Copy OK

Track 11

Filename G:\DL\Nancy Harms - Ellington at Night (2016) [FLAC]\11 - I'm Beginning To See The Light.wav

Pre-gap length 0:00:01.59

Peak level 91.0 %
Extraction speed 8.9 X
Track quality 100.0 %
Test CRC 6CDDE8E3
Copy CRC 6CDDE8E3
Accurately ripped (confidence 2) [5646F3C4] (AR v2)
Copy OK

Track 12

Filename G:\DL\Nancy Harms - Ellington at Night (2016) [FLAC]\12 - I Like The Sunrise.wav

Pre-gap length 0:00:02.20

Peak level 81.2 %
Extraction speed 9.6 X
Track quality 100.0 %
Test CRC 2D303128
Copy CRC 2D303128
Accurately ripped (confidence 2) [5189258E] (AR v2)
Copy OK


All tracks accurately ripped

No errors occurred

End of status report

–– CUETools DB Plugin V2.1.6

[CTDB TOCID: 15FVgB6pRaMuXYOQk5Y8W2I_NNo-] found
Submit result: 15FVgB6pRaMuXYOQk5Y8W2I_NNo- has been confirmed
Track | CTDB Status
1 | (2/2) Accurately ripped
2 | (2/2) Accurately ripped
3 | (2/2) Accurately ripped
4 | (2/2) Accurately ripped
5 | (2/2) Accurately ripped
6 | (2/2) Accurately ripped
7 | (2/2) Accurately ripped
8 | (2/2) Accurately ripped
9 | (2/2) Accurately ripped
10 | (2/2) Accurately ripped
11 | (2/2) Accurately ripped
12 | (2/2) Accurately ripped


==== Log checksum 074BF8741C76C85C44EA6B1352CC8BB23BFE0B03AE6B80888B94B02B1724DD64 ====



Thanks to the Original customer.