Subcategories

Napalm Death - Fear, Emptiness, Despair [Japan Edition] (1994)

Posted By: napak88
Napalm Death - Fear, Emptiness, Despair [Japan Edition] (1994)

Napalm Death - Fear, Emptiness, Despair [Japan Edition] (1994)
EAC Rip | FLAC, IMG+CUE+LOG | Full Cover | 345 MB | Death Metal,Grindcore

Fear Emptiness Despair is the culmination of Napalm Death's early-'90s meanderings. Everything comes together here, resulting in the album that Harmony Corruption (1990) and Utopia Banished (1992) had foreshadowed – unrelenting grindcore as played by an experienced, technically advanced death metal collective with the guidance of a professional producer (Pete Coleman). "Hung," "Twist the Knife Slowly," and "Plague Rages" are hands down some of Napalm Death's best songs ever, and the remaining songs aren't far short of the mark. These songs are as ferocious as anything the classic lineup of Napalm Death (i.e., the late-'80s grindcore band) had recorded. They can stand alongside the likes of "Unchallenged Hate" and "Mentally Murdered," yet they're intricate and well developed in the manner of the band's later, more elaborate songs like "Suffer the Children" and "The World Keeps Turning." Plus, the professional production gives them a glorious, full-color sheen that early, lo-fi Napalm Death simply didn't have. In the end, it's really that simple – Fear Emptiness Despair is the culminant album fans had been waiting for, the one that again put Napalm Death atop the field of extreme metal (for a while, at least). It's not a perfect album, nor is it their be-all, end-all masterwork, but it's certainly a career highlight and a striking listen.

Mark "Barney" Greenway - Vocals
Jesse Pintado - Guitar
Mitch Harris - Guitar
Shane Embury - Bass
Danny Herrera - Drums

Tracklist:
01. Twist The Knife (Slowly) (2:52)
02. Hung (3:49)
03. Remain Nameless (3:33)
04. Plague Rages (3:51)
05. More Than Meets The Eye (3:55)
06. Primed Time (3:28)
07. State Of Mind (3:32)
08. Armageddon X7 (3:16)
09. Retching On The Dirt (2:59)
10. Fasting On Deception (3:48)
11. Throwaway (3:42)
12. Nazi Punks Fuck Off (1:27)
13. Nazi Punks Fuck Off (live) (1:53)
14. Contemptuous (xtreem mix) (4:31)

Exact Audio Copy V0.99 prebeta 5 from 4. May 2009

EAC extraction logfile, executed 16. October, 2009, 0:21

NAPALM DEATH / FEAR, EMPTINESS, DESPAIR

Drive: SONY DVD-ROM DDU1621 Adapter: 3 ID: 1

Read mode: Secure
Utilize accurate stream: Yes
Defeat audio cache: Yes
Using pointers C2: No
Read offset correction: 12

Overread Lead-in and Lead-out: No
Fill up missing offset samples with silence: Yes
Removal of blocks from the silence in the beginning and end: None
CRC calculations Null samples used: Yes
Interface: Installed external ASPI-interface

Output format: WAV-operation
Sample format: 44.100 Hz, 16 bits stereo

TOC of the extracted CD
Track | Start | Length | Start sector | End sector
––––––––––––––––––––––––– –––––––––-
1 | 0:00.00 | 2:53.22 | 0 | 12996
2 | 2:53.22 | 3:49.73 | 12997 | 30244
3 | 6:43.20 | 3:33.02 | 30245 | 46221
4 | 10:16.22 | 3:51.10 | 46222 | 63556
5 | 14:07.32 | 3:55.60 | 63557 | 81241
6 | 18:03.17 | 3:28.38 | 81242 | 96879
7 | 21:31.55 | 3:32.25 | 96880 | 112804
8 | 25:04.05 | 3:16.20 | 112805 | 127524
9 | 28:20.25 | 2:59.70 | 127525 | 141019
10 | 31:20.20 | 3:48.72 | 141020 | 158191
11 | 35:09.17 | 3:44.10 | 158192 | 175001
12 | 38:53.27 | 1:27.58 | 175002 | 181584
13 | 40:21.10 | 1:53.55 | 181585 | 190114
14 | 42:14.65 | 4:31.20 | 190115 | 210459

Range status and error messages

Selected range

The name of the file D: \ Downloads \ Napalm Death-Fear, Emptiness, Despair (Japan Edition, Bonus Tracks) \ NAPALM DEATH - FEAR, EMPTINESS, DESPAIR.wav

Peak level 100.0%
Quality 100.0%
Test CRC C0CF4A7B
Copy CRC C0CF4A7B
Copying … OK

Error happened

AccurateRip: summary

Track 1 accurately ripped (confidence 1) [521956DA]
Track 2 accurately ripped (confidence 1) [8A295C9C]
Track 3 accurately ripped (confidence 1) [02F7D244]
Track 4 accurately ripped (confidence 1) [FCC23D24]
Track 5 accurately ripped (confidence 1) [BB637DCD]
Track 6 accurately ripped (confidence 1) [198C6A92]
Track 7 accurately ripped (confidence 1) [6895B10E]
Track 8 accurately ripped (confidence 1) [77C98AF9]
Track 9 accurately ripped (confidence 1) [E4F63072]
Track 10 accurately ripped (confidence 1) [9E750042]
Track 11 accurately ripped (confidence 1) [0C09061A]
Track 12 accurately ripped (confidence 1) [B1719529]
Track 13 accurately ripped (confidence 1) [B02F0E18]
Track 14 accurately ripped (confidence 1) [9BF6FE29]

All tracks accurately ripped

End Report


http://www.filesonic.com/file/79653106/J-(1994) Fear, Emptiness, Despair.part1.rar
http://www.filesonic.com/file/79664526/J-(1994) Fear, Emptiness, Despair.part2.rar