Subcategories

A 20th Century Opera Collection - Karol Szymanowski - Król Roger (King Roger)

Posted By: leverk
A 20th Century Opera Collection - Karol Szymanowski - Król Roger (King Roger)

Karol Szymanowski (1882-1937): Król Roger (King Roger) - Karol Stryja - Polish State PO
Opera | Early 20th Century | 2CD | EACRip | APE+LOG+CUE | Covers | RS.com | 381MB
Label: Naxos | Year of release: 1998 | DDD


Król Roger (Opera in 3 Acts)

Król Roger - Andrzej Hiolski
Roksana - Barbara Zagórzanka
Pasterz - Wieslaw Ochman

Polish State Philharmonic Chorus & Orchestra
Karol Stryja

Naxos' Review:

The opera King Roger was first conceived by Szymanowski and his distant cousin Jaroslav Iwaszkiewicz in June 1918 in Elizavetgrad. It was here that Szymanowski wrote his homoerotic novel Efebos, which remained unpublished and was lost in the disturbances of 1939. In August Szymanowski was in Odessa and there received from Iwaszkiewicz, now in Warsaw, a sketch of the libretto for the new opera. The latter, engrossed in the Warsaw activities of the Skamander Group of poets, lost interest in the project, leading Szymanowski to rewrite the second and third acts. The composition of the work took some seven years and King Roger was finally performed for the first time in Warsaw in June 1926.

The subject of the opera is the conflict between King Roger, Norman ruler of Sicily, and the Shepherd, revealed finally as Dionysus himself, in a plot that echoes the legend that was the source of the Bacchae of Euripides, where King Pentheus opposes the power of Dionysus and is killed by the followers of the god, who include his wife and his mother. In more modern terms the conflict between Dionysus and Apollo, the wild and orgiastic as opposed to the serene in Greek art, had been the subject of Friedrich Nietzsche's controversial Die Geburt der Tragödie aus dem Geiste der Musik (The Birth of Tragedy from the Spirit of Music). In this book he had maintained that Greek music and tragedy were essentially Dionysian, with the serenity formerly considered the leading feature of Greek art to be found in architecture, an expression of the Apolline. The conflict later found noted literary expression in Thomas Mann's Der Tod in Venedig, the source of Britten's opera Death in Venice, and in the work of the psychologist Jung. The subject of King Roger and even more its musical construction have a parallel in the contemporary work of Franz Schreker, where similar conflicts are recognised, as in other writing and music of the period

Exact Audio Copy V0.99 prebeta 5 from 4. May 2009

Archivo Log de extracciones desde 30. Diciembre 2009, 6:57

Szymanowski / Król Roger

Usar unidad : HL-DT-STDVD-RW_GSA-H11N Adapter: 5 ID: 0

Modo de Lectura : Seguro
Utilizar Corriente Exacta : Sí
Descartar Audio caché : No
Utilizar los punteros C2 : Sí

Corrección de Desplazamiento de Lectura : 667
Sobreleer tanto en Lead-In como en Lead-Out : No
Rellenar las muestras faltantes con silencios : Sí
Eliminar silencios inicial y final : No
Se han usado muestras nulas en los cálculos CRC : No
Interfaz usada : Interfaz propio de Win32 para Windowns NT y 2000

Formato de Salida utilizado : Rutinas WAV Internas
Formato de Muestreo : 44.100 Hz; 16 Bit; Estéreo


TOC del CD extraido

Pista | Inicio | Duración | Sector inicial | Sector final
––––––––––––––––––––––––––––––-
1 | 0:00.00 | 2:34.00 | 0 | 11549
2 | 2:34.00 | 2:36.02 | 11550 | 23251
3 | 5:10.02 | 4:00.43 | 23252 | 41294
4 | 9:10.45 | 1:58.55 | 41295 | 50199
5 | 11:09.25 | 3:57.72 | 50200 | 68046
6 | 15:07.22 | 2:08.23 | 68047 | 77669
7 | 17:15.45 | 1:39.40 | 77670 | 85134
8 | 18:55.10 | 5:26.57 | 85135 | 109641
9 | 24:21.67 | 4:11.65 | 109642 | 128531
10 | 28:33.57 | 2:50.15 | 128532 | 141296
11 | 31:23.72 | 4:51.00 | 141297 | 163121
12 | 36:14.72 | 1:10.68 | 163122 | 168439
13 | 37:25.65 | 0:42.44 | 168440 | 171633
14 | 38:08.34 | 4:20.23 | 171634 | 191156
15 | 42:28.57 | 2:35.60 | 191157 | 202841
16 | 45:04.42 | 0:51.08 | 202842 | 206674
17 | 45:55.50 | 2:42.17 | 206675 | 218841
18 | 48:37.67 | 1:56.30 | 218842 | 227571
19 | 50:34.22 | 1:59.43 | 227572 | 236539
20 | 52:33.65 | 2:36.07 | 236540 | 248246
21 | 55:09.72 | 5:11.23 | 248247 | 271594


Gama de estados y errores

Seleccionar gama

Nombre de Archivo D:\Musica\Compartidos\CD1.wav

Nivel Pico 99.9 %
Gama de Calidad 100.0 %
Copiar CRC 6383C2AD
Copia OK

Sin Errores


Resumen AccurateRip

Pista 1 extraido de modo preciso (nivel de confianza 3) [037315AB]
Pista 2 extraido de modo preciso (nivel de confianza 3) [39D656DC]
Pista 3 extraido de modo preciso (nivel de confianza 3) [C7CE33E2]
Pista 4 extraido de modo preciso (nivel de confianza 3) [A1B14010]
Pista 5 extraido de modo preciso (nivel de confianza 3) [7525C0B3]
Pista 6 extraido de modo preciso (nivel de confianza 3) [C11DB831]
Pista 7 extraido de modo preciso (nivel de confianza 3) [9A750ABD]
Pista 8 extraido de modo preciso (nivel de confianza 3) [CAB42A86]
Pista 9 extraido de modo preciso (nivel de confianza 3) [FDFC6E7F]
Pista 10 extraido de modo preciso (nivel de confianza 3) [951CF15D]
Pista 11 extraido de modo preciso (nivel de confianza 3) [D056791A]
Pista 12 extraido de modo preciso (nivel de confianza 3) [3CE12C0F]
Pista 13 extraido de modo preciso (nivel de confianza 3) [206CF623]
Pista 14 extraido de modo preciso (nivel de confianza 3) [BDE1C9A6]
Pista 15 extraido de modo preciso (nivel de confianza 3) [ADD8BD81]
Pista 16 extraido de modo preciso (nivel de confianza 3) [4DD83AE3]
Pista 17 extraido de modo preciso (nivel de confianza 3) [BC249619]
Pista 18 extraido de modo preciso (nivel de confianza 3) [DC47F76D]
Pista 19 extraido de modo preciso (nivel de confianza 3) [16663B5B]
Pista 20 extraido de modo preciso (nivel de confianza 3) [B27C7133]
Pista 21 extraido de modo preciso (nivel de confianza 3) [407EAA76]

Todas las pistas extraidas de modo preciso

Final del Informe

Exact Audio Copy V0.99 prebeta 5 from 4. May 2009

Archivo Log de extracciones desde 30. Diciembre 2009, 7:00

Szymanowski / Król Roger

Usar unidad : HL-DT-STDVD-RW_GSA-H11N Adapter: 5 ID: 0

Modo de Lectura : Seguro
Utilizar Corriente Exacta : Sí
Descartar Audio caché : No
Utilizar los punteros C2 : Sí

Corrección de Desplazamiento de Lectura : 667
Sobreleer tanto en Lead-In como en Lead-Out : No
Rellenar las muestras faltantes con silencios : Sí
Eliminar silencios inicial y final : No
Se han usado muestras nulas en los cálculos CRC : No
Interfaz usada : Interfaz propio de Win32 para Windowns NT y 2000

Formato de Salida utilizado : Rutinas WAV Internas
Formato de Muestreo : 44.100 Hz; 16 Bit; Estéreo


TOC del CD extraido

Pista | Inicio | Duración | Sector inicial | Sector final
––––––––––––––––––––––––––––––-
1 | 0:00.00 | 6:36.62 | 0 | 29761
2 | 6:36.62 | 1:34.68 | 29762 | 36879
3 | 8:11.55 | 3:12.72 | 36880 | 51351
4 | 11:24.52 | 2:24.20 | 51352 | 62171
5 | 13:48.72 | 4:57.00 | 62172 | 84446
6 | 18:45.72 | 1:47.60 | 84447 | 92531
7 | 20:33.57 | 2:24.72 | 92532 | 103403
8 | 22:58.54 | 10:18.48 | 103404 | 149801


Gama de estados y errores

Seleccionar gama

Nombre de Archivo D:\Musica\Compartidos\CD2.wav

Nivel Pico 89.5 %
Gama de Calidad 100.0 %
Copiar CRC ACC865D3
Copia OK

Sin Errores


Resumen AccurateRip

Pista 1 no se puede verificar como preciso (confianza 4) [919B5876], AccurateRip devuelto [A2F779DD]
Pista 2 no se puede verificar como preciso (confianza 4) [74D4CC1C], AccurateRip devuelto [C1C1E0D8]
Pista 3 no se puede verificar como preciso (confianza 4) [A00AB4AA], AccurateRip devuelto [3C0E86F8]
Pista 4 no se puede verificar como preciso (confianza 4) [A98E8DC9], AccurateRip devuelto [C942EE01]
Pista 5 no se puede verificar como preciso (confianza 4) [1F1DFAE8], AccurateRip devuelto [F0586F12]
Pista 6 no se puede verificar como preciso (confianza 4) [9BD189E9], AccurateRip devuelto [EB4FEC78]
Pista 7 no se puede verificar como preciso (confianza 4) [B550D321], AccurateRip devuelto [4F08FD07]
Pista 8 no se puede verificar como preciso (confianza 4) [F80DF70E], AccurateRip devuelto [32D565D1]

No se verificará ninguna pista como precisa
Puede que tengas una edición diferente a la(s) de la base de datos

Final del Informe


Tracklist:
CD1

1. Act I - In the Church: Hagios! Hagios! (Holy! Holy!) 00:02:34
2. Act I: Entry of the King and Court: Boze, poblogoslaw! (Lord, Be Gracious to Him!) 00:02:36
3. Act I: Czys styszal (What Do You Say) 00:04:00
4. Act I: The Shepherd Appears: Oto bluznierca! (Wretched Blasphemer!) 00:01:59
5. Act I: Moj Bog jest piekny (My God is Young and Handsome) 00:03:58
6. Act I: W jego usmiechu! (His Smiling Face!) 00:02:08
7. Act I: Twoj Bog! (Your God!) 00:01:40
8. Act I: Niech odejdzie Pasterz (He Must Go, the Shepherd) 00:05:26
9. Act II - The Inner Courtyard of the Palace - Introduction: Niepokoj bladych gwiazd (How Pale the Stars Shine) 00:04:12
10. Act II: Czy widziales jej oczu blask (Did You Not See the Brightness of His Eyes) 00:02:50
11. Act II: Cyt! Tamburyny brzecza (Listen! Tambourine and Zither) 00:04:51
12. Act II: Ktos mglisty przeszedl (A Shadow Passed There) 00:01:11
13. Act II: The Sheperd Appears 00:00:43
14. Act II: O przychodze sam (See, I Have Come to You) 00:04:20
15. Act II: A, uspij swoj lek i gniew (Ah, Set Aside Anger and Wrath) 00:02:36
16. Act II: We mnie wierza! (By Faith!) 00:00:51
17. Act II: Tajemnych glebin (With this Hand I Wake the Deep Secret) 00:02:42
18. Act II: Dance of the Sheperd's Followers 00:01:57
19. Act II: Entrance of Roxane: A - , A - (Chorus) 00:01:59
20. Act II: Soldiers Seize the Shepherd: Kto smie moj czar (Who Would Bind Me) 00:02:36
21. Act II: Sluchajcie … W ciszy nocy (Hear … in the Silence of the Night) 00:05:12

CD2

1. Act III - The Ruins of a Greek Theatre - Introduction: Wokol martwota glazow (Only Dead Stone Around) 00:06:36
2. Act III: Rogerze! Rogerze! (Roger! Roger!) 00:01:35
3. Act III: Na sad, na sad (Yield to Justice, King), Chorus 00:03:13
4. Act III: Slyszysz! Jeno cichy fletni spiew (Listen! Only the Sound of the Gentle Flute) 00:02:24
5. Act III: Rogerze! Rogerze! (Roger! Roger!) 00:04:57
6. Act III: Edrisi, juz swit! (Edrisi, day dawns!) 00:01:48
7. Act III: Slonce! Slonce! (The Sun! The Sun!) 00:02:25
8. Prince Potemkin: Incidental Music to Act V 00:10:19

Pass: leverkuhn

DOWNLOAD