Subcategories

Oregon - Moon And Mind (1979)

Posted By: zerumuga
Oregon - Moon And Mind (1979)

Oregon - Moon And Mind
Jazz | 1979 | FLAC : tracks+log => 205MB | Time 40:51 | Covers


This is an odd entry in the Oregon catalogue. At no time do the whole group play together. Rather it is a collection of nine duets, combining instruments such as guitar and tabla, sitar and bass, piano and oboe, piano and bass etc. The tunes are excellent, and the matchless playing of these superb musicians work together at their usual high standard




Tracks:

*01.-Person-To-Person
*02.-I Remember Me
*03.-Rejoicing
*04.-The Elk
*05.-Gloria's Step
*06.-Moon And Mind
*07.-Dust Devil
*08.-Elevator
*09.-Dunvegan




Personnel:

*Ralph Towner: 12 string guitar, classical guitar, piano, Hammond organ, percussion
*Collin Walcott: dulcimer, tabla, sitar, piano, conga, percussion
*Glen Moore: piano, bass
*Paul McCandless: oboe, bass clarinet, flute


Exact Audio Copy V0.99 prebeta 3 from 28. July 2007

EAC extraction logfile from 26. January 2008, 23:32

Oregon / Moon And Mind

Used drive : MATSHITADVD-RAM UJ-840S Adapter: 1 ID: 0

Read mode : Secure
Utilize accurate stream : Yes
Defeat audio cache : No
Make use of C2 pointers : Yes

Read offset correction : 102
Overread into Lead-In and Lead-Out : No
Fill up missing offset samples with silence : Yes
Delete leading and trailing silent blocks : No
Null samples used in CRC calculations : No
Used interface : Native Win32 interface for Win NT & 2000

Used output format : User Defined Encoder
Selected bitrate : 1024 kBit/s
Quality : High
Add ID3 tag : No
Command line compressor : C:\Program Files\Exact Audio Copy\FLAC\FLAC.EXE
Additional command line options : -6 -V -T "ARTIST=%a" -T "TITLE=%t" -T "ALBUM=%g" -T "DATE=%y" -T "TRACKNUMBER=%n" -T "GENRE=%m" -T "COMMENT=%e" %s -o %d


TOC of the extracted CD

Track | Start | Length | Start sector | End sector
––––––––––––––––––––––––––––-
1 | 0:00.00 | 3:14.73 | 0 | 14622
2 | 3:14.73 | 4:04.00 | 14623 | 32922
3 | 7:18.73 | 4:21.00 | 32923 | 52497
4 | 11:39.73 | 6:05.72 | 52498 | 79944
5 | 17:45.70 | 3:16.70 | 79945 | 94714
6 | 21:02.65 | 8:27.08 | 94715 | 132747
7 | 29:29.73 | 3:07.00 | 132748 | 146772
8 | 32:36.73 | 3:57.02 | 146773 | 164549
9 | 36:34.00 | 4:22.28 | 164550 | 184227


Range status and errors

Selected range

Filename C:\Documents and Settings\Igor\My Documents\Lina\Oregon - Moon And Mind.wav

Peak level 72.0 %
Range quality 100.0 %
Copy CRC A3D75CD8
Copy OK

No errors occurred


AccurateRip summary

Track 1 cannot be verified as accurate (confidence 1) [A5A4772A], AccurateRip returned [4FA97E30]
Track 2 cannot be verified as accurate (confidence 1) [8C4A3A07], AccurateRip returned [D22A58D8]
Track 3 cannot be verified as accurate (confidence 1) [C1CEC1F7], AccurateRip returned [25A6CBAD]
Track 4 cannot be verified as accurate (confidence 1) [61AA941F], AccurateRip returned [E26FA24B]
Track 5 cannot be verified as accurate (confidence 1) [277F2983], AccurateRip returned [FF358B91]
Track 6 cannot be verified as accurate (confidence 1) [B0A04CF6], AccurateRip returned [8788F6CE]
Track 7 cannot be verified as accurate (confidence 1) [195E524B], AccurateRip returned [4E85CB0C]
Track 8 cannot be verified as accurate (confidence 1) [6E9F307C], AccurateRip returned [975D8C08]
Track 9 cannot be verified as accurate (confidence 1) [6BC17C18], AccurateRip returned [72DDD834]

No tracks could be verified as accurate
You may have a different pressing from the one(s) in the database

End of status report




Download FLAC

Parte 1
Parte 2






My Blog. Enjoy }i{