Subcategories
Tags
Language
Tags

Orlando Jacinto Garcia - La Belleza Del Silencio (1991) {OODiscs #6}

Posted By: ruskaval
Orlando Jacinto Garcia - La Belleza Del Silencio (1991) {OODiscs #6}

Orlando Jacinto Garcia - La Belleza Del Silencio (1991) {OODiscs #6}
EAC rip (secure mode) | FLAC (tracks)+CUE+LOG -> 243 Mb | MP3 @320 -> 165 Mb
Full Artwork @ 300 dpi (jpg) -> 16 Mb | 5% repair rar
© 1991 OODiscs | #6
Classical / Contemporary Glassical / Avant-Garde / Experimental

Beautiful groups of sounds, soft sharp sustained dissonances in constantly varying permutations characterize the music by this Cuban-born, Miami-based composer, who studied with Morton Feldman. Perfect performances by Joan LaBarbara, voice, The Gregg Smith Singers, Jan Williams, percussion and other musicians. The Beauty of Silence was Orlando Jacinto Garcia's first solo CD. This critically acclaimed CD includes several of Garcia's earliest post Feldman works.

Works on This Recording & personnel:

Orlando Jacinto Garcia - La Belleza Del Silencio (1991) {OODiscs #6}


Exact Audio Copy V1.3 from 2. September 2016

EAC extraction logfile from 4. April 2019, 22:03

Orlando Jacinto`Garcia / La`Belleza Del Silencio

Used drive : ATAPI DVD A DH24AFSH Adapter: 1 ID: 0

Read mode : Secure
Utilize accurate stream : Yes
Defeat audio cache : Yes
Make use of C2 pointers : No

Read offset correction : 6
Overread into Lead-In and Lead-Out : No
Fill up missing offset samples with silence : Yes
Delete leading and trailing silent blocks : No
Null samples used in CRC calculations : Yes
Used interface : Native Win32 interface for Win NT & 2000
Gap handling : Appended to previous track

Used output format : User Defined Encoder
Selected bitrate : 1024 kBit/s
Quality : High
Add ID3 tag : No
Command line compressor : C:\flac\flac-1.3.2-win\win32\flac.exe
Additional command line options : -8 -V -T "ARTIST=%artist%" -T "TITLE=%title%" -T "ALBUM=%albumtitle%" -T "DATE=%year%" -T "TRACKNUMBER=%tracknr%" -T "GENRE=%genre%" -T "PERFORMER=%albuminterpret%" -T "COMPOSER=%composer%" %haslyrics%–tag-from-file=LYRICS="%lyricsfile%"%haslyrics% -T "ALBUMARTIST=%albumartist%" -T "DISCNUMBER=%cdnumber%" -T "TOTALDISCS=%totalcds%" -T "TOTALTRACKS=%numtracks%" -T "COMMENT=%comment%" %source% -o %dest%


TOC of the extracted CD

Track | Start | Length | Start sector | End sector
––––––––––––––––––––––––––––-
1 | 0:00.00 | 11:05.63 | 0 | 49937
2 | 11:05.63 | 14:00.30 | 49938 | 112967
3 | 25:06.18 | 22:40.35 | 112968 | 215002
4 | 47:46.53 | 21:06.62 | 215003 | 310014


Track 1

Filename O:\EAC\La`Belleza Del Silencio\01 - On the Eve of the Second Year Anniversary of Horton's Death.wav

Pre-gap length 0:00:02.00

Peak level 82.3 %
Extraction speed 1.8 X
Track quality 99.9 %
Test CRC 3B4F74B4
Copy CRC 3B4F74B4
Accurately ripped (confidence 1) [1E2D8BAB] (AR v1)
Copy OK

Track 2

Filename O:\EAC\La`Belleza Del Silencio\02 - Improvisation With Metallic Materials.wav

Peak level 99.7 %
Extraction speed 8.6 X
Track quality 100.0 %
Test CRC 218E2A1D
Copy CRC 218E2A1D
Accurately ripped (confidence 1) [17D98A67] (AR v1)
Copy OK

Track 3

Filename O:\EAC\La`Belleza Del Silencio\03 - Sitio Sin Nombre.wav

Peak level 39.7 %
Extraction speed 3.3 X
Track quality 99.9 %
Test CRC F8BBE78E
Copy CRC F8BBE78E
Accurately ripped (confidence 1) [70BE524A] (AR v1)
Copy OK

Track 4

Filename O:\EAC\La`Belleza Del Silencio\04 - Metallic Images.wav

Peak level 92.1 %
Extraction speed 12.4 X
Track quality 100.0 %
Test CRC BF5B1FF7
Copy CRC BF5B1FF7
Accurately ripped (confidence 1) [B16D42D1] (AR v1)
Copy OK


All tracks accurately ripped

No errors occurred

End of status report

–– CUETools DB Plugin V2.1.6

[CTDB TOCID: XU0oYwjN00GHdbaI3adnGgeZ2I8-] disk not present in database
Submit result: XU0oYwjN00GHdbaI3adnGgeZ2I8- has been uploaded


==== Log checksum BB8CCC68F7705322BFA667AD37493F3EA99C54159526A17338397DE3EAC58931 ====


Orlando Jacinto Garcia - La Belleza Del Silencio (1991) {OODiscs #6}


see more OODiscs…

more OODiscs on the way…


===