Subcategories

Oscar Peterson - A Summer Night in Munich (1998) [Live]

Posted By: intothe
Oscar Peterson - A Summer Night in Munich (1998) [Live]

Oscar Peterson - A Summer Night in Munich (1998)
Jazz | EAC rip (FLAC+CUE+LOG) | 381 MB | full scans
Telarc Jazz | 64:09 | RAR with 5% recovery
Super Bit Mapping Direct


EAC extraction logfile from 16. December 2009, 10:24

Oscar Peterson / A Summer Night In Munich

Used drive : _NEC DVD_RW ND-3500AG Adapter: 0 ID: 0

Read mode : Secure
Utilize accurate stream : Yes
Defeat audio cache : Yes
Make use of C2 pointers : No

Read offset correction : 48
Overread into Lead-In and Lead-Out : No
Fill up missing offset samples with silence : Yes
Delete leading and trailing silent blocks : No
Null samples used in CRC calculations : Yes
Used interface : Native Win32 interface for Win NT & 2000

Used output format : User Defined Encoder
Selected bitrate : 768 kBit/s
Quality : High
Add ID3 tag : No
Command line compressor : C:\Program Files\Exact Audio Copy\FLAC\FLAC.EXE
Additional command line options : -6 -V -T "ARTIST=%a" -T "TITLE=%t" -T "ALBUM=%g" -T "DATE=%y" -T "TRACKNUMBER=%n" -T "GENRE=%m" -T "COMMENT=%e" %s -o %d


TOC of the extracted CD

Track | Start | Length | Start sector | End sector
––––––––––––––––––––––––––––-
1 | 0:00.00 | 7:06.42 | 0 | 31991
2 | 7:06.42 | 9:16.18 | 31992 | 73709
3 | 16:22.60 | 9:46.37 | 73710 | 117696
4 | 26:09.22 | 6:24.25 | 117697 | 146521
5 | 32:33.47 | 8:31.50 | 146522 | 184896
6 | 41:05.22 | 8:58.63 | 184897 | 225309
7 | 50:04.10 | 6:00.57 | 225310 | 252366
8 | 56:04.67 | 8:04.20 | 252367 | 288686


Range status and errors

Selected range

Filename J:\eMusic\Rip\Oscar Peterson - A Summer Night In Munich.wav

Peak level 100.0 %
Range quality 99.9 %
Test CRC 9073AFC2
Copy CRC 09141DD2
Copy OK

No errors occurred


AccurateRip summary

Track 1 accurately ripped (confidence 8) [56498333]
Track 2 cannot be verified as accurate (confidence 9) [A2310849], AccurateRip returned [C8752ECB]
Track 3 accurately ripped (confidence 9) [D88DF23E]
Track 4 accurately ripped (confidence 9) [887BF7B1]
Track 5 accurately ripped (confidence 9) [DFF97FDC]
Track 6 accurately ripped (confidence 8) [35A6B41E]
Track 7 accurately ripped (confidence 9) [28DBAD2A]
Track 8 accurately ripped (confidence 8) [BAE94782]

7 track(s) accurately ripped
1 track(s) could not be verified as accurate

Some tracks could not be verified as accurate

End of status report


A Summer Night in Munich captures Oscar Peterson and his "NATO quartet" in a triumphant concert performance recorded July 22, 1998 at the Munchen Philharmonika. With a program of seven Peterson originals plus the Ellington-Strayhorn standard, "Satin Doll," this group cooks. "Backyard Blues" and "Nigerian Marketplace" are especially exciting and contemporary-sounding originals, while "When Summer Comes," "Evening Song" and "Love Ballade" are beautiful ballads. Bassist Niels-Henning Oersted Pedersen lays down the nimble-fingered lines for which he is known, while guitarist Ulf Wakenius is a most complementary figure in dialogue with the leader. Drummer Martin Drew keeps the proceedings on track rhythmically, taking a tasty solo turn on the set closer, "Sushi." With this fine recording, Peterson shows that even in his seventies, he's still got the goods. - by Jim Newsom, AMG

Tracks:
1. Backyard Blues (Oscar Peterson) 7:06
2. When Summer Comes (Oscar Peterson) 9:16
3. Nigerian Marketplace (Oscar Peterson) 9:46
4. Evening Song (Oscar Peterson) 6:24
5. Satin Doll (Duke Ellington/Bill Strayhorn) 8:31
6. Love Ballade (Oscar Peterson) 8:58
7. Hymn to Freedom (Oscar Peterson) 6:00
8. Sushi (Oscar Peterson) 8:04

Personnel:
Oscar Peterson (Piano)
Ulf Wakenius (Guitar)
Niels Henning Oersted-Pedersen (Double Bass)
Martin Drew (Drums)

Dlink