Tags
Language
Tags

Detroit SO, Paray - Paray conducts Chabrier And Roussel {Mercury Living Presence} [Hybrid SACD: PS3 SACD Rip & EAC CD Rip]

Posted By: luckburz
Detroit SO, Paray - Paray conducts Chabrier And Roussel {Mercury Living Presence} [Hybrid SACD: PS3 SACD Rip & EAC CD Rip]

Paray - Chabrier And Roussel
Detroit Symphony Orchestra / Paul Paray
PS3 SACD ISO (2.0/3.0): 2,97 GB | EAC Rip, FLAC LOG & CUE: 355 MB | 24B/88,2kHz FLAC (2.0): 1,22 GB | Lossless Artwork: 62 MB | Recovery Info
Label/Cat#: Mercury Living Presence 475 618-3 | Country/Year: Germany 2004 | Genre: Classical | Hoster: Filepost/Filefactory

MD5 [X] CUE [X] LOG [X] INFO TEXT [X] ARTWORK [X]

webfind [] selfrip [X]

With kind permission by the administration this is crossposted in music & hi-res. Thanks!

Detroit SO, Paray - Paray conducts Chabrier And Roussel {Mercury Living Presence} [Hybrid SACD: PS3 SACD Rip & EAC CD Rip]

Detroit SO, Paray - Paray conducts Chabrier And Roussel {Mercury Living Presence} [Hybrid SACD: PS3 SACD Rip & EAC CD Rip]


Exact Audio Copy V1.0 beta 2 from 29. April 2011

EAC extraction logfile from 2. May 2012, 8:08

Detroit Symphony Orchestra & Paul Paray / Paray conducts Chabrier & Roussel

Used drive : PIONEER BD-RW BDR-206 Adapter: 2 ID: 3

Read mode : Secure
Utilize accurate stream : Yes
Defeat audio cache : Yes
Make use of C2 pointers : No

Read offset correction : 667
Overread into Lead-In and Lead-Out : No
Fill up missing offset samples with silence : Yes
Delete leading and trailing silent blocks : No
Null samples used in CRC calculations : Yes
Used interface : Native Win32 interface for Win NT & 2000

Used output format : User Defined Encoder
Selected bitrate : 896 kBit/s
Quality : High
Add ID3 tag : No
Command line compressor : C:\Program Files\FLAC\flac.exe
Additional command line options : -5 -T "Artist=%artist%" -T "Title=%title%" -T "Album=%albumtitle%" -T "Date=%year%" -T "Tracknumber=%tracknr%" -T "Genre=%genre%" %source% -o %dest%


TOC of the extracted CD

Track | Start | Length | Start sector | End sector
––––––––––––––––––––––––––––-
1 | 0:00.00 | 6:38.37 | 0 | 29886
2 | 6:38.37 | 4:04.70 | 29887 | 48256
3 | 10:43.32 | 4:20.25 | 48257 | 67781
4 | 15:03.57 | 2:57.33 | 67782 | 81089
5 | 18:01.15 | 4:39.15 | 81090 | 102029
6 | 22:40.30 | 7:36.55 | 102030 | 136284
7 | 30:17.10 | 8:43.70 | 136285 | 175579
8 | 39:01.05 | 5:12.07 | 175580 | 198986
9 | 44:13.12 | 3:40.15 | 198987 | 215501
10 | 47:53.27 | 6:15.18 | 215502 | 243644
11 | 54:08.45 | 4:02.00 | 243645 | 261794
12 | 58:10.45 | 4:51.30 | 261795 | 283649
13 | 63:02.00 | 4:20.52 | 283650 | 303201


Range status and errors

Selected range

Filename I:\=== VINYL RIPS ===\=== EAC===\X FRESH RIP\Detroit Symphony Orchestra & Paul Paray - Paray conducts Chabrier & Roussel.wav

Peak level 100.0 %
Extraction speed 2.0 X
Range quality 100.0 %
Test CRC 979D0ECA
Copy CRC 979D0ECA
Copy OK

No errors occurred


AccurateRip summary

Track 1 accurately ripped (confidence 5) [01FC29CC] (AR v2)
Track 2 accurately ripped (confidence 5) [616B5A2C] (AR v2)
Track 3 accurately ripped (confidence 5) [BC59CD26] (AR v2)
Track 4 accurately ripped (confidence 5) [58C78978] (AR v2)
Track 5 accurately ripped (confidence 4) [4F9D3780] (AR v2)
Track 6 accurately ripped (confidence 5) [BA0AE27E] (AR v2)
Track 7 accurately ripped (confidence 5) [8FD8EF56] (AR v2)
Track 8 accurately ripped (confidence 5) [1AB8ADBE] (AR v2)
Track 9 accurately ripped (confidence 5) [AFDABCA8] (AR v2)
Track 10 accurately ripped (confidence 5) [AF37235F] (AR v2)
Track 11 accurately ripped (confidence 5) [524DE8C6] (AR v2)
Track 12 accurately ripped (confidence 5) [56EE25C6] (AR v2)
Track 13 accurately ripped (confidence 5) [BF42EC16] (AR v2)

All tracks accurately ripped

End of status report

==== Log checksum 1BA35097DE5FC1AC682BA0AED4212D52900FD3F4160AC12D4D813899C4486A41 ====


16908351[0x102003f]: SACD-Ripper Version 0.36
16908351[0x102003f]: config: 00 00 00 0c 00 00 00 00 ff 41 00 04 00 00 00 00
16908351[0x102003f]: config: 00 00 00 00 00 00 00 00 00 00 00 00 00 00 00 00
16908351[0x102003f]: config: 00 00 00 00 00 00 00 00 00 00 00 00 00 00 00 00
16908351[0x102003f]: config: 00 00 00 00 00 00 00 00 00 00 00 00 00 00 00 00
16908351[0x102003f]: device_info: 75 6e 6e 61 6d 65 5c 10 80 00 00 00 00 53 a0 00
16908351[0x102003f]: device_info: 80 00 00 00 10 13 de 70 80 00 00 00 00 5e 64 00
16908351[0x102003f]: device_info: 00 00 00 00 00 00 00 00 00 00 00 00 7f ff ff ff
16908351[0x102003f]: device_info: 00 00 08 00 00 00 00 01 00 01 01 00 00 00 00 01
16908351[0x102003f]: disc inserted..
16908351[0x102003f]: config: 00 00 00 0c 00 00 00 10 ff 41 01 04 00 00 00 00
16908351[0x102003f]: config: 00 00 00 00 00 00 00 00 00 00 00 00 00 00 00 00
16908351[0x102003f]: config: 00 00 00 00 00 00 00 00 00 00 00 00 00 00 00 00
16908351[0x102003f]: config: 00 00 00 00 00 00 00 00 00 00 00 00 00 00 00 00
16908351[0x102003f]: device_info: 75 6e 6e 61 6d 65 5c 10 80 00 00 00 00 53 a0 00
16908351[0x102003f]: device_info: 80 00 00 00 10 13 de 70 80 00 00 00 00 5e 64 00
16908351[0x102003f]: device_info: 00 00 00 00 00 00 00 00 00 00 00 00 00 17 c7 10
16908351[0x102003f]: device_info: 00 00 08 00 00 00 00 01 00 01 01 00 00 00 00 01
16908351[0x102003f]: Album Title: Chabrier: Orchestral Works
16908351[0x102003f]: Album Artist: Detroit Symphony Orchestra / Paul Paray - Conducto
16908351[0x102003f]: Disc Version: 01.20
16908351[0x102003f]: config: 00 00 00 0c 00 00 00 10 ff 41 01 04 00 00 00 00
16908351[0x102003f]: config: 00 00 00 00 00 00 00 00 00 00 00 00 00 00 00 00
16908351[0x102003f]: config: 00 00 00 00 00 00 00 00 00 00 00 00 00 00 00 00
16908351[0x102003f]: config: 00 00 00 00 00 00 00 00 00 00 00 00 00 00 00 00
16908351[0x102003f]: device_info: 75 6e 6e 61 6d 65 5c 10 80 00 00 00 00 53 a0 00
16908351[0x102003f]: device_info: 80 00 00 00 10 13 de 70 80 00 00 00 00 5e 64 00
16908351[0x102003f]: device_info: 00 00 00 00 00 00 00 00 00 00 00 00 00 17 c7 10
16908351[0x102003f]: device_info: 00 00 08 00 00 00 00 01 00 01 01 00 00 00 00 01
16908351[0x102003f]: succeeded. raw_spu number is 0
16908351[0x102003f]: succeeded. entry d0
16908351[0x102003f]: Establishing the interrupt tag on the interrupt PPU thread.
16908351[0x102003f]: ioctl_report_key1[45023901] 0
16908351[0x102003f]: sac_exec_generate_key 0 c9 0
16908351[0x102003f]: ioctl_send_key[2] c9 0
16908351[0x102003f]: ioctl_report_key[2] c8 0
16908351[0x102003f]: sac_exec_validate_key_1[0]
16908351[0x102003f]: sac_exec_generate_key_2[ae] 0
16908351[0x102003f]: ioctl_send_key[3] ae 0
16908351[0x102003f]: ioctl_report_key[3] b0 0
16908351[0x102003f]: sac_exec_validate_key_2[0]
16908351[0x102003f]: ioctl_report_key[4] 30 0
16908351[0x102003f]: sac_exec_validate_key_3[0]
16908351[0x102003f]: ioctl_report_finish [0xff] 0
16908351[0x102003f]: Queuing raw: /dev_usb000/Detroit Symphony Orchestra Paul Paray - Conductor - Chabrier Orchestral Works.iso, start_lsn: 0, length_lsn: 1558288


_____________________________________________________________________________________________________


Detroit Symphony Orchestra / Paul Paray - Conductor - [2004] Chabrier [Stereo]
======================================================================================
SACD[PS3]ISO to flac 24bit/88.2kHz conversion using SACD_Conversion_script version 0.4.1

Track list
–––––

01 Chabrier: ESPAÑA 06:42.00
02 Chabrier: SUITE PASTORALE: 1. Idylle 04:07.00
03 Chabrier: SUITE PASTORALE: 2. Danse villageoise 04:22.00
04 Chabrier: SUITE PASTORALE: 3. Sous bois 02:58.00
05 Chabrier: SUITE PASTORALE: 4. Scherzo-Valse 04:44.00
06 Chabrier: FÊTE POLONAISE from Le roi malgré lui 07:40.00
07 Chabrier: OVERTURE to Gwendoline 08:47.00
08 Chabrier: DANSE SLAVE from Le roi malgré lui 05:15.47
09 Chabrier: JOYEUSE MARCHE 03:39.80
10 Chabrier: BOURÉE FANTASQUE 06:14.73
11 Roussel: SUITE in F, Op. 33: 1. Prelude 04:04.00
12 Roussel: SUITE in F, Op. 33: 2. Sarabande 04:53.00
13 Roussel: SUITE in F, Op. 33: 3. Gigue 04:25.05

Technical Details
––––––––-

01) ISO image created using sacd-ripper for PS3

02) Dff files extracted from the ISO using SACD_Extract

03) Dff files analysed using foobar + foo_input_sacd and DR Meter plugins to find peak track(s)

04) Loudest tracks converted using Weiss Saracon 1.61-27 at 24bit/88.2kHz with 0dB gain

05) Non-clipping gain calculated using SoX

06) Edited Master Dff file extracted using SACD_Extract

07) Final pass conversion using Weiss Saracon 1.61-27 at 24bit/88.2kHz with 3.96dB gain as calculated above

08) Final pass PCM file split into individual tracks (discarding first 41 samples) using track lengths calculated from cue file generated by SACD_Extract

09) Spikes at beginning of first/end of last tracks eliminated by deleting 24 samples and replacing with the adjacent 24 samples using SoX to give the correct track length

10) Finalised tracks converted to flac [level 8] and tagged using tag.exe

11) Dynamic Range measured using Foobar DR Meter plugin

foobar2000 1.1.11 / Dynamic Range Meter 1.1.1
log date: 2012-05-03 17:47:20

––––––––––––––––––––––––––––––––––––––––
Analyzed: Detroit Symphony Orchestra / Paul Paray - Conductor / Chabrier
––––––––––––––––––––––––––––––––––––––––

DR Peak RMS Duration Track
––––––––––––––––––––––––––––––––––––––––
DR13 -0.62 dB -18.89 dB 6:42 01-Chabrier: ESPAÐA
DR14 -8.61 dB -28.17 dB 4:07 02-Chabrier: SUITE PASTORALE: 1. Idylle
DR14 -2.33 dB -23.03 dB 4:22 03-Chabrier: SUITE PASTORALE: 2. Danse villageoise
DR12 -12.31 dB -28.14 dB 2:58 04-Chabrier: SUITE PASTORALE: 3. Sous bois
DR14 -1.60 dB -22.70 dB 4:44 05-Chabrier: SUITE PASTORALE: 4. Scherzo-Valse
DR13 -0.01 dB -17.29 dB 7:40 06-Chabrier: F╩TE POLONAISE from Le roi malgrÚ lui
DR12 -0.73 dB -17.27 dB 8:47 07-Chabrier: OVERTURE to Gwendoline
DR12 -3.61 dB -20.17 dB 5:15 08-Chabrier: DANSE SLAVE from Le roi malgrÚ lui
DR12 -0.06 dB -17.39 dB 3:40 09-Chabrier: JOYEUSE MARCHE
DR13 -0.43 dB -18.64 dB 6:15 10-Chabrier: BOURâ•”E FANTASQUE
DR10 -0.88 dB -16.54 dB 4:04 11-Roussel: SUITE in F, Op. 33: 1. Prelude
DR13 -0.68 dB -19.86 dB 4:53 12-Roussel: SUITE in F, Op. 33: 2. Sarabande
DR11 -0.81 dB -17.98 dB 4:25 13-Roussel: SUITE in F, Op. 33: 3. Gigue
––––––––––––––––––––––––––––––––––––––––

Number of tracks: 13
Official DR value: DR12

Samplerate: 88200 Hz
Channels: 2
Bits per sample: 24
Bitrate: 2524 kbps
Codec: FLAC
================================================================================



CD Info:

Detroit Symphony Orchestra / Paul Paray - Chabrier & Roussel

Label: Mercury Living Presence
Catalog#: 475 618-3
Format: Hybrid-SACD, Album, Stereo, Multichannel
Country: Germany
Released: 2004
Genre: Classical

Tracklist:

1. España, rhapsody for orchestra, also arranged for 2 pianos
2. Suite pastorale, for orchestra: 1. Idylle
3. Suite pastorale, for orchestra: 2. Danse villageoise
4. Suite pastorale, for orchestra: 3. Sous bois
5. Suite pastorale, for orchestra: 4. Scherzo - Valse
6. Le roi malgré lui, opéra-comique in 3 acts: Fête Polonaise
7. Gwendoline, opera in 2 acts: Overture
8. Le roi malgré lui, opéra-comique in 3 acts: Danse Slave
9. Joyeuse marche (Marche française), for orchestra or piano, 4 hands
10. Bourrée fantasque, for piano (also for orchestra)
11. Suite for orchestra in F major, Op. 33: 1. Prelude
12. Suite for orchestra in F major, Op. 33: 2. Sarabande
13. Suite for orchestra in F major, Op. 33: 3. Gigue

Notes:

This Mercury Living Presence SACD of orchestral works by Chabrier and Roussel presents, for the first time, Paray's celebrated recordings in their original 3-channel (left, right & centre) versions. In addition to this direct-to-DSD 3-channel stereo, the disc includes a new DSD stereo, plus the original CD transfer.

Detroit SO, Paray - Paray conducts Chabrier And Roussel {Mercury Living Presence} [Hybrid SACD: PS3 SACD Rip & EAC CD Rip]


This SACD encapsulates pure joy, both in the music of Chabrier and its performances here.
The recordings taped between March 1957 and November 1959 in three different venues are quite remarkable in their vividness. The clarity of the sound and the attack and energy exhibited by the Detroit Symphony under Paul Paray are truly astounding in these thrilling performances. Though not major works, all the pieces are beautifully crafted and orchestrated (the Bourrée Fantasque is given in the orchestration by Felix Mottl).
The short Suite in F by Roussel makes an excellent, if stylistically different, filler and is equally impressive in both sound and performance.
Listening to this SACD is the aural equivalent of taking a good tonic or a glass of single malt whisky – it makes you feel rejuvenated!
Those already familiar with Mercury Living Presence recordings will need no encouragement to buy this disc as the excellent transfers to SACD (3- channel) have made it sound as never before. For those new to MLP recordings a treat is in store. Graham Williams and SA-CD.net



More of my classical music:

//classical luckburz//

Check my blog for other lossless uploads:

//all luckburz//


Password:

finest-hq-audio

CD Rip links are labeled "CD", ISO links "ISO", Artwork "INFART" & the HiRes Stereo FLACs "FLA". Enjoy!