Subcategories
Tags
Language
Tags

Paul Desmond - Pure Desmond (1974) {CTI Masterworks Jazz 88697 80378 2 rel 2011}

Posted By: ruskaval
Paul Desmond - Pure Desmond (1974) {CTI Masterworks Jazz 88697 80378 2 rel 2011}

Paul Desmond - Pure Desmond (1974) {CTI Masterworks Jazz 88697 80378 2 rel 2011}
EAC rip (secure mode) | FLAC (tracks)+CUE+LOG -> 304 Mb | MP3 @320 -> 138 Mb
Full Artwork @ 300 dpi (jpg) -> 13 Mb | 5% repair rar
© 1974, 2011 CTI / Sony Music / Masterworks Jazz | 88697 80378 2
Jazz / Cool / Mainstream Jazz / Saxophone

With the Skylark "experiment" behind him, Paul Desmond reverted back to the relaxed quartet format that suited him well in the past. The reason? Through Jim Hall, he found a little-known, splendid guitarist in Toronto named Ed Bickert who became his new gigmate in 1974, and this album was meant to show his discovery off. In fact, it sparked a Desmond renaissance where he regained a good deal of the witty spark and erudite cool of his collaborations with Hall, no matter how unfashionable it was to play this way in 1974.

Bickert is an even more reticent player than Hall, softer in touch and temperament, but eminently musical, enough to fire up Desmond's creativity. Old Desmond hand Connie Kay lends sympathy and comfort on drums, and Ron Carter is on bass. "Just Squeeze Me," "Everything I Love," and "Til the Clouds Roll By" are the best examples of the empathy at work here but any track will do.
Paul Desmond - Pure Desmond (1974) {CTI Masterworks Jazz 88697 80378 2 rel 2011}


AAJ review

Personnel:
Paul Desmond: alto saxophone
Ed Bickert: guitar
Ron Carter: bass
Connie Kay: drums
Don Sebesky: musical supervision

tracklist:
01 - Just Squeeze Me
02 - I'm Old Fashioned
03 - Nuages
04 - Why Shouldn't I
05 - Everything I Love
06 - Warm Valley
07 - Till The Clouds Roll By
08 - Mean To Me
09 - Song From MASH
10 - Wave
11 - Nuages (alt tk)
12 - Just Squeeze Me (alt tk)
13 - Till The Clouds Roll By (alt tk)

Exact Audio Copy V1.1 from 23. June 2015

EAC extraction logfile from 10. September 2017, 22:47

Paul Desmond / Pure Desmond

Used drive : MATSHITADVD+-RW SW830 Adapter: 1 ID: 0

Read mode : Secure
Utilize accurate stream : Yes
Defeat audio cache : Yes
Make use of C2 pointers : No

Read offset correction : 6
Overread into Lead-In and Lead-Out : No
Fill up missing offset samples with silence : Yes
Delete leading and trailing silent blocks : No
Null samples used in CRC calculations : Yes
Used interface : Native Win32 interface for Win NT & 2000
Gap handling : Appended to previous track

Used output format : User Defined Encoder
Selected bitrate : 896 kBit/s
Quality : High
Add ID3 tag : No
Command line compressor : C:\Program Files (x86)\Exact Audio Copy\Flac\flac.exe
Additional command line options : -8 -V -T "ARTIST=%artist%" -T "TITLE=%title%" -T "ALBUM=%albumtitle%" -T "DATE=%year%" -T "TRACKNUMBER=%tracknr%" -T "TOTALTRACKS=%numtracks%" -T "GENRE=%genre%" -T "ALBUMARTIST=%albumartist%" -T "ALBUM ARTIST=%albumartist%" -T "COMMENT=EAC Secure Mode, Test & Copy, AccurateRip, FLAC -8" %source%


TOC of the extracted CD

Track | Start | Length | Start sector | End sector
––––––––––––––––––––––––––––-
1 | 0:00.00 | 4:33.60 | 0 | 20534
2 | 4:33.60 | 4:53.74 | 20535 | 42583
3 | 9:27.59 | 4:22.45 | 42584 | 62278
4 | 13:50.29 | 3:38.53 | 62279 | 78681
5 | 17:29.07 | 3:41.70 | 78682 | 95326
6 | 21:11.02 | 4:30.13 | 95327 | 115589
7 | 25:41.15 | 4:09.35 | 115590 | 134299
8 | 29:50.50 | 5:10.47 | 134300 | 157596
9 | 35:01.22 | 3:04.48 | 157597 | 171444
10 | 38:05.70 | 6:21.11 | 171445 | 200030
11 | 44:27.06 | 4:47.56 | 200031 | 221611
12 | 49:14.62 | 4:05.28 | 221612 | 240014
13 | 53:20.15 | 5:12.74 | 240015 | 263488


Track 1

Filename G:\New Rips\Paul Desmond - Pure Desmond (1975) [FLAC]\01 - Just Squeeze Me.wav

Pre-gap length 0:00:02.00

Peak level 77.0 %
Extraction speed 4.9 X
Track quality 100.0 %
Test CRC 928C95B3
Copy CRC 928C95B3
Accurately ripped (confidence 22) [AE00A3F1] (AR v2)
Copy OK

Track 2

Filename G:\New Rips\Paul Desmond - Pure Desmond (1975) [FLAC]\02 - I'm Old Fashioned.wav

Pre-gap length 0:00:01.24

Peak level 100.0 %
Extraction speed 5.5 X
Track quality 100.0 %
Test CRC 478E19E0
Copy CRC 478E19E0
Accurately ripped (confidence 22) [E6F1EDCF] (AR v2)
Copy OK

Track 3

Filename G:\New Rips\Paul Desmond - Pure Desmond (1975) [FLAC]\03 - Nuages.wav

Peak level 67.4 %
Extraction speed 4.9 X
Track quality 99.9 %
Test CRC 15665D63
Copy CRC 15665D63
Accurately ripped (confidence 22) [E56E1F21] (AR v2)
Copy OK

Track 4

Filename G:\New Rips\Paul Desmond - Pure Desmond (1975) [FLAC]\04 - Why Shouldn't I.wav

Pre-gap length 0:00:02.45

Peak level 86.9 %
Extraction speed 6.1 X
Track quality 100.0 %
Test CRC 7E6071EB
Copy CRC 7E6071EB
Accurately ripped (confidence 22) [35685158] (AR v2)
Copy OK

Track 5

Filename G:\New Rips\Paul Desmond - Pure Desmond (1975) [FLAC]\05 - Everything I Love.wav

Pre-gap length 0:00:02.69

Peak level 83.1 %
Extraction speed 6.5 X
Track quality 100.0 %
Test CRC 7EA7D516
Copy CRC 7EA7D516
Accurately ripped (confidence 22) [96444916] (AR v2)
Copy OK

Track 6

Filename G:\New Rips\Paul Desmond - Pure Desmond (1975) [FLAC]\06 - Warm Valley.wav

Pre-gap length 0:00:02.16

Peak level 70.4 %
Extraction speed 6.9 X
Track quality 100.0 %
Test CRC FDB2EC5D
Copy CRC FDB2EC5D
Accurately ripped (confidence 22) [01B50694] (AR v2)
Copy OK

Track 7

Filename G:\New Rips\Paul Desmond - Pure Desmond (1975) [FLAC]\07 - Till The Clouds Roll By.wav

Pre-gap length 0:00:02.16

Peak level 76.8 %
Extraction speed 7.2 X
Track quality 100.0 %
Test CRC 08D1D6F5
Copy CRC 08D1D6F5
Accurately ripped (confidence 22) [C2905F3C] (AR v2)
Copy OK

Track 8

Filename G:\New Rips\Paul Desmond - Pure Desmond (1975) [FLAC]\08 - Mean To Me.wav

Pre-gap length 0:00:01.34

Peak level 76.0 %
Extraction speed 7.6 X
Track quality 100.0 %
Test CRC FB13ED9C
Copy CRC FB13ED9C
Accurately ripped (confidence 22) [34D62334] (AR v2)
Copy OK

Track 9

Filename G:\New Rips\Paul Desmond - Pure Desmond (1975) [FLAC]\09 - Song From MASH.wav

Pre-gap length 0:00:01.69

Peak level 71.9 %
Extraction speed 7.4 X
Track quality 100.0 %
Test CRC E8EB75A1
Copy CRC E8EB75A1
Accurately ripped (confidence 22) [7785545C] (AR v2)
Copy OK

Track 10

Filename G:\New Rips\Paul Desmond - Pure Desmond (1975) [FLAC]\10 - Wave.wav

Pre-gap length 0:00:01.65

Peak level 82.7 %
Extraction speed 6.8 X
Track quality 99.9 %
Test CRC 144A499D
Copy CRC 144A499D
Accurately ripped (confidence 22) [97050294] (AR v2)
Copy OK

Track 11

Filename G:\New Rips\Paul Desmond - Pure Desmond (1975) [FLAC]\11 - Nuages (alt tk).wav

Pre-gap length 0:00:01.65

Peak level 68.8 %
Extraction speed 8.5 X
Track quality 100.0 %
Test CRC 69C38E61
Copy CRC 69C38E61
Accurately ripped (confidence 21) [84210F71] (AR v2)
Copy OK

Track 12

Filename G:\New Rips\Paul Desmond - Pure Desmond (1975) [FLAC]\12 - Just Squeeze Me (alt tk).wav

Pre-gap length 0:00:01.74

Peak level 71.2 %
Extraction speed 7.1 X
Track quality 99.9 %
Test CRC 9822252C
Copy CRC 9822252C
Accurately ripped (confidence 21) [2DD91FD9] (AR v2)
Copy OK

Track 13

Filename G:\New Rips\Paul Desmond - Pure Desmond (1975) [FLAC]\13 - Till The Clouds Roll By (alt tk).wav

Pre-gap length 0:00:02.11

Peak level 76.8 %
Extraction speed 9.1 X
Track quality 100.0 %
Test CRC 59DFF8B1
Copy CRC 59DFF8B1
Accurately ripped (confidence 21) [3899DD3F] (AR v2)
Copy OK


All tracks accurately ripped

No errors occurred

End of status report

–– CUETools DB Plugin V2.1.6

[CTDB TOCID: PAvvDn48MoLt86e6hYv2Q9XgDLs-] found
Submit result: PAvvDn48MoLt86e6hYv2Q9XgDLs- has been confirmed
Track | CTDB Status
1 | (12/14) Accurately ripped
2 | (13/14) Accurately ripped
3 | (13/14) Accurately ripped
4 | (13/14) Accurately ripped
5 | (13/14) Accurately ripped
6 | (13/14) Accurately ripped
7 | (13/14) Accurately ripped
8 | (13/14) Accurately ripped
9 | (13/14) Accurately ripped
10 | (13/14) Accurately ripped
11 | (13/14) Accurately ripped
12 | (13/14) Accurately ripped
13 | (13/14) Accurately ripped


==== Log checksum 2991269635EC943790EE034420F9F83EBB90C0B4C371C74B2779035E7C03795F ====


Paul Desmond - Pure Desmond (1974) {CTI Masterworks Jazz 88697 80378 2 rel 2011}

Paul Desmond - Pure Desmond (1974) {CTI Masterworks Jazz 88697 80378 2 rel 2011}



===