Subcategories

Paul Revere & The Raiders - Greatest Hits (1967) [Reissue 2000]

Posted By: firepower
Paul Revere & The Raiders - Greatest Hits (1967) [Reissue 2000]

Paul Revere & The Raiders - Greatest Hits (1967) [Reissue 2000]
EAC, FLAC image, CUE+LOG - 230 MB | MP3 CBR 320 - 95 MB | Complete 600dpi Art, JPEG - 34 MB or PNG - 218 MB
Rock | Columbia/Legacy CK 66009 | 5% recovery record | Source: My CD

Paul Revere And The Raiders scored seven chart hits between the fall of 1965 and the winter of 1967, and all of them – "Steppin' Out," "Just Like Me," "Kicks," "Hungry," "The Great Airplane Strike," "Good Thing," and "Ups and Downs," were included among the 11 tracks on the group's first hits collection. Also included were "Louie, Louie," The Raiders' first Columbia single, and its follow-up, "Louie, Go Home," a B-side instrumental, and the newly penned "Legend of Paul Revere," which told the band's story. Thus, the album traced the band from its beginnings as a Northwest club band to its reign as an L.A. pop/rock success. There would be more hits, but this brief compilation (it runs under 30 minutes) contained the essence of The Raiders' most successful period and indeed marked the end of the band's lineup, as the rhythm section split to form another group, leaving Revere and lead singer Mark Lindsay to recruit a new edition of The Raiders.

Paul Revere & The Raiders - Greatest Hits (1967) [Reissue 2000]


Tracklist:

01 - Louie, Louie
02 - Louie - Go Home
03 - Steppin' Out
04 - Just Like Me
05 - Melody For An Unknown Girl
06 - Kicks
07 - Hungry
08 - The Great Airplane Strike
09 - Good Thing
10 - Ups And Downs
11 - Legend Of Paul Revere

Bonus:

12 - Action
13 - I'm Not Your Steppin' Stone
14 - Him Or Me - What's It Gonna Be
15 - Peace Of Mind

Paul Revere & The Raiders - Greatest Hits (1967) [Reissue 2000]

Paul Revere & The Raiders - Greatest Hits (1967) [Reissue 2000]


Exact Audio Copy V1.0 beta 2 from 29. April 2011

EAC extraction logfile from 10. August 2014, 18:35

Paul Revere & The Raiders / Greatest Hits

Used drive : LITE-ON LTR-52327S Adapter: 0 ID: 1

Read mode : Secure
Utilize accurate stream : Yes
Defeat audio cache : Yes
Make use of C2 pointers : No

Read offset correction : 6
Overread into Lead-In and Lead-Out : No
Fill up missing offset samples with silence : Yes
Delete leading and trailing silent blocks : No
Null samples used in CRC calculations : Yes
Used interface : Native Win32 interface for Win NT & 2000

Used output format : Internal WAV Routines
Sample format : 44.100 Hz; 16 Bit; Stereo


TOC of the extracted CD

Track | Start | Length | Start sector | End sector
––––––––––––––––––––––––––––-
1 | 0:00.00 | 2:44.60 | 0 | 12359
2 | 2:44.60 | 2:41.37 | 12360 | 24471
3 | 5:26.22 | 2:14.65 | 24472 | 34586
4 | 7:41.12 | 2:26.30 | 34587 | 45566
5 | 10:07.42 | 2:03.25 | 45567 | 54816
6 | 12:10.67 | 2:28.33 | 54817 | 65949
7 | 14:39.25 | 2:57.47 | 65950 | 79271
8 | 17:36.72 | 3:09.40 | 79272 | 93486
9 | 20:46.37 | 3:05.23 | 93487 | 107384
10 | 23:51.60 | 2:51.27 | 107385 | 120236
11 | 26:43.12 | 3:12.28 | 120237 | 134664
12 | 29:55.40 | 1:29.72 | 134665 | 141411
13 | 31:25.37 | 2:48.13 | 141412 | 154024
14 | 34:13.50 | 2:53.02 | 154025 | 167001
15 | 37:06.52 | 2:26.50 | 167002 | 178001


Range status and errors

Selected range

Filename J:\My Rips\Paul Revere & The Raiders - Greatest Hits.wav

Peak level 100.0 %
Extraction speed 9.0 X
Range quality 100.0 %
Test CRC 71FA91F0
Copy CRC 71FA91F0
Copy OK

No errors occurred


AccurateRip summary

Track 1 accurately ripped (confidence 2) [237A019C] (AR v2)
Track 2 accurately ripped (confidence 2) [0CFCAB0A] (AR v2)
Track 3 accurately ripped (confidence 2) [135BB678] (AR v2)
Track 4 accurately ripped (confidence 2) [E08D6178] (AR v2)
Track 5 accurately ripped (confidence 2) [76C1102B] (AR v2)
Track 6 accurately ripped (confidence 2) [E8DC3CA0] (AR v2)
Track 7 accurately ripped (confidence 2) [2583A79C] (AR v2)
Track 8 accurately ripped (confidence 2) [79B75DE8] (AR v2)
Track 9 accurately ripped (confidence 2) [45658B1A] (AR v2)
Track 10 accurately ripped (confidence 2) [96EF7E10] (AR v2)
Track 11 accurately ripped (confidence 2) [6394C67F] (AR v2)
Track 12 accurately ripped (confidence 2) [9318B5DC] (AR v2)
Track 13 accurately ripped (confidence 2) [FCEA47D1] (AR v2)
Track 14 accurately ripped (confidence 2) [FDAA2807] (AR v2)
Track 15 accurately ripped (confidence 2) [0F8110AB] (AR v2)

All tracks accurately ripped

End of status report

==== Log checksum 50EDFDFC1A33E895931114DFD49D65CB30EEE0E9981784E6508B4167F411CD84 ====

This edition has a small booklet
Note that there is no artwork included in the music archives. JPEG and PNG are available as separate files.
All files are fully tagged.
5% recovery record
-FP-K2S-FB-

I posted some other Paul Revere & The Raiders CDs. If interested, you can find them here.

Password = avaxhome