Subcategories

Paul Revere & The Raiders - Here They Come! (1965) *Re-Up*

Posted By: firepower
Paul Revere & The Raiders - Here They Come! (1965) *Re-Up*

Paul Revere & The Raiders - Here They Come! (1965)
EAC, WavPack image, CUE+LOG - 233 MB | MP3 320 CBR - 93 MB | Complete 600dpi JPG artwork
Rock | 1965 Columbia (1999 Sony reissue) | 5% recovery record | Source: My CD

It took Columbia Records two years after signing Paul Revere & the Raiders to release this label-debut LP. In the interim, the group had released a string of singles that were only regional successes in the Northwest. Producer Bob Johnston had taken them into the studio to try to recreate their dynamic live show before an invited audience, but Columbia sat on the results until the group's coming residency on ABC-TV's Where the Action Is prompted this release. The first side of the album displays the Raiders as the raucous club band they were, grinding through R&B dance tunes like "You Can't Sit Down" and "Oo Poo Pah Doo." The second side previews their evolution into more of a pop group in the mid-'60s, although with songs like "Fever," it still retains something of their early R&B flavor.
Paul Revere & The Raiders - Here They Come! (1965) *Re-Up*

Tracklist:

01 - You Can't Sit Down
02 - Money
03 - Louie Louie
04 - Do You Love Me
05 - Big Boy Pete
06 - Oo Poo Pah Doo
07 - Sometimes
08 - Gone
09 - These Are Bad Times (For Me And My Baby)
10 - Fever
11 - Time Is On My Side
12 - Kiss To Remember You By
Paul Revere & The Raiders - Here They Come! (1965) *Re-Up*

Paul Revere & The Raiders - Here They Come! (1965) *Re-Up*

Exact Audio Copy V0.99 prebeta 5 from 4. May 2009

EAC extraction logfile from 8. March 2011, 14:20

Paul Revere & The Raiders / Here They Come!

Used drive : LITE-ON LTR-52327S Adapter: 0 ID: 1

Read mode : Secure
Utilize accurate stream : Yes
Defeat audio cache : Yes
Make use of C2 pointers : No

Read offset correction : 6
Overread into Lead-In and Lead-Out : No
Fill up missing offset samples with silence : Yes
Delete leading and trailing silent blocks : No
Null samples used in CRC calculations : Yes
Used interface : Native Win32 interface for Win NT & 2000

Used output format : User Defined Encoder
Selected bitrate : 768 kBit/s
Quality : High
Add ID3 tag : No
Command line compressor : C:\Program Files\p2p\Exact Audio Copy 0.99pb5\Exact Audio Copy\wapet\wapet.exe
Additional command line options : -6 -V -T "ARTIST=%a" -T "TITLE=%t" -T "ALBUM=%g" -T "DATE=%y" -T "TRACKNUMBER=%n" -T "GENRE=%m" -T "COMMENT=%e" %s -o %d


TOC of the extracted CD

Track | Start | Length | Start sector | End sector
––––––––––––––––––––––––––––-
1 | 0:00.00 | 4:05.10 | 0 | 18384
2 | 4:05.10 | 3:23.00 | 18385 | 33609
3 | 7:28.10 | 2:51.15 | 33610 | 46449
4 | 10:19.25 | 3:52.72 | 46450 | 63921
5 | 14:12.22 | 2:42.60 | 63922 | 76131
6 | 16:55.07 | 3:11.33 | 76132 | 90489
7 | 20:06.40 | 2:44.05 | 90490 | 102794
8 | 22:50.45 | 1:49.50 | 102795 | 111019
9 | 24:40.20 | 2:55.30 | 111020 | 124174
10 | 27:35.50 | 2:53.30 | 124175 | 137179
11 | 30:29.05 | 2:39.27 | 137180 | 149131
12 | 33:08.32 | 2:14.58 | 149132 | 159239


Range status and errors

Selected range

Filename D:\My Rips\Paul Revere & The Raiders - Here They Come!.wav

Peak level 97.7 %
Range quality 99.9 %
Test CRC 0393C7FD
Copy CRC 0393C7FD
Copy OK

No errors occurred


AccurateRip summary

Track 1 accurately ripped (confidence 1) [C529AB30]
Track 2 accurately ripped (confidence 1) [5ADE9149]
Track 3 accurately ripped (confidence 1) [FA9E4D35]
Track 4 accurately ripped (confidence 1) [BAE23592]
Track 5 accurately ripped (confidence 1) [A9279760]
Track 6 accurately ripped (confidence 1) [CF1D0D51]
Track 7 accurately ripped (confidence 1) [3B3979FB]
Track 8 accurately ripped (confidence 1) [1F0E4EB6]
Track 9 accurately ripped (confidence 1) [098289D4]
Track 10 accurately ripped (confidence 1) [08ABC30B]
Track 11 accurately ripped (confidence 1) [1E7E1FEA]
Track 12 accurately ripped (confidence 1) [D6CBD9FA]

All tracks accurately ripped

End of status report

This issue has only a folded insert instead of a booklet.
Artwork included in music archives
All files are fully tagged.
WavPack has cue sheet embedded as well as a separate cue sheet file.
5% recovery record
-FP-K2S-FB-

Password = avaxhome