Subcategories

Paul Smith - Cool And Sparkling (1956) {Capitol Japan TOCJ-5407 rel 1991}

Posted By: ruskaval
Paul Smith - Cool And Sparkling (1956) {Capitol Japan TOCJ-5407 rel 1991}

Paul Smith - Cool And Sparkling (1956) {Capitol Japan TOCJ-5407 rel 1991}
EAC rip (secure mode) | FLAC (tracks)+CUE+LOG -> 149 Mb | MP3 @320 -> 87 Mb
Full Artwork @ 600 dpi (jpg) -> 127 Mb | 5% repair rar
© 1956, 1991 Capitol Records / EMI-Toshiba Japan | TOCJ-5407 | Mono
Jazz / Bop / Cool / Soul Jazz / Piano

While its title and cover certainly suggest a record firmly in the bachelor pad/lounge music camp, Cool and Sparkling: The Liquid Sounds of Paul Smith nevertheless boasts a melodic ingenuity and technical emphasis that reward deeper listening. What keyboardist Smith dubs "liquid sound" is in fact a space-age pop precursor to soul-jazz, with an energy and groove all its own. Aided by clarinetist Abe Most, guitarist Tony Rizzi, and bassist Sam Cheifitz, Smith is too good a player and too clever a composer to settle for mere background music – structure is as important here as sound, and while Cool and Sparkling blends effortlessly with its surroundings, it never sacrifices substance for style.
Paul Smith - Cool And Sparkling (1956) {Capitol Japan TOCJ-5407 rel 1991}


Musicians

Paul Smith - Piano
Julius Kinsler - Flute
Ronny Lang - Alto Saxophone
Tony Rizzi - Guitar
Sam Chefitz - Bass
Irving Cottler - Drums

Paul Smith - Cool And Sparkling (1956) {Capitol Japan TOCJ-5407 rel 1991}


Track Listing

01 - I Remember You
02 - Kempy The Painter
03 - A Young Man's Fancy
04 - Dandy Randy
05 - Alone Together
06 - The Grump
07 - You And The Night And The Music
08 - I'll Take Romance
09 - Little Evil
10 - Can't Help Lovin' Dat Man
11 - Murphy's Light
12 - Have You Met Miss Jones?

Exact Audio Copy V1.3 from 2. September 2016

EAC extraction logfile from 7. June 2017, 17:36

Paul Smith / Cool And Sparkling

Used drive : TSSTcorpCDDVDW SE-208DB Adapter: 1 ID: 1

Read mode : Secure
Utilize accurate stream : Yes
Defeat audio cache : Yes
Make use of C2 pointers : No

Read offset correction : 6
Overread into Lead-In and Lead-Out : No
Fill up missing offset samples with silence : Yes
Delete leading and trailing silent blocks : No
Null samples used in CRC calculations : Yes
Used interface : Native Win32 interface for Win NT & 2000
Gap handling : Appended to previous track

Used output format : User Defined Encoder
Selected bitrate : 1024 kBit/s
Quality : High
Add ID3 tag : No
Command line compressor : C:\Program Files (x86)\FLAC Frontend\tools\flac.exe
Additional command line options : -8 -V -T "ARTIST=%artist%" -T "TITLE=%title%" -T "ALBUM=%albumtitle%" -T "DATE=%year%" -T "TRACKNUMBER=%tracknr%" -T "TOTALTRACKS=%numtracks%" -T "GENRE=%genre%" -T "ALBUMARTIST=%albumartist%" -T "ALBUM ARTIST=%albumartist%" -T "COMMENT=EAC Secure Mode, Test & Copy, AccurateRip, FLAC -8" %source%


TOC of the extracted CD

Track | Start | Length | Start sector | End sector
––––––––––––––––––––––––––––-
1 | 0:00.00 | 3:21.40 | 0 | 15114
2 | 3:21.40 | 2:58.67 | 15115 | 28531
3 | 6:20.32 | 3:50.65 | 28532 | 45846
4 | 10:11.22 | 2:30.23 | 45847 | 57119
5 | 12:41.45 | 3:32.70 | 57120 | 73089
6 | 16:14.40 | 2:41.17 | 73090 | 85181
7 | 18:55.57 | 2:26.60 | 85182 | 96191
8 | 21:22.42 | 3:34.38 | 96192 | 112279
9 | 24:57.05 | 2:09.12 | 112280 | 121966
10 | 27:06.17 | 4:19.73 | 121967 | 141464
11 | 31:26.15 | 1:56.17 | 141465 | 150181
12 | 33:22.32 | 2:39.43 | 150182 | 162149


Track 1

Filename D:\_EAC\Paul Smith - Cool And Sparkling (1956) [FLAC] {Capitol Japan TOCJ-5407}\01 - I Remember You.wav

Pre-gap length 0:00:02.00

Peak level 89.9 %
Extraction speed 0.9 X
Track quality 99.9 %
Test CRC ED47B69F
Copy CRC ED47B69F
Accurately ripped (confidence 2) [41518A4F] (AR v2)
Copy OK

Track 2

Filename D:\_EAC\Paul Smith - Cool And Sparkling (1956) [FLAC] {Capitol Japan TOCJ-5407}\02 - Kempy The Painter.wav

Pre-gap length 0:00:02.38

Peak level 82.4 %
Extraction speed 1.1 X
Track quality 100.0 %
Test CRC 2F786159
Copy CRC 2F786159
Accurately ripped (confidence 2) [64D628D4] (AR v2)
Copy OK

Track 3

Filename D:\_EAC\Paul Smith - Cool And Sparkling (1956) [FLAC] {Capitol Japan TOCJ-5407}\03 - A Young Man's Fancy.wav

Pre-gap length 0:00:02.37

Peak level 61.9 %
Extraction speed 1.2 X
Track quality 100.0 %
Test CRC B715235A
Copy CRC B715235A
Accurately ripped (confidence 2) [F9BD7967] (AR v2)
Copy OK

Track 4

Filename D:\_EAC\Paul Smith - Cool And Sparkling (1956) [FLAC] {Capitol Japan TOCJ-5407}\04 - Dandy Randy.wav

Pre-gap length 0:00:02.37

Peak level 91.9 %
Extraction speed 1.1 X
Track quality 100.0 %
Test CRC E5BB208E
Copy CRC E5BB208E
Accurately ripped (confidence 2) [0FD34970] (AR v2)
Copy OK

Track 5

Filename D:\_EAC\Paul Smith - Cool And Sparkling (1956) [FLAC] {Capitol Japan TOCJ-5407}\05 - Alone Together.wav

Pre-gap length 0:00:02.38

Peak level 78.2 %
Extraction speed 1.3 X
Track quality 100.0 %
Test CRC 0B03054D
Copy CRC 0B03054D
Accurately ripped (confidence 2) [13D88C05] (AR v2)
Copy OK

Track 6

Filename D:\_EAC\Paul Smith - Cool And Sparkling (1956) [FLAC] {Capitol Japan TOCJ-5407}\06 - The Grump.wav

Pre-gap length 0:00:02.38

Peak level 99.7 %
Extraction speed 1.2 X
Track quality 100.0 %
Test CRC FB473F2F
Copy CRC FB473F2F
Accurately ripped (confidence 2) [5DE1DE87] (AR v2)
Copy OK

Track 7

Filename D:\_EAC\Paul Smith - Cool And Sparkling (1956) [FLAC] {Capitol Japan TOCJ-5407}\07 - You And The Night And The Music.wav

Pre-gap length 0:00:02.38

Peak level 99.2 %
Extraction speed 1.2 X
Track quality 100.0 %
Test CRC 5E31ED51
Copy CRC 5E31ED51
Accurately ripped (confidence 2) [8ECE3B6F] (AR v2)
Copy OK

Track 8

Filename D:\_EAC\Paul Smith - Cool And Sparkling (1956) [FLAC] {Capitol Japan TOCJ-5407}\08 - I'll Take Romance.wav

Pre-gap length 0:00:02.37

Peak level 94.2 %
Extraction speed 1.4 X
Track quality 100.0 %
Test CRC 1F53C4F4
Copy CRC 1F53C4F4
Accurately ripped (confidence 2) [C22444C3] (AR v2)
Copy OK

Track 9

Filename D:\_EAC\Paul Smith - Cool And Sparkling (1956) [FLAC] {Capitol Japan TOCJ-5407}\09 - Little Evil.wav

Pre-gap length 0:00:02.38

Peak level 89.2 %
Extraction speed 0.9 X
Track quality 99.9 %
Test CRC 89C08291
Copy CRC 89C08291
Accurately ripped (confidence 2) [C103806E] (AR v2)
Copy OK

Track 10

Filename D:\_EAC\Paul Smith - Cool And Sparkling (1956) [FLAC] {Capitol Japan TOCJ-5407}\10 - Can't Help Lovin' Dat Man.wav

Pre-gap length 0:00:02.37

Peak level 73.4 %
Extraction speed 1.5 X
Track quality 100.0 %
Test CRC E7C288D9
Copy CRC E7C288D9
Accurately ripped (confidence 2) [3CBCFDA0] (AR v2)
Copy OK

Track 11

Filename D:\_EAC\Paul Smith - Cool And Sparkling (1956) [FLAC] {Capitol Japan TOCJ-5407}\11 - Murphy's Light.wav

Pre-gap length 0:00:02.38

Peak level 61.5 %
Extraction speed 1.2 X
Track quality 100.0 %
Test CRC 20233A60
Copy CRC 20233A60
Accurately ripped (confidence 2) [5D319AD8] (AR v2)
Copy OK

Track 12

Filename D:\_EAC\Paul Smith - Cool And Sparkling (1956) [FLAC] {Capitol Japan TOCJ-5407}\12 - Have You Met Miss Jones_.wav

Pre-gap length 0:00:02.37

Peak level 98.7 %
Extraction speed 1.4 X
Track quality 100.0 %
Test CRC 72D94078
Copy CRC 72D94078
Accurately ripped (confidence 2) [1223B59A] (AR v2)
Copy OK


All tracks accurately ripped

No errors occurred

End of status report

–– CUETools DB Plugin V2.1.6

[CTDB TOCID: LP4xWL6E7CqQEQWcHYUEoIXw8XQ-] found
Submit result: LP4xWL6E7CqQEQWcHYUEoIXw8XQ- has been confirmed
Track | CTDB Status
1 | (3/3) Accurately ripped
2 | (3/3) Accurately ripped
3 | (3/3) Accurately ripped
4 | (3/3) Accurately ripped
5 | (3/3) Accurately ripped
6 | (3/3) Accurately ripped
7 | (3/3) Accurately ripped
8 | (3/3) Accurately ripped
9 | (3/3) Accurately ripped
10 | (3/3) Accurately ripped
11 | (3/3) Accurately ripped
12 | (3/3) Accurately ripped


==== Log checksum 6557989E1E72B871A1F02045234083CC3D36AC0E1ED8962A035B6D12C5D329BC ====


Paul Smith - Cool And Sparkling (1956) {Capitol Japan TOCJ-5407 rel 1991}

Paul Smith - Cool And Sparkling (1956) {Capitol Japan TOCJ-5407 rel 1991}



===