Subcategories

Pete Townshend - Live: La Jolla Playhouse, June 22-23 (2001) [4CD] {Eel Pie}

Posted By: Hungry Mind
Pete Townshend - Live: La Jolla Playhouse, June 22-23 (2001) [4CD] {Eel Pie}

Pete Townshend - Live: La Jolla Playhouse, June 22-23 (2001) [4CD] {Eel Pie}
XLD Rip | FLAC (tracks+.cue+log) - 792 MB | Scans PNG - 19 MB | MP3 CBR 320 kbps (LAME 3.98) - 446 MB
Genre: rock | RAR 5% Rec. | Label: Eel Pie | CAT # EPR014~15 | 2001

The first of two fundraising concerts that Townshend played at San Diego's La Jolla Playhouse, and an enchantingly intimate look at the veteran Who man as he chats, jokes, and, of course, plays through a solid set of acoustified classics. The venue itself has some fond attachments to Townshend – it was here that he premiered the Tommy musical before launching it on Broadway and, hardly surprisingly, the deaf, dumb and blind kid opens the show via a rousing "Pinball Wizard." From there, Townshend swoops into an affecting "Let My Love Open the Door," setting the pace for the remainder of the show.

Pete Townshend - Live: La Jolla Playhouse, June 22-23 (2001) [4CD] {Eel Pie}

Pete Townshend - Live: La Jolla Playhouse, June 22 (2001) [2CD] {Eel Pie}
XLD Rip | FLAC (tracks+.cue+log) - 389 MB | Scans PNG - 9 MB | MP3 CBR 320 kbps (LAME 3.98) - 213 MB
Genre: rock | RAR 5% Rec. | Label: Eel Pie | CAT # EPR014-1/2 | 2001

Dividing the two CDs more or less equally between Who and solo material, he strums through a stark "Drowned," a playful "Tattoo," and a surprisingly effective "Eminence Front," a sleek "Greyhound Girl," and an astonishing version of the old blues dirge "St James Infirmary." The climax of the performance, however, is the inevitable "Won't Get Fooled Again," a song whose message seems to reverberate ever more accusingly with every passing year – and Townshend knows it. "Behind Blue Eyes" seemingly marks the end of the show, but then he reappears, armed with an electric guitar, and reprises "Won't Get Fooled Again" once more. Just to make sure everyone got the message.

Pete Townshend - Live: La Jolla Playhouse, June 22-23 (2001) [4CD] {Eel Pie}


TRACKLIST
disc 1 -22/06/01
1. Pinball Wizard
2. Let My Love Open The Door
3. Heart To Hang Onto
4. Cut My Hair
5. Slit Skirts
6. Drowned
7. Greyhound Girl
8. Tattoo
9. The Sea Refuses No River

disc 2
1. Saint James Infirmary
2. Eminence Front
3. Won't Get Fooled Again
4. Behind Blue Eyes
5. Won't Get Fooled Again (electric)

X Lossless Decoder version 20120908 (141.1)

XLD extraction logfile from 2012-10-12 20:24:33 -0400

Pete Townshend / Live > La Jolla Playhouse 220601

Used drive : PIONEER DVD-RW DVR-117D (revision 1.07)

Ripper mode : XLD Secure Ripper
Disable audio cache : OK for the drive with a cache less than 1375KiB
Make use of C2 pointers : NO
Read offset correction : 96
Max retry count : 100
Gap status : Analyzed, Appended

TOC of the extracted CD
Track | Start | Length | Start sector | End sector
––––––––––––––––––––––––––––-
1 | 00:00:00 | 05:46:16 | 0 | 25965
2 | 05:46:16 | 04:24:01 | 25966 | 45766
3 | 10:10:17 | 09:14:26 | 45767 | 87342
4 | 19:24:43 | 09:36:07 | 87343 | 130549
5 | 29:00:50 | 05:19:33 | 130550 | 154507
6 | 34:20:08 | 09:50:66 | 154508 | 198823
7 | 44:10:74 | 05:29:44 | 198824 | 223542
8 | 49:40:43 | 05:15:66 | 223543 | 247233
9 | 54:56:34 | 06:01:69 | 247234 | 274377

AccurateRip Summary (DiscID: 00152e51-009cab0a-7a0e4a09)
Track 01 : OK (v1, confidence 2/2)
Track 02 : OK (v1, confidence 3/3)
Track 03 : OK (v1, confidence 3/3)
Track 04 : OK (v1, confidence 3/3)
Track 05 : OK (v1, confidence 3/3)
Track 06 : OK (v1, confidence 3/3)
Track 07 : OK (v1, confidence 3/3)
Track 08 : OK (v1, confidence 3/3)
Track 09 : OK (v1, confidence 3/3)
->All tracks accurately ripped.

All Tracks
Album gain : 3.81 dB
Peak : 0.831726
Statistics
Read error : 0
Jitter error (maybe fixed) : 0
Retry sector count : 0
Damaged sector count : 0

Track 01
Filename : /Volumes/LacieHD/01 Pete Townshend - Live > La Jolla Playhouse 220601 (2001) [FLAC]/01 Pinball Wizard.flac
Pre-gap length : 00:02:00

Track gain : 6.46 dB
Peak : 0.507843
CRC32 hash (test run) : B74C16E6
CRC32 hash : B74C16E6
CRC32 hash (skip zero) : 0EC647C7
AccurateRip v1 signature : 1E8DC424
AccurateRip v2 signature : 25B3504E
->Accurately ripped (v1, confidence 2/2)
Statistics
Read error : 0
Jitter error (maybe fixed) : 0
Retry sector count : 0
Damaged sector count : 0

Track 02
Filename : /Volumes/LacieHD/01 Pete Townshend - Live > La Jolla Playhouse 220601 (2001) [FLAC]/02 Let My Love Open the Door.flac

Track gain : 3.83 dB
Peak : 0.656860
CRC32 hash (test run) : F5288FA3
CRC32 hash : F5288FA3
CRC32 hash (skip zero) : 4592DE61
AccurateRip v1 signature : 0956F471
AccurateRip v2 signature : 1F1BA7F0
->Accurately ripped (v1, confidence 3/3)
Statistics
Read error : 0
Jitter error (maybe fixed) : 0
Retry sector count : 0
Damaged sector count : 0

Track 03
Filename : /Volumes/LacieHD/01 Pete Townshend - Live > La Jolla Playhouse 220601 (2001) [FLAC]/03 Heart to Hang Onto.flac

Track gain : 7.96 dB
Peak : 0.572723
CRC32 hash (test run) : 75E7956D
CRC32 hash : 75E7956D
CRC32 hash (skip zero) : CC24FCD1
AccurateRip v1 signature : F6A61385
AccurateRip v2 signature : B688788C
->Accurately ripped (v1, confidence 3/3)
Statistics
Read error : 0
Jitter error (maybe fixed) : 0
Retry sector count : 0
Damaged sector count : 0

Track 04
Filename : /Volumes/LacieHD/01 Pete Townshend - Live > La Jolla Playhouse 220601 (2001) [FLAC]/04 Cut My Hair.flac

Track gain : 4.41 dB
Peak : 0.731201
CRC32 hash (test run) : A15EDC7F
CRC32 hash : A15EDC7F
CRC32 hash (skip zero) : B94E6E41
AccurateRip v1 signature : C9372B62
AccurateRip v2 signature : 93267B42
->Accurately ripped (v1, confidence 3/3)
Statistics
Read error : 0
Jitter error (maybe fixed) : 0
Retry sector count : 0
Damaged sector count : 0

Track 05
Filename : /Volumes/LacieHD/01 Pete Townshend - Live > La Jolla Playhouse 220601 (2001) [FLAC]/05 Slit Skirts.flac

Track gain : 3.64 dB
Peak : 0.532898
CRC32 hash (test run) : 0F4D79A9
CRC32 hash : 0F4D79A9
CRC32 hash (skip zero) : 8221DC93
AccurateRip v1 signature : 68A4D685
AccurateRip v2 signature : 61812EA4
->Accurately ripped (v1, confidence 3/3)
Statistics
Read error : 0
Jitter error (maybe fixed) : 0
Retry sector count : 0
Damaged sector count : 0

Track 06
Filename : /Volumes/LacieHD/01 Pete Townshend - Live > La Jolla Playhouse 220601 (2001) [FLAC]/06 Drowned.flac

Track gain : 0.04 dB
Peak : 0.831726
CRC32 hash (test run) : 4BBC9384
CRC32 hash : 4BBC9384
CRC32 hash (skip zero) : 5D833ADF
AccurateRip v1 signature : 08FC9F72
AccurateRip v2 signature : FDE42C10
->Accurately ripped (v1, confidence 3/3)
Statistics
Read error : 0
Jitter error (maybe fixed) : 0
Retry sector count : 0
Damaged sector count : 0

Track 07
Filename : /Volumes/LacieHD/01 Pete Townshend - Live > La Jolla Playhouse 220601 (2001) [FLAC]/07 Greyhound Girl.flac

Track gain : 6.34 dB
Peak : 0.758270
CRC32 hash (test run) : 2B1CAD09
CRC32 hash : 2B1CAD09
CRC32 hash (skip zero) : B53D84F4
AccurateRip v1 signature : 21033F43
AccurateRip v2 signature : 1447D82A
->Accurately ripped (v1, confidence 3/3)
Statistics
Read error : 0
Jitter error (maybe fixed) : 0
Retry sector count : 0
Damaged sector count : 0

Track 08
Filename : /Volumes/LacieHD/01 Pete Townshend - Live > La Jolla Playhouse 220601 (2001) [FLAC]/08 Tattoo.flac

Track gain : 10.99 dB
Peak : 0.396057
CRC32 hash (test run) : CF9D6A91
CRC32 hash : CF9D6A91
CRC32 hash (skip zero) : 001FB1F3
AccurateRip v1 signature : 58D9B55C
AccurateRip v2 signature : AD60E659
->Accurately ripped (v1, confidence 3/3)
Statistics
Read error : 0
Jitter error (maybe fixed) : 0
Retry sector count : 0
Damaged sector count : 0

Track 09
Filename : /Volumes/LacieHD/01 Pete Townshend - Live > La Jolla Playhouse 220601 (2001) [FLAC]/09 The Sea Refuses No River.flac

Track gain : 5.39 dB
Peak : 0.747375
CRC32 hash (test run) : EEEE783A
CRC32 hash : EEEE783A
CRC32 hash (skip zero) : 9F97AEBB
AccurateRip v1 signature : 7A6E2888
AccurateRip v2 signature : 147226EB
->Accurately ripped (v1, confidence 3/3)
Statistics
Read error : 0
Jitter error (maybe fixed) : 0
Retry sector count : 0
Damaged sector count : 0

No errors occurred

End of status report

X Lossless Decoder version 20120908 (141.1)

XLD extraction logfile from 2012-10-12 21:04:44 -0400

Pete Townshend / Live > La Jolla Playhouse 220601

Used drive : PIONEER DVD-RW DVR-117D (revision 1.07)

Ripper mode : XLD Secure Ripper
Disable audio cache : OK for the drive with a cache less than 1375KiB
Make use of C2 pointers : NO
Read offset correction : 96
Max retry count : 100
Gap status : Analyzed, Appended

TOC of the extracted CD
Track | Start | Length | Start sector | End sector
––––––––––––––––––––––––––––-
1 | 00:00:00 | 01:50:46 | 0 | 8295
2 | 01:50:46 | 07:59:24 | 8296 | 44244
3 | 09:49:70 | 10:43:69 | 44245 | 92538
4 | 20:33:64 | 03:30:01 | 92539 | 108289
5 | 24:03:65 | 04:02:39 | 108290 | 126478

AccurateRip Summary (DiscID: 0005cbc9-001bc4a0-2e069605)
Track 01 : OK (v1, confidence 2/2)
Track 02 : OK (v1, confidence 3/3)
Track 03 : OK (v1, confidence 3/3)
Track 04 : OK (v1, confidence 3/3)
Track 05 : OK (v1, confidence 3/3)
->All tracks accurately ripped.

All Tracks
Album gain : 5.37 dB
Peak : 0.896881
Statistics
Read error : 0
Jitter error (maybe fixed) : 0
Retry sector count : 0
Damaged sector count : 0

Track 01
Filename : /Volumes/LacieHD/02 Pete Townshend - Live > La Jolla Playhouse 220601 (2001) [FLAC]/01 Saint James Infirmary.flac
Pre-gap length : 00:02:00

Track gain : 5.06 dB
Peak : 0.839050
CRC32 hash (test run) : 8FDB62F2
CRC32 hash : 8FDB62F2
CRC32 hash (skip zero) : A2E08C24
AccurateRip v1 signature : EEAE5EC5
AccurateRip v2 signature : B7C5B6C1
->Accurately ripped (v1, confidence 2/2)
Statistics
Read error : 0
Jitter error (maybe fixed) : 0
Retry sector count : 0
Damaged sector count : 0

Track 02
Filename : /Volumes/LacieHD/02 Pete Townshend - Live > La Jolla Playhouse 220601 (2001) [FLAC]/02 Eminence Front.flac

Track gain : 5.20 dB
Peak : 0.692444
CRC32 hash (test run) : A010D451
CRC32 hash : A010D451
CRC32 hash (skip zero) : EE45CFB4
AccurateRip v1 signature : A56DB668
AccurateRip v2 signature : DC4842F6
->Accurately ripped (v1, confidence 3/3)
Statistics
Read error : 0
Jitter error (maybe fixed) : 0
Retry sector count : 0
Damaged sector count : 0

Track 03
Filename : /Volumes/LacieHD/02 Pete Townshend - Live > La Jolla Playhouse 220601 (2001) [FLAC]/03 Won't Get Fooled Again.flac

Track gain : 7.43 dB
Peak : 0.683624
CRC32 hash (test run) : 6E97F8E8
CRC32 hash : 6E97F8E8
CRC32 hash (skip zero) : C7FB808E
AccurateRip v1 signature : 83B4230A
AccurateRip v2 signature : CD831A5A
->Accurately ripped (v1, confidence 3/3)
Statistics
Read error : 0
Jitter error (maybe fixed) : 0
Retry sector count : 0
Damaged sector count : 0

Track 04
Filename : /Volumes/LacieHD/02 Pete Townshend - Live > La Jolla Playhouse 220601 (2001) [FLAC]/04 Behind Blue Eyes.flac

Track gain : 11.76 dB
Peak : 0.344879
CRC32 hash (test run) : 4ED0FCE9
CRC32 hash : 4ED0FCE9
CRC32 hash (skip zero) : 0040165A
AccurateRip v1 signature : EF6FF460
AccurateRip v2 signature : 9F33D2ED
->Accurately ripped (v1, confidence 3/3)
Statistics
Read error : 0
Jitter error (maybe fixed) : 0
Retry sector count : 0
Damaged sector count : 0

Track 05
Filename : /Volumes/LacieHD/02 Pete Townshend - Live > La Jolla Playhouse 220601 (2001) [FLAC]/05 Won't Get Fooled Again (Electric).flac

Track gain : 1.56 dB
Peak : 0.896881
CRC32 hash (test run) : 76AC1469
CRC32 hash : 76AC1469
CRC32 hash (skip zero) : 47EA8751
AccurateRip v1 signature : 9A19223C
AccurateRip v2 signature : D7205261
->Accurately ripped (v1, confidence 3/3)
Statistics
Read error : 0
Jitter error (maybe fixed) : 0
Retry sector count : 0
Damaged sector count : 0

No errors occurred

End of status report


Pete Townshend - Live: La Jolla Playhouse, June 22-23 (2001) [4CD] {Eel Pie}


Eel Pie Info

––––––––––––––––––––-

Pete Townshend - Live: La Jolla Playhouse, June 22-23 (2001) [4CD] {Eel Pie}

Pete Townshend - Live: La Jolla Playhouse, June 23 (2001) [2CD] {Eel Pie}
XLD Rip | FLAC (tracks+.cue+log) - 403 MB | Scans PNG - 10 MB | MP3 CBR 320 kbps (LAME 3.98) - 233 MB
Genre: rock | RAR 5% Rec. | Label: Eel Pie | CAT # EPR015-1/2 | 2001

Two CDs capture the second of two fundraising concerts that Townshend played at San Diego's La Jolla Playhouse, and an enchantingly intimate look at the veteran Who man as he chats, jokes, and, of course, plays through a solid set of acoustified classics. The venue itself has some fond attachments to Townshend – it was here that he premiered the Tommy musical before launching it on Broadway and, hardly surprisingly, the deaf, dumb and blind kid opens the show, via a rousing "Pinball Wizard." Initially, it feels as though the second evening is simply going to be a recap of the first, as "Let My Love Opens the Door" follows on. But "Heart to Hang Onto," "Collings," "Sheraton Gibson," and the Quadrophenia chestbeater "I'm One" all make unexpected appearances amid the previous evening's fare, and Townshend's between-song chatter and joking is even more effusive than it was before. Just two songs are dropped from the set – "The Sea Receives No River" (which isn't that great a loss) and "St James' Infirmary" (which is); but there's a remarkable "Drifting Blues" to compensate, and "Eminence Front" sounds even better tonight. There's another nod to Tommy, in the form of "Eyesight to the Blind," and once again we're treated to two "Won't Get Fooled Again"s, one a little over midway through the show, the other – electrified and deadly – at the end. With both nights of the La Jolla show available on disc, the similarity between the track listings might lead the prospective purchaser to decide that only one of the two is necessary. Don't make that mistake. Townshend is on excellent form, verbally and musically, both nights – and both pack far too many highlights to let either one pass by.

Pete Townshend - Live: La Jolla Playhouse, June 22-23 (2001) [4CD] {Eel Pie}


TRACKLIST
disc 1 -23/06/01
1. Pinball Wizard
2. Let My Love Open The Door
3. Heart To Hang Onto
4. Cut My Hair
5. Slit Skirts
6. Drowned
7. Greyhound Girl
8. Tattoo
9. Collings
10. Eminence Front

disc 2
1. Sheraton Gibson
2. Won't Get Fooled Again
3. I'm One
4. Behind Blue Eyes
5. Driftin' Blues
6. Eyesight To The Blind
7. Won't Get Fooled Again (Electric)

X Lossless Decoder version 20120908 (141.1)

XLD extraction logfile from 2012-10-12 19:57:27 -0400

Pete Townshend / Live > La Jolla Playhouse 230601

Used drive : MATSHITA DVD-R UJ-85J (revision FAV1)

Ripper mode : XLD Secure Ripper
Disable audio cache : OK for the drive with a cache less than 1375KiB
Make use of C2 pointers : NO
Read offset correction : 102
Max retry count : 20
Gap status : Analyzed, Appended

TOC of the extracted CD
Track | Start | Length | Start sector | End sector
––––––––––––––––––––––––––––-
1 | 00:00:00 | 05:21:05 | 0 | 24079
2 | 05:21:05 | 06:22:53 | 24080 | 52782
3 | 11:43:58 | 08:28:68 | 52783 | 90950
4 | 20:12:51 | 07:41:36 | 90951 | 125561
5 | 27:54:12 | 07:21:72 | 125562 | 158708
6 | 35:16:09 | 05:12:73 | 158709 | 182181
7 | 40:29:07 | 06:01:37 | 182182 | 209293
8 | 46:30:44 | 04:27:58 | 209294 | 229376
9 | 50:58:27 | 05:36:52 | 229377 | 254628
10 | 56:35:04 | 06:57:28 | 254629 | 285931

AccurateRip Summary (DiscID: 00189ebb-00c42a83-7b0ee40a)
Track 01 : OK (v1, confidence 3/3)
Track 02 : OK (v1, confidence 3/3)
Track 03 : OK (v1, confidence 3/3)
Track 04 : OK (v1, confidence 3/3)
Track 05 : OK (v1, confidence 3/3)
Track 06 : OK (v1, confidence 3/3)
Track 07 : OK (v1, confidence 3/3)
Track 08 : OK (v1, confidence 3/3)
Track 09 : OK (v1, confidence 3/3)
Track 10 : OK (v1, confidence 3/3)
->All tracks accurately ripped.

All Tracks
Album gain : 8.05 dB
Peak : 0.747986
Statistics
Read error : 0
Jitter error (maybe fixed) : 0
Retry sector count : 0
Damaged sector count : 0

Track 01
Filename : /Users/neonkaiser/Documents/Torrents/Pete Townshend - Live > La Jolla Playhouse 230601 (2001) [FLAC]/01 Pinball Wizard.flac
Pre-gap length : 00:02:00

Track gain : 8.33 dB
Peak : 0.590759
CRC32 hash (test run) : 1BCBC8FC
CRC32 hash : 1BCBC8FC
CRC32 hash (skip zero) : 241CDDC9
AccurateRip v1 signature : 7B7CA07E
AccurateRip v2 signature : BF495B21
->Accurately ripped (v1, confidence 3/3)
Statistics
Read error : 0
Jitter error (maybe fixed) : 0
Retry sector count : 0
Damaged sector count : 0

Track 02
Filename : /Users/neonkaiser/Documents/Torrents/Pete Townshend - Live > La Jolla Playhouse 230601 (2001) [FLAC]/02 Let My Love Open the Door.flac

Track gain : 7.09 dB
Peak : 0.682281
CRC32 hash (test run) : 0D6C6CF7
CRC32 hash : 0D6C6CF7
CRC32 hash (skip zero) : 389D177C
AccurateRip v1 signature : BCE182F6
AccurateRip v2 signature : 6F9CF65C
->Accurately ripped (v1, confidence 3/3)
Statistics
Read error : 0
Jitter error (maybe fixed) : 0
Retry sector count : 0
Damaged sector count : 0

Track 03
Filename : /Users/neonkaiser/Documents/Torrents/Pete Townshend - Live > La Jolla Playhouse 230601 (2001) [FLAC]/03 Heart to Hang Onto.flac

Track gain : 12.35 dB
Peak : 0.356445
CRC32 hash (test run) : 25B48610
CRC32 hash : 25B48610
CRC32 hash (skip zero) : 21468617
AccurateRip v1 signature : 636B0C04
AccurateRip v2 signature : AA40A708
->Accurately ripped (v1, confidence 3/3)
Statistics
Read error : 0
Jitter error (maybe fixed) : 0
Retry sector count : 0
Damaged sector count : 0

Track 04
Filename : /Users/neonkaiser/Documents/Torrents/Pete Townshend - Live > La Jolla Playhouse 230601 (2001) [FLAC]/04 Cut My Hair.flac

Track gain : 9.67 dB
Peak : 0.427307
CRC32 hash (test run) : 347FC1B5
CRC32 hash : 347FC1B5
CRC32 hash (skip zero) : A97CC8CC
AccurateRip v1 signature : 1654231A
AccurateRip v2 signature : F35EDBE9
->Accurately ripped (v1, confidence 3/3)
Statistics
Read error : 0
Jitter error (maybe fixed) : 0
Retry sector count : 0
Damaged sector count : 0

Track 05
Filename : /Users/neonkaiser/Documents/Torrents/Pete Townshend - Live > La Jolla Playhouse 230601 (2001) [FLAC]/05 Slit Skirts.flac

Track gain : 10.19 dB
Peak : 0.515137
CRC32 hash (test run) : C12D07E0
CRC32 hash : C12D07E0
CRC32 hash (skip zero) : 136508A2
AccurateRip v1 signature : 33CCC192
AccurateRip v2 signature : 2156A571
->Accurately ripped (v1, confidence 3/3)
Statistics
Read error : 0
Jitter error (maybe fixed) : 0
Retry sector count : 0
Damaged sector count : 0

Track 06
Filename : /Users/neonkaiser/Documents/Torrents/Pete Townshend - Live > La Jolla Playhouse 230601 (2001) [FLAC]/06 Drowned.flac

Track gain : 8.79 dB
Peak : 0.410004
CRC32 hash (test run) : 48EF87FE
CRC32 hash : 48EF87FE
CRC32 hash (skip zero) : EBF3D379
AccurateRip v1 signature : FC0E72B0
AccurateRip v2 signature : AADE7D8D
->Accurately ripped (v1, confidence 3/3)
Statistics
Read error : 0
Jitter error (maybe fixed) : 0
Retry sector count : 0
Damaged sector count : 0

Track 07
Filename : /Users/neonkaiser/Documents/Torrents/Pete Townshend - Live > La Jolla Playhouse 230601 (2001) [FLAC]/07 Greyhound Girl.flac

Track gain : 8.87 dB
Peak : 0.423187
CRC32 hash (test run) : 82AB5388
CRC32 hash : 82AB5388
CRC32 hash (skip zero) : ADCDC786
AccurateRip v1 signature : 1001E033
AccurateRip v2 signature : D2924CFE
->Accurately ripped (v1, confidence 3/3)
Statistics
Read error : 0
Jitter error (maybe fixed) : 0
Retry sector count : 0
Damaged sector count : 0

Track 08
Filename : /Users/neonkaiser/Documents/Torrents/Pete Townshend - Live > La Jolla Playhouse 230601 (2001) [FLAC]/08 Tattoo.flac

Track gain : 7.96 dB
Peak : 0.560760
CRC32 hash (test run) : 39D6DAB1
CRC32 hash : 39D6DAB1
CRC32 hash (skip zero) : 48381C4C
AccurateRip v1 signature : CDA46896
AccurateRip v2 signature : F58CBFBE
->Accurately ripped (v1, confidence 3/3)
Statistics
Read error : 0
Jitter error (maybe fixed) : 0
Retry sector count : 0
Damaged sector count : 0

Track 09
Filename : /Users/neonkaiser/Documents/Torrents/Pete Townshend - Live > La Jolla Playhouse 230601 (2001) [FLAC]/09 Collings.flac

Track gain : 13.64 dB
Peak : 0.312378
CRC32 hash (test run) : 09500311
CRC32 hash : 09500311
CRC32 hash (skip zero) : 5EC92581
AccurateRip v1 signature : 8905808E
AccurateRip v2 signature : B6FF446D
->Accurately ripped (v1, confidence 3/3)
Statistics
Read error : 0
Jitter error (maybe fixed) : 0
Retry sector count : 0
Damaged sector count : 0

Track 10
Filename : /Users/neonkaiser/Documents/Torrents/Pete Townshend - Live > La Jolla Playhouse 230601 (2001) [FLAC]/10 Eminence Front.flac

Track gain : 4.21 dB
Peak : 0.747986
CRC32 hash (test run) : 88751B7A
CRC32 hash : 88751B7A
CRC32 hash (skip zero) : 2D058A43
AccurateRip v1 signature : 18B73F18
AccurateRip v2 signature : 5B56592C
->Accurately ripped (v1, confidence 3/3)
Statistics
Read error : 0
Jitter error (maybe fixed) : 0
Retry sector count : 0
Damaged sector count : 0

No errors occurred

End of status report

X Lossless Decoder version 20120908 (141.1)

XLD extraction logfile from 2012-10-12 20:21:58 -0400

Pete Townshend / Live > La Jolla Playhouse 230601

Used drive : MATSHITA DVD-R UJ-85J (revision FAV1)

Ripper mode : XLD Secure Ripper
Disable audio cache : OK for the drive with a cache less than 1375KiB
Make use of C2 pointers : NO
Read offset correction : 102
Max retry count : 20
Gap status : Analyzed, Appended

TOC of the extracted CD
Track | Start | Length | Start sector | End sector
––––––––––––––––––––––––––––-
1 | 00:00:00 | 06:45:35 | 0 | 30409
2 | 06:45:35 | 06:00:25 | 30410 | 57434
3 | 12:45:60 | 05:11:45 | 57435 | 80804
4 | 17:57:30 | 05:51:00 | 80805 | 107129
5 | 23:48:30 | 02:41:41 | 107130 | 119245
6 | 26:29:71 | 02:53:02 | 119246 | 132222
7 | 29:22:73 | 04:50:69 | 132223 | 154041

AccurateRip Summary (DiscID: 000a654b-003c81b9-5c080507)
Track 01 : OK (v1, confidence 2/2)
Track 02 : OK (v1, confidence 3/3)
Track 03 : OK (v1, confidence 3/3)
Track 04 : OK (v1, confidence 3/3)
Track 05 : OK (v1, confidence 3/3)
Track 06 : OK (v1, confidence 3/3)
Track 07 : OK (v1, confidence 3/3)
->All tracks accurately ripped.

All Tracks
Album gain : 4.01 dB
Peak : 0.903229
Statistics
Read error : 0
Jitter error (maybe fixed) : 0
Retry sector count : 0
Damaged sector count : 0

Track 01
Filename : /Users/neonkaiser/Documents/Torrents/Pete Townshend - Live > La Jolla Playhouse 230601 (2001) [FLAC]/01 Sheraton Gibson.flac
Pre-gap length : 00:02:00

Track gain : 12.66 dB
Peak : 0.425903
CRC32 hash (test run) : 57C0925E
CRC32 hash : 57C0925E
CRC32 hash (skip zero) : 52E9CFD5
AccurateRip v1 signature : C0F172A8
AccurateRip v2 signature : 8626BB0F
->Accurately ripped (v1, confidence 2/2)
Statistics
Read error : 0
Jitter error (maybe fixed) : 0
Retry sector count : 0
Damaged sector count : 0

Track 02
Filename : /Users/neonkaiser/Documents/Torrents/Pete Townshend - Live > La Jolla Playhouse 230601 (2001) [FLAC]/02 Won't Get Fooled Again.flac

Track gain : 4.30 dB
Peak : 0.652527
CRC32 hash (test run) : 0F67C8D4
CRC32 hash : 0F67C8D4
CRC32 hash (skip zero) : 80DDB8AF
AccurateRip v1 signature : 89C42DFD
AccurateRip v2 signature : CB461D22
->Accurately ripped (v1, confidence 3/3)
Statistics
Read error : 0
Jitter error (maybe fixed) : 0
Retry sector count : 0
Damaged sector count : 0

Track 03
Filename : /Users/neonkaiser/Documents/Torrents/Pete Townshend - Live > La Jolla Playhouse 230601 (2001) [FLAC]/03 I'm One.flac

Track gain : 5.99 dB
Peak : 0.853821
CRC32 hash (test run) : 21FAE2C6
CRC32 hash : 21FAE2C6
CRC32 hash (skip zero) : 57386C12
AccurateRip v1 signature : B866DEE6
AccurateRip v2 signature : A2ADDEBD
->Accurately ripped (v1, confidence 3/3)
Statistics
Read error : 0
Jitter error (maybe fixed) : 0
Retry sector count : 0
Damaged sector count : 0

Track 04
Filename : /Users/neonkaiser/Documents/Torrents/Pete Townshend - Live > La Jolla Playhouse 230601 (2001) [FLAC]/04 Behind Blue Eyes.flac

Track gain : 8.32 dB
Peak : 0.903229
CRC32 hash (test run) : 44DF5423
CRC32 hash : 44DF5423
CRC32 hash (skip zero) : FA756893
AccurateRip v1 signature : AA34F9B4
AccurateRip v2 signature : EFE7CD85
->Accurately ripped (v1, confidence 3/3)
Statistics
Read error : 0
Jitter error (maybe fixed) : 0
Retry sector count : 0
Damaged sector count : 0

Track 05
Filename : /Users/neonkaiser/Documents/Torrents/Pete Townshend - Live > La Jolla Playhouse 230601 (2001) [FLAC]/05 Driftin' Blues.flac

Track gain : 1.45 dB
Peak : 0.699066
CRC32 hash (test run) : 77109B1E
CRC32 hash : 77109B1E
CRC32 hash (skip zero) : 00692FEE
AccurateRip v1 signature : 150111A5
AccurateRip v2 signature : E4AFD3E7
->Accurately ripped (v1, confidence 3/3)
Statistics
Read error : 0
Jitter error (maybe fixed) : 0
Retry sector count : 0
Damaged sector count : 0

Track 06
Filename : /Users/neonkaiser/Documents/Torrents/Pete Townshend - Live > La Jolla Playhouse 230601 (2001) [FLAC]/06 Eyesight to the Blind.flac

Track gain : 5.91 dB
Peak : 0.517883
CRC32 hash (test run) : AA4048A8
CRC32 hash : AA4048A8
CRC32 hash (skip zero) : B82A013F
AccurateRip v1 signature : BB914B9B
AccurateRip v2 signature : 036DB7EA
->Accurately ripped (v1, confidence 3/3)
Statistics
Read error : 0
Jitter error (maybe fixed) : 0
Retry sector count : 0
Damaged sector count : 0

Track 07
Filename : /Users/neonkaiser/Documents/Torrents/Pete Townshend - Live > La Jolla Playhouse 230601 (2001) [FLAC]/07 Won't Get Fooled Again (Electric).flac

Track gain : 0.13 dB
Peak : 0.735382
CRC32 hash (test run) : 33A58BC8
CRC32 hash : 33A58BC8
CRC32 hash (skip zero) : 3EF56A6E
AccurateRip v1 signature : 5324B05F
AccurateRip v2 signature : CC22C131
->Accurately ripped (v1, confidence 3/3)
Statistics
Read error : 0
Jitter error (maybe fixed) : 0
Retry sector count : 0
Damaged sector count : 0

No errors occurred

End of status report


Pete Townshend - Live: La Jolla Playhouse, June 22-23 (2001) [4CD] {Eel Pie}

Thanks to NeonKaiser!