Subcategories

Phil Woods & Gene Quill Sextet - Phil And Quill (1956) {2014 Japan Jazz Collection 1000 Columbia-RCA Series SICP 4037}

Posted By: ruskaval
Phil Woods & Gene Quill Sextet - Phil And Quill (1956) {2014 Japan Jazz Collection 1000 Columbia-RCA Series SICP 4037}

Phil Woods & Gene Quill Sextet - Phil And Quill (1956) {2014 Japan Jazz Collection 1000 Columbia-RCA Series SICP 4037}
EAC rip (secure mode) | FLAC (tracks)+CUE+LOG -> 180 Mb | MP3 @320 -> 90 Mb
Full Artwork @ 600 dpi (png) -> 269 Mb | 5% repair rar
© 1956, 2014 RCA / Sony Music Japan | SICP 4037 | Mono
Jazz / Bop / Hard Bop / Saxophone

Reissue with the latest remastering. Comes with liner notes. The meetings of alto saxophonist Phil Woods and Gene Quill, such as this 1956 sextet date for RCA, are always enjoyable. In addition to baritone saxophonist Sol Schlinger, Woods and Quill are joined by pianist Dave McKenna, bassist Buddy Jones, and drummer Shadow Wilson. The focus is on the two altoists, but there is occasionally blowing room for Schlinger and McKenna, too. Gene Orloff's snappy "Sax Fifth Avenue" and Woods' brisk "Four Flights Up" are the highlights of the date, along with several works by Bill Potts. This is a typically solid effort by Phil Woods and Gene Quill.
Phil Woods & Gene Quill Sextet - Phil And Quill (1956) {2014 Japan Jazz Collection 1000 Columbia-RCA Series SICP 4037}


Personnel:
Phil Woods - alto saxophone
Gene Quill - alto saxophone
Sol Schlinger - baritone saxophone
Dave McKenna - piano
Buddy Jones - bass
Shadow Wilson - drums

tracklist:
01 - Sax Fifth Avenue
02 - Ready Rudy
03 - Cabeza
04 - Twin Funkies
05 - Rib Roast
06 - High Stepping Bizzes
07 - Four Flights Up
08 - Dig Your P's and Q's
09 - Dry Chops In The Moonlight
10 - Una Momento
11 - Pottsville, U.S.A.
12 - Frank The Barber

Exact Audio Copy V1.1 from 23. June 2015

EAC extraction logfile from 21. May 2016, 18:27

Phil Woods & Gene Quill Sextet / Phil And Quill

Used drive : TSSTcorpCDDVDW SE-208DB Adapter: 1 ID: 0

Read mode : Secure
Utilize accurate stream : Yes
Defeat audio cache : Yes
Make use of C2 pointers : No

Read offset correction : 6
Overread into Lead-In and Lead-Out : No
Fill up missing offset samples with silence : Yes
Delete leading and trailing silent blocks : No
Null samples used in CRC calculations : Yes
Used interface : Native Win32 interface for Win NT & 2000
Gap handling : Appended to previous track

Used output format : User Defined Encoder
Selected bitrate : 1024 kBit/s
Quality : High
Add ID3 tag : No
Command line compressor : C:\Program Files (x86)\FLAC Frontend\tools\flac.exe
Additional command line options : -8 -V -T "ARTIST=%artist%" -T "TITLE=%title%" -T "ALBUM=%albumtitle%" -T "DATE=%year%" -T "TRACKNUMBER=%tracknr%" -T "TOTALTRACKS=%numtracks%" -T "GENRE=%genre%" -T "ALBUMARTIST=%albumartist%" -T "ALBUM ARTIST=%albumartist%" -T "COMMENT=EAC Secure Mode, Test & Copy, AccurateRip, FLAC -8" %source%


TOC of the extracted CD

Track | Start | Length | Start sector | End sector
––––––––––––––––––––––––––––-
1 | 0:00.00 | 3:14.62 | 0 | 14611
2 | 3:14.62 | 3:03.08 | 14612 | 28344
3 | 6:17.70 | 3:16.42 | 28345 | 43086
4 | 9:34.37 | 3:31.70 | 43087 | 58981
5 | 13:06.32 | 2:55.70 | 58982 | 72176
6 | 16:02.27 | 2:46.18 | 72177 | 84644
7 | 18:48.45 | 3:10.07 | 84645 | 98901
8 | 21:58.52 | 2:22.40 | 98902 | 109591
9 | 24:21.17 | 3:34.70 | 109592 | 125711
10 | 27:56.12 | 3:33.65 | 125712 | 141751
11 | 31:30.02 | 3:24.10 | 141752 | 157061
12 | 34:54.12 | 2:54.60 | 157062 | 170171


Track 1

Filename D:\_EAC\Phil Woods & Gene Quill Sextet - Phil And Quill (1956) [FLAC] {SICP 4037}\01 - Sax Fifth Avenue.wav

Pre-gap length 0:00:02.00

Peak level 98.0 %
Extraction speed 2.4 X
Track quality 100.0 %
Test CRC 62F4337C
Copy CRC 62F4337C
Accurately ripped (confidence 1) [303F6D67] (AR v2)
Copy OK

Track 2

Filename D:\_EAC\Phil Woods & Gene Quill Sextet - Phil And Quill (1956) [FLAC] {SICP 4037}\02 - Ready Rudy.wav

Pre-gap length 0:00:03.00

Peak level 98.0 %
Extraction speed 2.7 X
Track quality 100.0 %
Test CRC E5D4A42A
Copy CRC E5D4A42A
Accurately ripped (confidence 1) [4ECE1887] (AR v2)
Copy OK

Track 3

Filename D:\_EAC\Phil Woods & Gene Quill Sextet - Phil And Quill (1956) [FLAC] {SICP 4037}\03 - Cabeza.wav

Pre-gap length 0:00:02.38

Peak level 97.9 %
Extraction speed 2.3 X
Track quality 99.9 %
Test CRC 6D56A4FD
Copy CRC 6D56A4FD
Accurately ripped (confidence 1) [5BC285CD] (AR v2)
Copy OK

Track 4

Filename D:\_EAC\Phil Woods & Gene Quill Sextet - Phil And Quill (1956) [FLAC] {SICP 4037}\04 - Twin Funkies.wav

Pre-gap length 0:00:01.72

Peak level 97.9 %
Extraction speed 3.2 X
Track quality 100.0 %
Test CRC 193649AB
Copy CRC 193649AB
Accurately ripped (confidence 1) [368F90BD] (AR v2)
Copy OK

Track 5

Filename D:\_EAC\Phil Woods & Gene Quill Sextet - Phil And Quill (1956) [FLAC] {SICP 4037}\05 - Rib Roast.wav

Pre-gap length 0:00:03.35

Peak level 98.0 %
Extraction speed 2.5 X
Track quality 99.9 %
Test CRC BE7999C2
Copy CRC BE7999C2
Accurately ripped (confidence 1) [FC4F0F94] (AR v2)
Copy OK

Track 6

Filename D:\_EAC\Phil Woods & Gene Quill Sextet - Phil And Quill (1956) [FLAC] {SICP 4037}\06 - High Stepping Bizzes.wav

Pre-gap length 0:00:03.10

Peak level 97.9 %
Extraction speed 3.3 X
Track quality 100.0 %
Test CRC 8D5D96E0
Copy CRC 8D5D96E0
Accurately ripped (confidence 1) [10DC0DB0] (AR v2)
Copy OK

Track 7

Filename D:\_EAC\Phil Woods & Gene Quill Sextet - Phil And Quill (1956) [FLAC] {SICP 4037}\07 - Four Flights Up.wav

Pre-gap length 0:00:03.08

Peak level 97.9 %
Extraction speed 3.5 X
Track quality 100.0 %
Test CRC 7ABC21E6
Copy CRC 7ABC21E6
Accurately ripped (confidence 1) [9BE16F2C] (AR v2)
Copy OK

Track 8

Filename D:\_EAC\Phil Woods & Gene Quill Sextet - Phil And Quill (1956) [FLAC] {SICP 4037}\08 - Dig Your P's and Q's.wav

Pre-gap length 0:00:02.35

Peak level 97.9 %
Extraction speed 3.5 X
Track quality 100.0 %
Test CRC CB736464
Copy CRC CB736464
Accurately ripped (confidence 1) [72C84535] (AR v2)
Copy OK

Track 9

Filename D:\_EAC\Phil Woods & Gene Quill Sextet - Phil And Quill (1956) [FLAC] {SICP 4037}\09 - Dry Chops In The Moonlight.wav

Pre-gap length 0:00:02.15

Peak level 97.9 %
Extraction speed 3.9 X
Track quality 100.0 %
Test CRC 8CD0BFF2
Copy CRC 8CD0BFF2
Accurately ripped (confidence 1) [20EE06A1] (AR v2)
Copy OK

Track 10

Filename D:\_EAC\Phil Woods & Gene Quill Sextet - Phil And Quill (1956) [FLAC] {SICP 4037}\10 - Una Momento.wav

Pre-gap length 0:00:02.70

Peak level 97.9 %
Extraction speed 4.0 X
Track quality 100.0 %
Test CRC AEFF84B2
Copy CRC AEFF84B2
Accurately ripped (confidence 1) [AAC039C5] (AR v2)
Copy OK

Track 11

Filename D:\_EAC\Phil Woods & Gene Quill Sextet - Phil And Quill (1956) [FLAC] {SICP 4037}\11 - Pottsville, U.S.A..wav

Pre-gap length 0:00:02.05

Peak level 97.9 %
Extraction speed 4.2 X
Track quality 100.0 %
Test CRC 00016A2B
Copy CRC 00016A2B
Accurately ripped (confidence 1) [ED070F06] (AR v2)
Copy OK

Track 12

Filename D:\_EAC\Phil Woods & Gene Quill Sextet - Phil And Quill (1956) [FLAC] {SICP 4037}\12 - Frank The Barber.wav

Pre-gap length 0:00:01.52

Peak level 97.9 %
Extraction speed 4.2 X
Track quality 100.0 %
Test CRC DE01E7C8
Copy CRC DE01E7C8
Accurately ripped (confidence 1) [FE6F9FE9] (AR v2)
Copy OK


All tracks accurately ripped

No errors occurred

End of status report

==== Log checksum EE8B702C7A943F08691B1FEA09178C7DE6D7F826DE7064C2AE0429171C3F74B4 ====


Phil Woods & Gene Quill Sextet - Phil And Quill (1956) {2014 Japan Jazz Collection 1000 Columbia-RCA Series SICP 4037}

Phil Woods & Gene Quill Sextet - Phil And Quill (1956) {2014 Japan Jazz Collection 1000 Columbia-RCA Series SICP 4037}


see more Japan Jazz Collection 1000 Columbia-RCA Series…


===