Subcategories

The Phil Woods Quartet With Gene Quill - Phil Talks With Quill (1957) {2014 Japan Jazz Collection 1000 Columbia-RCA Series}

Posted By: ruskaval
The Phil Woods Quartet With Gene Quill - Phil Talks With Quill (1957) {2014 Japan Jazz Collection 1000 Columbia-RCA Series}

The Phil Woods Quartet With Gene Quill - Phil Talks With Quill (1957) {2014 Japan Jazz Collection 1000 Columbia-RCA Series}
EAC rip (secure mode) | FLAC (tracks)+CUE+LOG -> 350 Mb | MP3 @320 -> 113 Mb
Full Artwork @ 600 dpi (png) -> 256 Mb | 5% repair rar
© 1957, 2014 Epic / Sony Music Japan | SICP 4214
Jazz / Cool / Bop / Hard Bop / Saxophone

Reissue with the latest DSD remastering. Comes with liner notes. Rare as hens' teeth – and an incredible meeting of two vastly underrated alto talents! Phil Woods got plenty of opportunities to record as a leader in the 50s, but altoist Gene Quill was often buried in bigger groups – a fact that makes this album one of the few chances to really hear him shine! Woods and Quill work together beautifully throughout – playing boppishly, but also in a more relaxed groove – one that's a bit like Phil's excellent Warm Woods session for Epic from the same stretch, but perhaps a bit more upbeat overall.

The twin-alto sound is really great – especially on the tunes that have them soaring together on the heads, then splitting off on solos with amazing dexterity and real dynamic range. Other players include Bob Corwin on piano, Sonny Dallas on bass, and Nick Stabulas on drums – and although the pair recorded an earlier session for RCA a few years before, this one's far superior! Titles include "Doxy", "Scrapple From the Apple", "Hymn For Kim", and "Night In Tunisia".
The Phil Woods Quartet With Gene Quill - Phil Talks With Quill (1957) {2014 Japan Jazz Collection 1000 Columbia-RCA Series}


Personnel:
Phil Woods, alto saxophone
Gene Quill, alto saxophone
Bob Corwin, piano
Sonny Dallas, bass
Nick Stabulas, drums

tracklist:
01 - Doxie I
02 - A Night In Tunisia
03 - Hymn For Kim
04 - Dear Old Stockholm
05 - Scrapple From The Apple
06 - Doxie II

Exact Audio Copy V1.1 from 23. June 2015

EAC extraction logfile from 20. June 2016, 4:30

The Phil Woods Quartet With Gene Quill / Phil Talks With Quill

Used drive : HL-DT-STDVDRAM GP50NW41 Adapter: 1 ID: 0

Read mode : Secure
Utilize accurate stream : Yes
Defeat audio cache : Yes
Make use of C2 pointers : No

Read offset correction : 6
Overread into Lead-In and Lead-Out : No
Fill up missing offset samples with silence : Yes
Delete leading and trailing silent blocks : No
Null samples used in CRC calculations : Yes
Used interface : Native Win32 interface for Win NT & 2000
Gap handling : Appended to previous track

Used output format : User Defined Encoder
Selected bitrate : 1024 kBit/s
Quality : High
Add ID3 tag : No
Command line compressor : C:\Program Files (x86)\FLAC Frontend\tools\flac.exe
Additional command line options : -8 -V -T "ARTIST=%artist%" -T "TITLE=%title%" -T "ALBUM=%albumtitle%" -T "DATE=%year%" -T "TRACKNUMBER=%tracknr%" -T "TOTALTRACKS=%numtracks%" -T "GENRE=%genre%" -T "ALBUMARTIST=%albumartist%" -T "ALBUM ARTIST=%albumartist%" -T "COMMENT=EAC Secure Mode, Test & Copy, AccurateRip, FLAC -8" %source%


TOC of the extracted CD

Track | Start | Length | Start sector | End sector
––––––––––––––––––––––––––––-
1 | 0:00.00 | 5:55.15 | 0 | 26639
2 | 5:55.15 | 9:11.48 | 26640 | 68012
3 | 15:06.63 | 8:10.07 | 68013 | 104769
4 | 23:16.70 | 9:13.48 | 104770 | 146292
5 | 32:30.43 | 8:07.35 | 146293 | 182852
6 | 40:38.03 | 7:21.40 | 182853 | 215967


Track 1

Filename D:\_EAC\The Phil Woods Quartet With Gene Quill - Phil Talks With Quill (1957) [FLAC] {SICP 4214}\01 - Doxie I.wav

Pre-gap length 0:00:02.00

Peak level 100.0 %
Extraction speed 2.5 X
Track quality 99.9 %
Test CRC 62F5C3E6
Copy CRC 62F5C3E6
Track not present in AccurateRip database
Copy OK

Track 2

Filename D:\_EAC\The Phil Woods Quartet With Gene Quill - Phil Talks With Quill (1957) [FLAC] {SICP 4214}\02 - A Night In Tunisia.wav

Pre-gap length 0:00:02.17

Peak level 100.0 %
Extraction speed 3.5 X
Track quality 100.0 %
Test CRC E1BE371D
Copy CRC E1BE371D
Track not present in AccurateRip database
Copy OK

Track 3

Filename D:\_EAC\The Phil Woods Quartet With Gene Quill - Phil Talks With Quill (1957) [FLAC] {SICP 4214}\03 - Hymn For Kim.wav

Pre-gap length 0:00:02.50

Peak level 100.0 %
Extraction speed 4.1 X
Track quality 100.0 %
Test CRC C1669FBF
Copy CRC C1669FBF
Track not present in AccurateRip database
Copy OK

Track 4

Filename D:\_EAC\The Phil Woods Quartet With Gene Quill - Phil Talks With Quill (1957) [FLAC] {SICP 4214}\04 - Dear Old Stockholm.wav

Pre-gap length 0:00:03.27

Peak level 99.3 %
Extraction speed 4.6 X
Track quality 100.0 %
Test CRC 6FF63316
Copy CRC 6FF63316
Track not present in AccurateRip database
Copy OK

Track 5

Filename D:\_EAC\The Phil Woods Quartet With Gene Quill - Phil Talks With Quill (1957) [FLAC] {SICP 4214}\05 - Scrapple From The Apple.wav

Pre-gap length 0:00:03.15

Peak level 99.8 %
Extraction speed 4.9 X
Track quality 100.0 %
Test CRC 340DDD5B
Copy CRC 340DDD5B
Track not present in AccurateRip database
Copy OK

Track 6

Filename D:\_EAC\The Phil Woods Quartet With Gene Quill - Phil Talks With Quill (1957) [FLAC] {SICP 4214}\06 - Doxie II.wav

Pre-gap length 0:00:02.63

Peak level 98.4 %
Extraction speed 4.6 X
Track quality 99.9 %
Test CRC 8618E4D7
Copy CRC 8618E4D7
Track not present in AccurateRip database
Copy OK


None of the tracks are present in the AccurateRip database

No errors occurred

End of status report

==== Log checksum 6B2269F2D8D44348FDE08B7CE7547F991FD6D32B95B6DD8C7D32EB7FF4761ED9 ====


The Phil Woods Quartet With Gene Quill - Phil Talks With Quill (1957) {2014 Japan Jazz Collection 1000 Columbia-RCA Series}

The Phil Woods Quartet With Gene Quill - Phil Talks With Quill (1957) {2014 Japan Jazz Collection 1000 Columbia-RCA Series}


see more Japan Jazz Collection 1000 Columbia-RCA Series…


===