Subcategories

Phil Woods & Gene Quill - Phil & Quill with Prestige (1957) [Remastered 1991]

Posted By: Bezz
Phil Woods & Gene Quill - Phil & Quill with Prestige (1957) [Remastered 1991]

Phil Woods & Gene Quill - Phil & Quill with Prestige (1957) [Remastered 1991]
EAC rip | FLAC+CUE+LOG | Scans | 290 Mb(Incl. Recovery)
Genre ~ Hard Bop, Bop, Saxophone Jazz | Label ~ Prestige Records

Altoists Phil Woods and Gene Quill always made for a mutually inspiring team. Both of the similar-sounding musicians were competitive, influenced by (but not imitative of) Charlie Parker, and really knew bebop. This CD reissue (which adds two selections from the same session that were originally part of the sampler Bird Feathers) features the two altoists in top form on six of Woods' obscure originals, plus "Airegin" and "Solar." The rhythm section (pianist George Syran, bassist Teddy Kotick, and drummer Nick Stabulas) is tasteful and quietly supportive. ~ AllMusic
Tracklist

1. Creme De Funk
2. Lazy Like
3. Nothing But Soul
4. A Night At St. Nicks
5. Black Cherry Fritters
6. Altology
7. Airegin
8. Solar

EAC extraction logfile from 21. March 2008, 5:42 for CD
Phil Woods-Gene Quill Quintet / Phil & Quill With Prestige

Used drive : HL-DT-STCDRW/DVD GCC4482 Adapter: 1 ID: 0
Read mode : Secure with NO C2, accurate stream, disable cache
Read offset correction : 6
Overread into Lead-In and Lead-Out : No

Used output format : C:\Eac\Codecs\flac.exe (User Defined Encoder)
320 kBit/s
Additional command line options : -8 -V -T "artist=%a" -T "title=%t" -T "album=%g" -T "date=%y" -T "tracknumber=%n" -T "genre=%m" -T "comment=EAC Flac 1.1.2 -8" %s

Other options :
Fill up missing offset samples with silence : Yes
Delete leading and trailing silent blocks : No
Installed external ASPI interface

Track 1
Filename C:\Documents and Settings\philquill\01 - Creme De Funk.wav

Pre-gap length 0:00:02.00

Peak level 83.0 %
Track quality 100.0 %
Test CRC 8A261C84
Copy CRC 8A261C84
Copy OK

Track 2
Filename C:\Documents and Settings\philquill\02 - Lazy Like.wav

Pre-gap length 0:00:03.40

Peak level 93.8 %
Track quality 100.0 %
Test CRC DA5BAFE7
Copy CRC DA5BAFE7
Copy OK

Track 3
Filename C:\Documents and Settings\philquill\03 - Nothing But Soul.wav

Pre-gap length 0:00:03.30

Peak level 99.2 %
Track quality 100.0 %
Test CRC 8EEE2C38
Copy CRC 8EEE2C38
Copy OK

Track 4
Filename C:\Documents and Settings\philquill\04 - A Night At St. Nicks.wav

Pre-gap length 0:00:02.73

Peak level 99.4 %
Track quality 100.0 %
Test CRC F71FAE38
Copy CRC F71FAE38
Copy OK

Track 5
Filename C:\Documents and Settings\philquill\05 - Black Cherry Fritters.wav

Pre-gap length 0:00:03.73

Peak level 87.8 %
Track quality 100.0 %
Test CRC CF445128
Copy CRC CF445128
Copy OK

Track 6
Filename C:\Documents and Settings\philquill\06 - Altology.wav

Pre-gap length 0:00:03.13

Peak level 100.0 %
Track quality 99.9 %
Test CRC 4980C67D
Copy CRC 4980C67D
Copy OK

Track 7
Filename C:\Documents and Settings\philquill\07 - Airegin.wav

Pre-gap length 0:00:02.89

Peak level 89.7 %
Track quality 100.0 %
Test CRC 59F4D4A1
Copy CRC 59F4D4A1
Copy OK

Track 8
Filename C:\Documents and Settings\philquill\08 - Solar.wav

Pre-gap length 0:00:03.17

Peak level 81.9 %
Track quality 100.0 %
Test CRC 2FAF1191
Copy CRC 2FAF1191
Copy OK

No errors occured

End of status report

Phil Woods & Gene Quill - Phil & Quill with Prestige (1957) [Remastered 1991]

Phil Woods & Gene Quill - Phil & Quill with Prestige (1957) [Remastered 1991]

Special thanks to weejie and fiks22!

Welcome to my blog for more wonderful music

PLEASE DO NOT PROVIDE MIRROR LINKS!