Tags
Language
Tags

Philips Dutch Masters – Volume 18: A Portrait of Tibor de Machula (1999)

Posted By: d'Avignon
Philips Dutch Masters – Volume 18: A Portrait of Tibor de Machula (1999)

Philips Dutch Masters – Volume 18: A Portrait of Tibor de Machula (1999)
Classical/Romantic/Early 20th C. | FLAC lossless | cuesheets+logs | covers+booklet | 65m32s | 224mb
Label: Philips | cat. no. 462 091-2


A hard-to-get volume of the famous Dutch Masters series. What to say? A man with such a beautiful name is bound to produce beautiful art. And cellist Tibor de Machula does indeed.

Tibor de Machula was born in Hungary in 1912, and educated in Budapest by Adolf Schiffer. At the early age of 12 he made his first public appearance with the Budapest Philharmonic Orchestra, followed by a tour in Italy. At the age of 15 he was invited to study at the Curtis Institute of Music in Philadelphia, USA with Felix Salmond. After three years he returned to Europe and made different concert tours, a.o. South Africa, Scandinavia and the Dutch Colonies. The conductor Wilhelm Furtwängler invited him in 1936 to be the principal cellist of the Berlin Philharmonic Orchestra, where he stayed for eleven years, untill he became the principal cellist of the Concertgebouworchestra in 1947 where he stayed untill he retired in 1977. He also performed as a soloist and in various chamber music ensembles. He died on 18 december 1982 in Abcoude, Netherlands.

Tracks:

01. Max Bruch: Kol Nidrei [0:12:22.00]
02. Ernest Bloch: Schelomo [0:20:49.00]
03. Eduard Lalo: Celloconcerto in D - 1. Prelude [0:12:38.00]
04. Eduard Lalo: Celloconcerto in D - 2. Intermezzo [0:06:17.00]
05. Eduard Lalo: Celloconcerto in D - 3. Introduction [0:06:19.00]
06. Robert Schumann: Abendlied, op 85 nr. 12 (arr. De Machula) [0:04:01.00]
07. Robert Schumann: Traumerei [0:03:09.00]

Performers:

Tibor de Machula – cello
Residentie Orkest – Willem van Otterloo

Exact Audio Copy V1.0 beta 3 from 29. August 2011

EAC extraction logfile from 1. June 2016, 21:13

Tibor de Machula / Portret van Tibor de Machula

Used drive : TSSTcorpCDDVDW SH-216AB Adapter: 0 ID: 0

Read mode : Secure
Utilize accurate stream : Yes
Defeat audio cache : Yes
Make use of C2 pointers : No

Read offset correction : 6
Overread into Lead-In and Lead-Out : No
Fill up missing offset samples with silence : Yes
Delete leading and trailing silent blocks : No
Null samples used in CRC calculations : Yes
Used interface : Native Win32 interface for Win NT & 2000
Gap handling : Appended to previous track

Used output format : User Defined Encoder
Selected bitrate : 768 kBit/s
Quality : High
Add ID3 tag : No
Command line compressor : C:\Program Files (x86)\FLAC Frontend\tools\flac.exe
Additional command line options : -8 -V -T "ARTIST=%artist%" -T "TITLE=%title%" -T "ALBUM=%albumtitle%" -T "DATE=%year%" -T "TRACKNUMBER=%tracknr%" -T "GENRE=%genre%" -T "PERFORMER=%albuminterpret%" -T "COMPOSER=%composer%" %haslyrics%–tag-from-file=LYRICS="%lyricsfile%"%haslyrics% -T "ALBUMARTIST=%albumartist%" -T "DISCNUMBER=%cdnumber%" -T "TOTALDISCS=%totalcds%" -T "TOTALTRACKS=%numtracks%" -T "COMMENT=%comment%" %source% -o %dest%


TOC of the extracted CD

Track | Start | Length | Start sector | End sector
––––––––––––––––––––––––––––-
1 | 0:00.32 | 12:22.00 | 32 | 55681
2 | 12:22.32 | 20:49.00 | 55682 | 149356
3 | 33:11.32 | 12:38.00 | 149357 | 206206
4 | 45:49.32 | 6:17.00 | 206207 | 234481
5 | 52:06.32 | 6:19.00 | 234482 | 262906
6 | 58:25.32 | 4:01.00 | 262907 | 280981
7 | 62:26.32 | 3:09.00 | 280982 | 295156


Track 1

Filename H:\Users\astarte\03. POST\Machula, Tibor de\01 Kol Nidrei.wav

Pre-gap length 0:00:02.42

Peak level 87.1 %
Extraction speed 2.2 X
Track quality 99.9 %
Copy CRC F8896AC9
Track not present in AccurateRip database
Copy OK

Track 2

Filename H:\Users\astarte\03. POST\Machula, Tibor de\02 Schelomo.wav

Pre-gap length 0:00:05.98

Peak level 100.0 %
Extraction speed 2.3 X
Track quality 100.0 %
Copy CRC A055BA00
Track not present in AccurateRip database
Copy OK

Track 3

Filename H:\Users\astarte\03. POST\Machula, Tibor de\03 Celloconcerto in D - 1. Prelude.wav

Pre-gap length 0:00:07.98

Peak level 98.8 %
Extraction speed 2.1 X
Track quality 99.9 %
Copy CRC AAE092B7
Track not present in AccurateRip database
Copy OK

Track 4

Filename H:\Users\astarte\03. POST\Machula, Tibor de\04 Celloconcerto in D - 2. Intermezzo.wav

Pre-gap length 0:00:01.98

Peak level 77.1 %
Extraction speed 2.0 X
Track quality 99.9 %
Copy CRC 515069AD
Track not present in AccurateRip database
Copy OK

Track 5

Filename H:\Users\astarte\03. POST\Machula, Tibor de\05 Celloconcerto in D - 3. Introduction.wav

Pre-gap length 0:00:00.98

Suspicious position 0:00:31
Suspicious position 0:00:33 - 0:00:34

Peak level 87.1 %
Extraction speed 0.4 X
Track quality 98.6 %
Copy CRC 6EEFFF4C
Track not present in AccurateRip database
Copy finished

Track 6

Filename H:\Users\astarte\03. POST\Machula, Tibor de\06 Abendlied, op 85 nr. 12 (arr. De Machula).wav

Pre-gap length 0:00:05.98

Peak level 44.8 %
Extraction speed 1.8 X
Track quality 99.9 %
Copy CRC 9E82FD2B
Track not present in AccurateRip database
Copy OK

Track 7

Filename H:\Users\astarte\03. POST\Machula, Tibor de\07 Traumerei.wav

Pre-gap length 0:00:05.98

Suspicious position 0:02:39 - 0:02:42
Suspicious position 0:02:47 - 0:02:52

Peak level 47.0 %
Extraction speed 0.0 X
Track quality 95.5 %
Copy CRC 9BD21528
Track not present in AccurateRip database
Copy finished


None of the tracks are present in the AccurateRip database

There were errors

End of status report

==== Log checksum 6CCCDC6C1BE9F91D71BAE2D81A9A74298E107197A4B70FE3309EAAE8FE82A92F ====