Tags
Language
Tags

Philips Dutch Masters – Volume 44: Tibor de Machula - Schumann, Boccherini, Haydn (1999)

Posted By: d'Avignon
Philips Dutch Masters – Volume 44: Tibor de Machula -  Schumann, Boccherini, Haydn (1999)

Philips Dutch Masters – Volume 44: Tibor de Machula - Schumann, Boccherini, Haydn (1999)
Classical/1st Viennese School/Romantic | FLAC lossless | cuesheets+logs | covers+booklet | 68m06s | 295mb
Label: Philips | cat. no. 462 898-2


A second volume from the Dutch Masters series with the Hungarian cellist Tibor de Machula.

Tibor de Machula was born in Hungary in 1912, and educated in Budapest by Adolf Schiffer. At the early age of 12 he made his first public appearance with the Budapest Philharmonic Orchestra, followed by a tour in Italy. At the age of 15 he was invited to study at the Curtis Institute of Music in Philadelphia, USA with Felix Salmond. After three years he returned to Europe and made different concert tours, a.o. South Africa, Scandinavia and the Dutch Colonies. The conductor Wilhelm Furtwängler invited him in 1936 to be the principal cellist of the Berlin Philharmonic Orchestra, where he stayed for eleven years, until he became the principal cellist of the Concertgebouworchestra in 1947 where he stayed untill he retired in 1977. He also performed as a soloist and in various chamber music ensembles. He died on 18 december 1982 in Abcoude, Netherlands.

Tracks:

01. Robert Schumann / Concerto for cello and orchestra op. 129 - Nicht zu schnell [0:10:44.84]
02. Robert Schumann / Concerto for cello and orchestra op. 129 - Langsam - Sehr lebhaft [0:11:23.16]
03. Luigi Boccherini / Concerto for cello and orchestra - Allegro moderato [0:08:34.00]
04. Luigi Boccherini / Concerto for cello and orchestra - Andantino grazioso [0:05:59.50]
05. Luigi Boccherini / Concerto for cello and orchestra - Rondo (Allegro) [0:03:52.00]
06. Franz Joseph Haydn / Concerto for cello and orchestra op. 101 - Allegro moderato [0:15:40.49]
07. Franz Joseph Haydn / Concerto for cello and orchestra op. 101 - Adagio [0:06:03.50]
08. Franz Joseph Haydn / Concerto for cello and orchestra op. 101 - Rondo (Allegro) [0:05:51.49]

Performers:

Tibor de Machula – cello
Wiener Symphoniker – Bernhard Paumgartner, Rudolf Moralt (tr. 1,2)

Exact Audio Copy V1.0 beta 3 from 29. August 2011

EAC extraction logfile from 1. June 2016, 22:07

Various Artists / Schumann, Boccherini, Haydn Cello Concerts

Used drive : TSSTcorpCDDVDW SH-216AB Adapter: 0 ID: 0

Read mode : Secure
Utilize accurate stream : Yes
Defeat audio cache : Yes
Make use of C2 pointers : No

Read offset correction : 6
Overread into Lead-In and Lead-Out : No
Fill up missing offset samples with silence : Yes
Delete leading and trailing silent blocks : No
Null samples used in CRC calculations : Yes
Used interface : Native Win32 interface for Win NT & 2000
Gap handling : Appended to previous track

Used output format : User Defined Encoder
Selected bitrate : 768 kBit/s
Quality : High
Add ID3 tag : No
Command line compressor : C:\Program Files (x86)\FLAC Frontend\tools\flac.exe
Additional command line options : -8 -V -T "ARTIST=%artist%" -T "TITLE=%title%" -T "ALBUM=%albumtitle%" -T "DATE=%year%" -T "TRACKNUMBER=%tracknr%" -T "GENRE=%genre%" -T "PERFORMER=%albuminterpret%" -T "COMPOSER=%composer%" %haslyrics%–tag-from-file=LYRICS="%lyricsfile%"%haslyrics% -T "ALBUMARTIST=%albumartist%" -T "DISCNUMBER=%cdnumber%" -T "TOTALDISCS=%totalcds%" -T "TOTALTRACKS=%numtracks%" -T "COMMENT=%comment%" %source% -o %dest%


TOC of the extracted CD

Track | Start | Length | Start sector | End sector
––––––––––––––––––––––––––––-
1 | 0:00.32 | 10:44.63 | 32 | 48394
2 | 10:45.20 | 11:23.12 | 48395 | 99631
3 | 22:08.32 | 8:34.00 | 99632 | 138181
4 | 30:42.32 | 5:59.38 | 138182 | 165144
5 | 36:41.70 | 3:52.00 | 165145 | 182544
6 | 40:33.70 | 15:40.37 | 182545 | 253081
7 | 56:14.32 | 6:03.38 | 253082 | 280344
8 | 62:17.70 | 5:51.37 | 280345 | 306706


Track 1

Filename H:\Users\astarte\03. POST\Machula, Tibor de - Schumann, Boccherin, Haydn Cello Concertos\01 Concerto for cello and orchestra op. 129 - Nicht zu schnell.wav

Pre-gap length 0:00:02.42

Peak level 87.8 %
Extraction speed 2.3 X
Track quality 100.0 %
Copy CRC 1756D51D
Track not present in AccurateRip database
Copy OK

Track 2

Filename H:\Users\astarte\03. POST\Machula, Tibor de - Schumann, Boccherin, Haydn Cello Concertos\02 Concerto for cello and orchestra op. 129 - Langsam - Sehr lebhaft.wav

Peak level 91.6 %
Extraction speed 2.3 X
Track quality 100.0 %
Copy CRC 8C3F4BF1
Track not present in AccurateRip database
Copy OK

Track 3

Filename H:\Users\astarte\03. POST\Machula, Tibor de - Schumann, Boccherin, Haydn Cello Concertos\03 Concerto for cello and orchestra - Allegro moderato.wav

Pre-gap length 0:00:08.00

Peak level 78.6 %
Extraction speed 2.2 X
Track quality 100.0 %
Copy CRC 13165228
Track not present in AccurateRip database
Copy OK

Track 4

Filename H:\Users\astarte\03. POST\Machula, Tibor de - Schumann, Boccherin, Haydn Cello Concertos\04 Concerto for cello and orchestra - Andantino grazioso.wav

Pre-gap length 0:00:03.00

Peak level 83.4 %
Extraction speed 2.0 X
Track quality 99.9 %
Copy CRC CF0ED41E
Track not present in AccurateRip database
Copy OK

Track 5

Filename H:\Users\astarte\03. POST\Machula, Tibor de - Schumann, Boccherin, Haydn Cello Concertos\05 Concerto for cello and orchestra - Rondo (Allegro).wav

Pre-gap length 0:00:03.00

Peak level 89.1 %
Extraction speed 2.1 X
Track quality 100.0 %
Copy CRC 84276996
Track not present in AccurateRip database
Copy OK

Track 6

Filename H:\Users\astarte\03. POST\Machula, Tibor de - Schumann, Boccherin, Haydn Cello Concertos\06 Concerto for cello and orchestra op. 101 - Allegro moderato.wav

Pre-gap length 0:00:06.00

Peak level 95.5 %
Extraction speed 2.3 X
Track quality 100.0 %
Copy CRC F242B61F
Track not present in AccurateRip database
Copy OK

Track 7

Filename H:\Users\astarte\03. POST\Machula, Tibor de - Schumann, Boccherin, Haydn Cello Concertos\07 Concerto for cello and orchestra op. 101 - Adagio.wav

Pre-gap length 0:00:02.00

Peak level 70.2 %
Extraction speed 2.0 X
Track quality 99.9 %
Copy CRC E0462B89
Track not present in AccurateRip database
Copy OK

Track 8

Filename H:\Users\astarte\03. POST\Machula, Tibor de - Schumann, Boccherin, Haydn Cello Concertos\08 Concerto for cello and orchestra op. 101 - Rondo (Allegro).wav

Pre-gap length 0:00:04.00

Peak level 89.7 %
Extraction speed 2.1 X
Track quality 100.0 %
Copy CRC 265B91D4
Track not present in AccurateRip database
Copy OK


None of the tracks are present in the AccurateRip database

No errors occurred

End of status report

==== Log checksum 50110AEEB6895924CCB765B7D8ECC897BB694ECAB699EAEA181D11F94954CDB4 ====