Subcategories

Various Artists - Piano Daydreams - Argerich, Lang, Barenboim (2016) {Deutsche Grammophon Virtuoso Series 483 0395}

Posted By: ruskaval
Various Artists - Piano Daydreams - Argerich, Lang, Barenboim (2016) {Deutsche Grammophon Virtuoso Series 483 0395}

Various Artists - Piano Daydreams - Argerich, Lang, Barenboim (2016) {Deutsche Grammophon Virtuoso Series 483 0395}
EAC rip (secure mode) | FLAC (tracks)+CUE+LOG -> 234 Mb | MP3 @320 -> 180 Mb
Full Artwork @ 300 dpi (png) -> 37 Mb | 5% repair rar
© 2016 Deutsche Grammophon | 483 0395
Classical / Piano

August brings a new batch of (six) titles in the Virtuoso series. Building the range of recordings with big symphonies, key concertos, influential choral works and appealing chamber music. All of the titles in the series offer excellent recordings, famous artists, strong visuals, innovative booklet notes and best-selling composers. They tick every box to make serious classical music as easy and approachable as can be, with integrity and without compromise.

Deutsche Grammophon INFO

Personnel & tracklist:
01 - Jean-Marc Luisada - Satie - Gymnopedie No. 1 - Lent et douloureux
02 - Dino Ciani - Debussy - Preludes Book 1, L117 - La fille aux cheveux de lin
03 - Alexis Weissenberg - Debussy - Suite bergamasque, L75 - III. Clair de Lune
04 - Daniel Barendoim - Chopin - Nocturne in E flat major, op.9 no.2
05 - Daniel Barenboim - Chopin - Nocturne in F sharp major, op.15 no.2
06 - Lang Lang - Schumann - Kinderszenen, op.15 - Traumerei
07 - Helene Grimaud - Bach - The Well-Tempered Clavier Book 1 - Prelude in C major, BWV 846
08 - Daniel Barenboim - Beethoven - Piano Sonata in C sharp minor, op.27 no.2 - 'Moonlight'
09 - Daniel Barenboim - Mendelssohn - Lieder ohne Worte, op.30 no.6 - Allegretto in F sharp minor
10 - Daniel Barenboim - Mendelssohn - Lieder ohne Worte, op.19 no.1 - Andante con moto in E minor
11 - Mikhail Pletnev - Grieg - Lyric Pieces Book III, op.43 no.6 - 'To Spring'
12 - Andrei Gavrilov - Grieg - Lyric Pieces Book V, op.54 no.4 - Notturno
13 - Lazar Berman - Rachmaninov - Prelude in D major, op.23 no.4 - Andante
14 - Lilya Zilberstein - Rachmaninov - Prelude in D sharp minor, op.32 no.12 - Allegro
15 - Martha Argerich - Chopin - 24 Preludes, op28 - No. 4 in E minor
16 - Martha Argerich - Chopin - 24 Preludes, op28 - No. 7 in E minor
17 - Daniel Barenboim - Schubert - 4 Impromptus, D899 - No. 3 in G flat major - Andante
18 - Wilhelm Kempff - Brahms - Intermezzo, op.117 no.1 in E flat major
19 - Daniel Barenboim - Liszt - Consolation No. 3 S172, no.3 in D flat major - Lento, placido
20 - Yundi Li - Liszt - Liebestraum No. 3, S541, no.3 in A flat major

Exact Audio Copy V1.3 from 2. September 2016

EAC extraction logfile from 19. March 2017, 1:08

Traumerei, Lieberstrum, Clair de Lune / Piano Daydreams

Used drive : ASUS DRW-24B1ST i Adapter: 1 ID: 0

Read mode : Secure
Utilize accurate stream : Yes
Defeat audio cache : Yes
Make use of C2 pointers : No

Read offset correction : 6
Overread into Lead-In and Lead-Out : No
Fill up missing offset samples with silence : Yes
Delete leading and trailing silent blocks : No
Null samples used in CRC calculations : Yes
Used interface : Native Win32 interface for Win NT & 2000
Gap handling : Appended to previous track

Used output format : User Defined Encoder
Selected bitrate : 128 kBit/s
Quality : High
Add ID3 tag : No
Command line compressor : C:\Program Files (x86)\Exact Audio Copy\Flac\flac.exe
Additional command line options : -8 -V -T "ARTIST=%artist%" -T "TITLE=%title%" -T "ALBUM=%albumtitle%" -T "DATE=%year%" -T "TRACKNUMBER=%tracknr%" -T "TOTALTRACKS=%numtracks%" -T "GENRE=%genre%" -T "ALBUMARTIST=%albumartist%" -T "ALBUM ARTIST=%albumartist%" -T "COMMENT=EAC Secure Mode, Test & Copy, AccurateRip, FLAC -8" %source%


TOC of the extracted CD

Track | Start | Length | Start sector | End sector
––––––––––––––––––––––––––––-
1 | 0:00.00 | 3:57.05 | 0 | 17779
2 | 3:57.05 | 3:06.33 | 17780 | 31762
3 | 7:03.38 | 5:08.57 | 31763 | 54919
4 | 12:12.20 | 4:39.03 | 54920 | 75847
5 | 16:51.23 | 4:00.00 | 75848 | 93847
6 | 20:51.23 | 3:21.36 | 93848 | 108958
7 | 24:12.59 | 2:49.32 | 108959 | 121665
8 | 27:02.16 | 6:39.61 | 121666 | 151651
9 | 33:42.02 | 2:59.49 | 151652 | 165125
10 | 36:41.51 | 3:08.43 | 165126 | 179268
11 | 39:50.19 | 3:05.49 | 179269 | 193192
12 | 42:55.68 | 4:40.47 | 193193 | 214239
13 | 47:36.40 | 4:22.14 | 214240 | 233903
14 | 51:58.54 | 2:25.23 | 233904 | 244801
15 | 54:24.02 | 1:57.63 | 244802 | 253639
16 | 56:21.65 | 0:51.07 | 253640 | 257471
17 | 57:12.72 | 6:25.52 | 257472 | 286398
18 | 63:38.49 | 4:41.26 | 286399 | 307499
19 | 68:20.00 | 4:17.45 | 307500 | 326819
20 | 72:37.45 | 4:32.30 | 326820 | 347249


Track 1

Filename D:\_Post\Piano_Daydreams\01 - Jean-Marc Luisada - Satie - Gymnopedie No. 1 - Lent et douloureux.wav

Pre-gap length 0:00:02.00

Peak level 22.9 %
Extraction speed 4.8 X
Track quality 99.9 %
Test CRC A94694C1
Copy CRC A94694C1
Track not present in AccurateRip database
Copy OK

Track 2

Filename D:\_Post\Piano_Daydreams\02 - Dino Ciani - Debussy - Preludes Book 1, L117 - La fille aux cheveux de lin.wav

Pre-gap length 0:00:02.25

Peak level 41.0 %
Extraction speed 5.9 X
Track quality 100.0 %
Test CRC 6898C40B
Copy CRC 6898C40B
Track not present in AccurateRip database
Copy OK

Track 3

Filename D:\_Post\Piano_Daydreams\03 - Alexis Weissenberg - Debussy - Suite bergamasque, L75 - III. Clair de Lune.wav

Pre-gap length 0:00:02.12

Peak level 94.4 %
Extraction speed 5.9 X
Track quality 99.9 %
Test CRC 7145D718
Copy CRC 7145D718
Track not present in AccurateRip database
Copy OK

Track 4

Filename D:\_Post\Piano_Daydreams\04 - Daniel Barendoim - Chopin - Nocturne in E flat major, op.9 no.2.wav

Pre-gap length 0:00:01.74

Peak level 42.7 %
Extraction speed 7.3 X
Track quality 100.0 %
Test CRC B14AE91C
Copy CRC B14AE91C
Track not present in AccurateRip database
Copy OK

Track 5

Filename D:\_Post\Piano_Daydreams\05 - Daniel Barenboim - Chopin - Nocturne in F sharp major, op.15 no.2.wav

Pre-gap length 0:00:03.30

Peak level 42.8 %
Extraction speed 6.3 X
Track quality 99.9 %
Test CRC CB1EAD9F
Copy CRC CB1EAD9F
Track not present in AccurateRip database
Copy OK

Track 6

Filename D:\_Post\Piano_Daydreams\06 - Lang Lang - Schumann - Kinderszenen, op.15 - Traumerei.wav

Pre-gap length 0:00:03.17

Peak level 37.3 %
Extraction speed 6.3 X
Track quality 99.9 %
Test CRC 3BF39C74
Copy CRC 3BF39C74
Track not present in AccurateRip database
Copy OK

Track 7

Filename D:\_Post\Piano_Daydreams\07 - Helene Grimaud - Bach - The Well-Tempered Clavier Book 1 - Prelude in C major, BWV 846.wav

Pre-gap length 0:00:02.57

Peak level 43.3 %
Extraction speed 7.7 X
Track quality 100.0 %
Test CRC 9A47B05E
Copy CRC 9A47B05E
Track not present in AccurateRip database
Copy OK

Track 8

Filename D:\_Post\Piano_Daydreams\08 - Daniel Barenboim - Beethoven - Piano Sonata in C sharp minor, op.27 no.2 - 'Moonlight'.wav

Pre-gap length 0:00:02.05

Peak level 18.5 %
Extraction speed 8.9 X
Track quality 100.0 %
Test CRC AE43D1D4
Copy CRC AE43D1D4
Track not present in AccurateRip database
Copy OK

Track 9

Filename D:\_Post\Piano_Daydreams\09 - Daniel Barenboim - Mendelssohn - Lieder ohne Worte, op.30 no.6 - Allegretto in F sharp minor.wav

Pre-gap length 0:00:03.64

Peak level 26.6 %
Extraction speed 8.6 X
Track quality 100.0 %
Test CRC 1FDADFC8
Copy CRC 1FDADFC8
Track not present in AccurateRip database
Copy OK

Track 10

Filename D:\_Post\Piano_Daydreams\10 - Daniel Barenboim - Mendelssohn - Lieder ohne Worte, op.19 no.1 - Andante con moto in E minor.wav

Pre-gap length 0:00:02.70

Peak level 61.8 %
Extraction speed 7.1 X
Track quality 99.9 %
Test CRC D34CC400
Copy CRC D34CC400
Track not present in AccurateRip database
Copy OK

Track 11

Filename D:\_Post\Piano_Daydreams\11 - Mikhail Pletnev - Grieg - Lyric Pieces Book III, op.43 no.6 - 'To Spring'.wav

Pre-gap length 0:00:02.70

Peak level 48.4 %
Extraction speed 9.1 X
Track quality 100.0 %
Test CRC B658AB73
Copy CRC B658AB73
Track not present in AccurateRip database
Copy OK

Track 12

Filename D:\_Post\Piano_Daydreams\12 - Andrei Gavrilov - Grieg - Lyric Pieces Book V, op.54 no.4 - Notturno.wav

Pre-gap length 0:00:02.71

Peak level 93.8 %
Extraction speed 9.8 X
Track quality 100.0 %
Test CRC 6D8A599C
Copy CRC 6D8A599C
Track not present in AccurateRip database
Copy OK

Track 13

Filename D:\_Post\Piano_Daydreams\13 - Lazar Berman - Rachmaninov - Prelude in D major, op.23 no.4 - Andante.wav

Pre-gap length 0:00:03.08

Peak level 47.8 %
Extraction speed 10.0 X
Track quality 100.0 %
Test CRC 4C3707D7
Copy CRC 4C3707D7
Track not present in AccurateRip database
Copy OK

Track 14

Filename D:\_Post\Piano_Daydreams\14 - Lilya Zilberstein - Rachmaninov - Prelude in D sharp minor, op.32 no.12 - Allegro.wav

Pre-gap length 0:00:02.52

Peak level 43.3 %
Extraction speed 9.5 X
Track quality 100.0 %
Test CRC 76BD2CD5
Copy CRC 76BD2CD5
Track not present in AccurateRip database
Copy OK

Track 15

Filename D:\_Post\Piano_Daydreams\15 - Martha Argerich - Chopin - 24 Preludes, op28 - No. 4 in E minor.wav

Pre-gap length 0:00:03.26

Peak level 31.9 %
Extraction speed 6.5 X
Track quality 99.9 %
Test CRC 000C5B15
Copy CRC 000C5B15
Track not present in AccurateRip database
Copy OK

Track 16

Filename D:\_Post\Piano_Daydreams\16 - Martha Argerich - Chopin - 24 Preludes, op28 - No. 7 in E minor.wav

Pre-gap length 0:00:02.74

Peak level 17.2 %
Extraction speed 4.2 X
Track quality 99.7 %
Test CRC 8D5AA923
Copy CRC 8D5AA923
Track not present in AccurateRip database
Copy OK

Track 17

Filename D:\_Post\Piano_Daydreams\17 - Daniel Barenboim - Schubert - 4 Impromptus, D899 - No. 3 in G flat major - Andante.wav

Pre-gap length 0:00:03.35

Peak level 91.7 %
Extraction speed 11.0 X
Track quality 100.0 %
Test CRC 492CFD58
Copy CRC 492CFD58
Track not present in AccurateRip database
Copy OK

Track 18

Filename D:\_Post\Piano_Daydreams\18 - Wilhelm Kempff - Brahms - Intermezzo, op.117 no.1 in E flat major.wav

Pre-gap length 0:00:02.70

Peak level 55.4 %
Extraction speed 11.1 X
Track quality 100.0 %
Test CRC 25E7E4C3
Copy CRC 25E7E4C3
Track not present in AccurateRip database
Copy OK

Track 19

Filename D:\_Post\Piano_Daydreams\19 - Daniel Barenboim - Liszt - Consolation No. 3 S172, no.3 in D flat major - Lento, placido.wav

Pre-gap length 0:00:03.61

Peak level 26.4 %
Extraction speed 9.5 X
Track quality 99.9 %
Test CRC E6F21D80
Copy CRC E6F21D80
Track not present in AccurateRip database
Copy OK

Track 20

Filename D:\_Post\Piano_Daydreams\20 - Yundi Li - Liszt - Liebestraum No. 3, S541, no.3 in A flat major.wav

Pre-gap length 0:00:02.30

Peak level 36.5 %
Extraction speed 11.6 X
Track quality 100.0 %
Test CRC E045C82D
Copy CRC E045C82D
Track not present in AccurateRip database
Copy OK


None of the tracks are present in the AccurateRip database

No errors occurred

End of status report

–– CUETools DB Plugin V2.1.6

[CTDB TOCID: Za0kdpWh.zANnWtRuhHWvudUB94-] found
Submit result: Za0kdpWh.zANnWtRuhHWvudUB94- has been confirmed
Track | CTDB Status
1 | (1/1) Accurately ripped
2 | (1/1) Accurately ripped
3 | (1/1) Accurately ripped
4 | (1/1) Accurately ripped
5 | (1/1) Accurately ripped
6 | (1/1) Accurately ripped
7 | (1/1) Accurately ripped
8 | (1/1) Accurately ripped
9 | (1/1) Accurately ripped
10 | (1/1) Accurately ripped
11 | (1/1) Accurately ripped
12 | (1/1) Accurately ripped
13 | (1/1) Accurately ripped
14 | (1/1) Accurately ripped
15 | (1/1) Accurately ripped
16 | (1/1) Accurately ripped
17 | (1/1) Accurately ripped
18 | (1/1) Accurately ripped
19 | (1/1) Accurately ripped
20 | (1/1) Accurately ripped


==== Log checksum 8DEE097D6736DFBEA940F99B82E5E183C91B8409265FFCD28AC7A67D626F6DC3 ====


Various Artists - Piano Daydreams - Argerich, Lang, Barenboim (2016) {Deutsche Grammophon Virtuoso Series 483 0395}

Various Artists - Piano Daydreams - Argerich, Lang, Barenboim (2016) {Deutsche Grammophon Virtuoso Series 483 0395}



===