Subcategories

Placebo - Without You I'm Nothing (1998)

Posted By: a_l_chemist
Placebo - Without You I'm Nothing (1998)

Placebo - Without You I'm Nothing (1998)
EAC Rip | FLAC, IMG+CUE, LOG | 65:54 min | Covers | 379 MB
Alternative Rock | Label: Virgin Records | Catalog #: 7243 846531 2 5

Without You I'm Nothing is the second album by the alternative band Placebo, released in 1998. The song "Pure Morning" was the first Placebo single to have moderate success in the United States.
The album was produced by Steve Osborne. The recording sessions didn't seem to have been easy, not the least because Placebo chose Phil Vinall to replace Steve Osborne as producer at the last minute for what would be the album's first single, "Pure Morning". Later on, Placebo's frontman, Brian Molko stated that, despite appreciating Osborne's producing skills, the chemistry between band and producer "didnt spark the way we wanted it to spark", also adding that the album was "overproduced" and contained "too many slow songs for a second album". This said, he didn't disown the album all the same, adding that it is still an album the band is proud of.
–from wikipedia

Release info

Personnel:
Brian Molko_…lead vocals, guitar, keyboards, harmonica, saxophone
Stefan Olsdal..bass guitar, guitar, keyboards, synthesizers, piano, backing vocals
Steve Hewitt_.drums, percussion

Allmusic review

Tracklist:
01. Pure Morning 04:15
02. Brick Shithouse 03:18
03. You Don't Care About Us 03:58
04. Ask for Answers 05:20
05. Without You I'm Nothing 04:09
06. Allergic (To Thoughts of Mother Earth) 03:49
07. The Crawl 02:59
08. Every You Every Me 03:34
09. My Sweet Prince 05:45
10. Summer's Gone 03:06
11. Scared of Girls 03:01
12. Burger Queen (contains the hidden track 'Evil Dildo') 22:40

Exact Audio Copy V0.99 prebeta 5 from 4. May 2009

EAC extraction logfile from 7. March 2011, 22:06

Placebo / Without You I'm Nothing

Used drive : HL-DT-STDVD-RAM GSA-H55N Adapter: 0 ID: 0

Read mode : Secure
Utilize accurate stream : Yes
Defeat audio cache : Yes
Make use of C2 pointers : No

Read offset correction : 102
Overread into Lead-In and Lead-Out : No
Fill up missing offset samples with silence : Yes
Delete leading and trailing silent blocks : No
Null samples used in CRC calculations : Yes
Used interface : Installed external ASPI interface

Used output format : Internal WAV Routines
Sample format : 44.100 Hz; 16 Bit; Stereo


TOC of the extracted CD

Track | Start | Length | Start sector | End sector
––––––––––––––––––––––––––––-
1 | 0:00.00 | 4:14.57 | 0 | 19106
2 | 4:14.57 | 3:18.13 | 19107 | 33969
3 | 7:32.70 | 3:58.30 | 33970 | 51849
4 | 11:31.25 | 5:19.50 | 51850 | 75824
5 | 16:51.00 | 4:08.67 | 75825 | 94491
6 | 20:59.67 | 3:49.13 | 94492 | 111679
7 | 24:49.05 | 2:59.22 | 111680 | 125126
8 | 27:48.27 | 3:33.60 | 125127 | 141161
9 | 31:22.12 | 5:45.20 | 141162 | 167056
10 | 37:07.32 | 3:05.40 | 167057 | 180971
11 | 40:12.72 | 3:01.03 | 180972 | 194549
12 | 43:14.00 | 22:39.37 | 194550 | 296511


Range status and errors

Selected range

Filename E:\Music\Placebo '(1998) Without You I'm Nothing'\Placebo - Without You I'm Nothing.wav

Peak level 97.9 %
Range quality 100.0 %
Test CRC A442D0AC
Copy CRC A442D0AC
Copy OK

No errors occurred

End of status report

Tau Analyzer conclusion
Placebo - Without You I'm Nothing (1998)

Download:

Fileserve
Part 1 | Part 2

Filesonic
Part 1 | Part 2

Interchangeable parts

Other Placebo albums

My blog on AvaxHome

.: No Mirrors Please :.