Tags
Language
Tags
December 2022
Su Mo Tu We Th Fr Sa
27 28 29 30 1 2 3
4 5 6 7 8 9 10
11 12 13 14 15 16 17
18 19 20 21 22 23 24
25 26 27 28 29 30 31

Porcupine Tree - Staircase Infinities

Posted By: rocknrollsteve
Porcupine Tree - Staircase Infinities

Porcupine Tree - Staircase Infinities (1994)
Exact Audio Copy FLAC (158MB) | CUE and LOG Included | CD Rip | RS.com | Progressive

This is a limited edition EP of tracks recorded during the "Up The Downstair" sessions.

Ripped to FLAC with Exact Audio Copy


Exact Audio Copy V0.99 prebeta 4 from 23. January 2008

EAC extraction logfile from 18. March 2009, 9:46

Porcupine Tree / Staircase Infinities

Used drive : MATSHITABD-MLT UJ-210S Adapter: 2 ID: 0

Read mode : Secure
Utilize accurate stream : Yes
Defeat audio cache : Yes
Make use of C2 pointers : No

Read offset correction : 102
Overread into Lead-In and Lead-Out : No
Fill up missing offset samples with silence : Yes
Delete leading and trailing silent blocks : No
Null samples used in CRC calculations : No
Used interface : Installed external ASPI interface

Used output format : User Defined Encoder
Selected bitrate : 768 kBit/s
Quality : High
Add ID3 tag : No
Command line compressor : C:\Program Files\Exact Audio Copy\FLAC\FLAC.EXE
Additional command line options : -6 -V -T "ARTIST=%a" -T "TITLE=%t" -T "ALBUM=%g" -T "DATE=%y" -T "TRACKNUMBER=%n" -T "GENRE=%m" -T "COMMENT=%e" %s -o %d


TOC of the extracted CD

Track | Start | Length | Start sector | End sector
––––––––––––––––––––––––––––-
1 | 0:00.00 | 4:40.37 | 0 | 21036
2 | 4:40.37 | 4:06.13 | 21037 | 39499
3 | 8:46.50 | 4:47.67 | 39500 | 61091
4 | 13:34.42 | 6:44.20 | 61092 | 91411
5 | 20:18.62 | 9:30.15 | 91412 | 134176


Range status and errors

Selected range

Filename C:\EAC\Porcupine Tree (1994) - Staircase Infinities\Porcupine Tree - Staircase Infinities.wav

Peak level 99.9 %
Range quality 100.0 %
Test CRC 5E0BD4E6
Copy CRC 5E0BD4E6
Copy OK

No errors occurred


AccurateRip summary

Track 1 cannot be verified as accurate (confidence 4) [7FF0AA17], AccurateRip returned [C8D5716A]
Track 2 cannot be verified as accurate (confidence 4) [CF94FB18], AccurateRip returned [5E37CAF9]
Track 3 cannot be verified as accurate (confidence 4) [4A329966], AccurateRip returned [6E0C653B]
Track 4 cannot be verified as accurate (confidence 4) [8F7C9C7A], AccurateRip returned [AD197CF6]
Track 5 cannot be verified as accurate (confidence 4) [03F13F44], AccurateRip returned [4F2FE11B]

No tracks could be verified as accurate
You may have a different pressing from the one(s) in the database

End of status report


01 Cloud Zero
02 The Joke's On You
03 Navigator
04 Rainy Taxi
05 Yellow Hedgerow Dreamscape