Subcategories

Henry Purcell - Complete Chamber Music - Musica Amphion/Pieter-Jan Belder [4/7]

Posted By: zamorna
Henry Purcell - Complete Chamber Music - Musica Amphion/Pieter-Jan Belder [4/7]

Henry Purcell - Complete Chamber Music - Musica Amphion/Pieter-Jan Belder [4/7]
CD 4: Fantasias for strings

Classical, Baroque | 1 CD | EAC | FLAC, CUE, LOG | Scans | 270 MB
Recorded: June 2007, Doopsgezinde Kerk, Deventer, NL
Released: 2008 | Label: Brilliant 93647/4 | TT: 51:18 | RS


Musica Amphion (Rémy Baudet - violin, Johannes Boer,
Nanneke Schaap, Ricardo Rodriguez - viola da gamba,
Elisabeth Ingenhousz - violin (8, 10, 11, 13-16)
Nicholas Milne - viola da gamba (15, 16)
Frank Wakelkamp viola da gamba (16)


Tracklist:

CD 4: Fantasias for strings

01. Fantasia I a 3 (Z 732)
02. Fantasia II a 3 (Z 733)
03. Fantasia III a 3 (Z 734)
04. Fantasia IV a (4 June 10 1680) (Z 735)
05. Fantasia V a 4 (June 11 1680) (Z 736)
06. Fantasia VI a 4 (June 14 1680) (Z 737)
07. Fantasia VII a 4 (June 19 1680) (Z 738)
08. Fantasia VIII a 4 (June 22 1680) (Z 739)
09. Fantasia IX a 4 (June 23 1680) (Z 740)
10. Fantasia X a 4 (June 30 1680) (Z 741)
11. Fantasia XI a 4 (August 18 1680) (Z 742)
12. Fantasia XII a 4 (August 31 1680) (Z 743)
13. Fantasia XIII a 4 (incomplete) (Z 744)
14. Fantasia upon one note a 5 (Z 745)
15. In Nomine of six parts (Z 746)
16. In Nomine of seven parts (Z 747)


Exact Audio Copy V0.99 prebeta 5 from 4. May 2009

EAC extraction logfile from 25. December 2009, 21:10

Purcell, Henry / Complete Chamber Music - Fantasias for strings - CD4

Used drive : HL-DT-STDVDRAM GSA-T50N Adapter: 0 ID: 1

Read mode : Secure
Utilize accurate stream : Yes
Defeat audio cache : Yes
Make use of C2 pointers : No

Read offset correction : 667
Overread into Lead-In and Lead-Out : No
Fill up missing offset samples with silence : Yes
Delete leading and trailing silent blocks : No
Null samples used in CRC calculations : Yes
Used interface : Native Win32 interface for Win NT & 2000

Used output format : User Defined Encoder
Selected bitrate : 1024 kBit/s
Quality : High
Add ID3 tag : No
Command line compressor : C:\Program Files\Exact Audio Copy\FLAC\FLAC.EXE
Additional command line options : -6 -V -T "ARTIST=%a" -T "TITLE=%t" -T "ALBUM=%g" -T "DATE=%y" -T "TRACKNUMBER=%n" -T "GENRE=%m" -T "COMMENT=%e" %s -o %d


TOC of the extracted CD

Track | Start | Length | Start sector | End sector
––––––––––––––––––––––––––––-
1 | 0:00.00 | 2:55.58 | 0 | 13182
2 | 2:55.58 | 3:16.49 | 13183 | 27931
3 | 6:12.32 | 2:23.06 | 27932 | 38662
4 | 8:35.38 | 3:35.45 | 38663 | 54832
5 | 12:11.08 | 4:10.16 | 54833 | 73598
6 | 16:21.24 | 3:32.34 | 73599 | 89532
7 | 19:53.58 | 4:03.50 | 89533 | 107807
8 | 23:57.33 | 3:41.26 | 107808 | 124408
9 | 27:38.59 | 4:01.26 | 124409 | 142509
10 | 31:40.10 | 3:34.55 | 142510 | 158614
11 | 35:14.65 | 3:20.37 | 158615 | 173651
12 | 38:35.27 | 3:07.31 | 173652 | 187707
13 | 41:42.58 | 1:06.12 | 187708 | 192669
14 | 42:48.70 | 2:55.29 | 192670 | 205823
15 | 45:44.24 | 2:02.34 | 205824 | 215007
16 | 47:46.58 | 3:29.44 | 215008 | 230726


Range status and errors

Selected range

Filename C:\Purcell, Henry - Complete Chamber Music - Fantasias for strings - CD4.wav

Peak level 100.0 %
Range quality 100.0 %
Test CRC A5F8FA74
Copy CRC A5F8FA74
Copy OK

No errors occurred


AccurateRip summary

Track 1 accurately ripped (confidence 6) [D446889E]
Track 2 accurately ripped (confidence 6) [FD6BADD9]
Track 3 accurately ripped (confidence 6) [58145D7C]
Track 4 accurately ripped (confidence 6) [6D9F005D]
Track 5 accurately ripped (confidence 6) [B4BD116E]
Track 6 accurately ripped (confidence 6) [62F2DF4A]
Track 7 accurately ripped (confidence 6) [5B14F88C]
Track 8 accurately ripped (confidence 6) [251F7D3F]
Track 9 accurately ripped (confidence 6) [4853E68C]
Track 10 accurately ripped (confidence 6) [D469AD3F]
Track 11 accurately ripped (confidence 6) [A4D64764]
Track 12 accurately ripped (confidence 6) [40CFBE4D]
Track 13 accurately ripped (confidence 6) [DD16850D]
Track 14 accurately ripped (confidence 6) [CAEBBB00]
Track 15 accurately ripped (confidence 6) [C7B95360]
Track 16 accurately ripped (confidence 6) [7AC46CCA]

All tracks accurately ripped

End of status report



Rapidshare Links