Subcategories

Quattro Mani - Re-Structures (2017) {Bridge Records BRIDGE 9496}

Posted By: ruskaval
Quattro Mani - Re-Structures (2017) {Bridge Records BRIDGE 9496}

Quattro Mani - Re-Structures (2017) {Bridge Records BRIDGE 9496}
EAC rip (secure mode) | FLAC (tracks)+CUE+LOG -> 221 Mb | MP3 @320 -> 124 Mb
Full Artwork @ 300 dpi (jpg) -> 11 Mb | 5% repair rar
© 2017 Bridge Records | BRIDGE 9496
Classical / Contemporary Classical / Modern Classical / Piano

Quattro Mani's latest disc has the intrepid duo playing a far-ranging selection of new compositions. The Hungarian Kurtág's microtonal pianos, The Danish Ruders's virtuosic harpsichord & piano writing, and Tod Machover's Boulez tribute give the disc an international flavor that even includes Tango by way of Israeli composer Ofer Ben-Amots.

bridgerecords.com INFO

Works on This Recording

Quattro Mani - Re-Structures (2017) {Bridge Records BRIDGE 9496}

Quattro Mani - Re-Structures (2017) {Bridge Records BRIDGE 9496}


Exact Audio Copy V1.3 from 2. September 2016

EAC extraction logfile from 17. November 2019, 11:19

Quattro Mani / Re-Structures

Used drive : HL-DT-STDVDRAM GP65NB60 Adapter: 1 ID: 1

Read mode : Secure
Utilize accurate stream : Yes
Defeat audio cache : Yes
Make use of C2 pointers : No

Read offset correction : 6
Overread into Lead-In and Lead-Out : No
Fill up missing offset samples with silence : Yes
Delete leading and trailing silent blocks : No
Null samples used in CRC calculations : Yes
Used interface : Native Win32 interface for Win NT & 2000
Gap handling : Appended to previous track

Used output format : User Defined Encoder
Selected bitrate : 1024 kBit/s
Quality : High
Add ID3 tag : No
Command line compressor : C:\Program Files (x86)\Exact Audio Copy\Flac\flac.exe
Additional command line options : -8 -V -T "ARTIST=%artist%" -T "TITLE=%title%" -T "ALBUM=%albumtitle%" -T "DATE=%year%" -T "TRACKNUMBER=%tracknr%" -T "GENRE=%genre%" -T "PERFORMER=%albuminterpret%" -T "COMPOSER=%composer%" %haslyrics%–tag-from-file=LYRICS="%lyricsfile%"%haslyrics% -T "ALBUMARTIST=%albumartist%" -T "DISCNUMBER=%cdnumber%" -T "TOTALDISCS=%totalcds%" -T "TOTALTRACKS=%numtracks%" -T "COMMENT=%comment%" %source% -o %dest%


TOC of the extracted CD

Track | Start | Length | Start sector | End sector
––––––––––––––––––––––––––––-
1 | 0:00.00 | 2:45.72 | 0 | 12446
2 | 2:45.72 | 0:56.64 | 12447 | 16710
3 | 3:42.61 | 3:44.18 | 16711 | 33528
4 | 7:27.04 | 2:24.39 | 33529 | 44367
5 | 9:51.43 | 0:52.60 | 44368 | 48327
6 | 10:44.28 | 3:48.23 | 48328 | 65450
7 | 14:32.51 | 3:08.40 | 65451 | 79590
8 | 17:41.16 | 2:18.30 | 79591 | 89970
9 | 19:59.46 | 2:41.62 | 89971 | 102107
10 | 22:41.33 | 11:56.55 | 102108 | 155862
11 | 34:38.13 | 6:23.30 | 155863 | 184617
12 | 41:01.43 | 7:43.35 | 184618 | 219377


Track 1

Filename C:\Users\Setup\Music\EAC Rips\Quattro Mani - Re-Structures (2017) [CD FLAC] {Bridge 9496}\01 - Out of the Blue.wav

Pre-gap length 0:00:02.00

Peak level 82.7 %
Extraction speed 2.6 X
Track quality 100.0 %
Test CRC 607DBF96
Copy CRC 607DBF96
Track not present in AccurateRip database
Copy OK

Track 2

Filename C:\Users\Setup\Music\EAC Rips\Quattro Mani - Re-Structures (2017) [CD FLAC] {Bridge 9496}\02 - Cembal d'Amore (Second Book)- I. Prologue.wav

Peak level 86.7 %
Extraction speed 2.0 X
Track quality 100.0 %
Test CRC 76EE87F9
Copy CRC 76EE87F9
Track not present in AccurateRip database
Copy OK

Track 3

Filename C:\Users\Setup\Music\EAC Rips\Quattro Mani - Re-Structures (2017) [CD FLAC] {Bridge 9496}\03 - Cembal d'Amore (Second Book)- II. Allemande.wav

Peak level 62.5 %
Extraction speed 3.0 X
Track quality 100.0 %
Test CRC 8763725A
Copy CRC 8763725A
Track not present in AccurateRip database
Copy OK

Track 4

Filename C:\Users\Setup\Music\EAC Rips\Quattro Mani - Re-Structures (2017) [CD FLAC] {Bridge 9496}\04 - Cembal d'Amore (Second Book)- III. Corrente I.wav

Peak level 73.0 %
Extraction speed 2.9 X
Track quality 100.0 %
Test CRC 829EACC4
Copy CRC 829EACC4
Track not present in AccurateRip database
Copy OK

Track 5

Filename C:\Users\Setup\Music\EAC Rips\Quattro Mani - Re-Structures (2017) [CD FLAC] {Bridge 9496}\05 - Cembal d'Amore (Second Book)- IV. Corrent II.wav

Peak level 35.7 %
Extraction speed 1.4 X
Track quality 99.7 %
Test CRC 6F3D0C72
Copy CRC 6F3D0C72
Track not present in AccurateRip database
Copy OK

Track 6

Filename C:\Users\Setup\Music\EAC Rips\Quattro Mani - Re-Structures (2017) [CD FLAC] {Bridge 9496}\06 - Cembal d'Amore (Second Book)- V. Air.wav

Peak level 21.5 %
Extraction speed 3.4 X
Track quality 100.0 %
Test CRC 5A790C1B
Copy CRC 5A790C1B
Track not present in AccurateRip database
Copy OK

Track 7

Filename C:\Users\Setup\Music\EAC Rips\Quattro Mani - Re-Structures (2017) [CD FLAC] {Bridge 9496}\07 - Cembal d'Amore (Second Book)- VI. Menuet.wav

Peak level 41.7 %
Extraction speed 2.9 X
Track quality 99.9 %
Test CRC A1C7ED26
Copy CRC A1C7ED26
Track not present in AccurateRip database
Copy OK

Track 8

Filename C:\Users\Setup\Music\EAC Rips\Quattro Mani - Re-Structures (2017) [CD FLAC] {Bridge 9496}\08 - Cembal d'Amore (Second Book)- VII. Gigue.wav

Peak level 88.0 %
Extraction speed 3.4 X
Track quality 100.0 %
Test CRC 5C9C32EE
Copy CRC 5C9C32EE
Track not present in AccurateRip database
Copy OK

Track 9

Filename C:\Users\Setup\Music\EAC Rips\Quattro Mani - Re-Structures (2017) [CD FLAC] {Bridge 9496}\09 - Cembal d'Amore (Second Book)- VIII. Epilogue.wav

Peak level 82.8 %
Extraction speed 3.6 X
Track quality 100.0 %
Test CRC 2DD5ADD5
Copy CRC 2DD5ADD5
Track not present in AccurateRip database
Copy OK

Track 10

Filename C:\Users\Setup\Music\EAC Rips\Quattro Mani - Re-Structures (2017) [CD FLAC] {Bridge 9496}\10 - Re-Structures.wav

Peak level 87.2 %
Extraction speed 4.7 X
Track quality 100.0 %
Test CRC 9D0FD25F
Copy CRC 9D0FD25F
Track not present in AccurateRip database
Copy OK

Track 11

Filename C:\Users\Setup\Music\EAC Rips\Quattro Mani - Re-Structures (2017) [CD FLAC] {Bridge 9496}\11 - Életút Lebenslauf.wav

Peak level 80.0 %
Extraction speed 4.9 X
Track quality 100.0 %
Test CRC 9CFED5BF
Copy CRC 9CFED5BF
Track not present in AccurateRip database
Copy OK

Track 12

Filename C:\Users\Setup\Music\EAC Rips\Quattro Mani - Re-Structures (2017) [CD FLAC] {Bridge 9496}\12 - Tango for the Road.wav

Peak level 89.1 %
Extraction speed 4.8 X
Track quality 99.9 %
Test CRC 89D16502
Copy CRC 89D16502
Track not present in AccurateRip database
Copy OK


None of the tracks are present in the AccurateRip database

No errors occurred

End of status report

–– CUETools DB Plugin V2.1.6

[CTDB TOCID: Ws.JW7OsdPwRncSHdyk5EiUU7Sg-] found
Submit result: Ws.JW7OsdPwRncSHdyk5EiUU7Sg- has been confirmed
Track | CTDB Status
1 | (1/1) Accurately ripped
2 | (1/1) Accurately ripped
3 | (1/1) Accurately ripped
4 | (1/1) Accurately ripped
5 | (1/1) Accurately ripped
6 | (1/1) Accurately ripped
7 | (1/1) Accurately ripped
8 | (1/1) Accurately ripped
9 | (1/1) Accurately ripped
10 | (1/1) Accurately ripped
11 | (1/1) Accurately ripped
12 | (1/1) Accurately ripped


==== Log checksum 016ACFA56AE2925068AC543D158CCED11012B67AAE956EB9601DAB23E0252E22 ====


Quattro Mani - Re-Structures (2017) {Bridge Records BRIDGE 9496}



===