Subcategories

Ralph Kirkpatrick - Scarlatti: Sonatas for Harpsichord (2004) (REPOST)

Posted By: shamanicus
Ralph Kirkpatrick - Scarlatti: Sonatas for Harpsichord (2004) (REPOST)

Ralph Kirkpatrick - Scarlatti: Sonatas for Harpsichord (2004)
XLD Rip | FLAC (tracks+.cue, log) | Covers | 360 mb | MP3 CBR 320kbps | RAR | 139 mb
Classical | Label: Archiv Produktion - 00289 477 5003

Since the very dawn of the compact disc era, Ralph Kirkpatrick's seminal recordings of Domenico Scarlatti have mainly been conspicuous only by their absence from the active catalog. It's hard be sure just why, as all along listeners and reviewers alike have been requesting their return. Kirkpatrick's Bach has been reissued here and there, along with some oddities, including a live, all twentieth century recital Kirkpatrick performed in 1961, released on Music and Arts. But of the Scarlatti, nothing - how could the man who put the "K." in Scarlatti go neglected; were not his performances once considered the acme in Scarlatti played on the harpsichord?

Thankfully now the wait is over, as Deutsche Grammophon's Archiv Produktion is finally making its Kirkpatrick holdings available as part of the "Blue" series in an album entitled Domenico Scarlatti: 21 Sonatas for Harpsichord. This includes the entire contents of the classic 1971 stereo album issued as Archiv 2553 072 and three 1966 recordings made for the little-known Deutsche Grammophon recital disc Ralph Kirkpatrick, Cembalo (DG 139 122). As by now an entire generation of music lovers have been raised without the benefit of Kirkpatrick's Scarlatti to listen to, one might wonder - how well does it hold up? How does it sound, now that listeners have heard Scarlatti players such as Pierre Hantaï, Scott Ross, Eiji Hashimoto, or Mayako Sone?
Excellently well, thank you - from the first it is apparent that Kirkpatrick's approach to Scarlatti was even more flexible in tempo and approach than recalled. And yet at the same time, Kirkpatrick's interpretations still retain their authoritative and definitive qualities - while certain things have changed about Scarlatti interpretation since Kirkpatrick made these recordings 35 years ago, not so much has refashioned that these recordings sound "old fashioned." If any thing, Kirkpatrick is a little faster and zippier than his later counterparts, which more than makes up in excitement for what it may seem to lack in emotional depth. Kirkpatrick is capable of getting an extraordinary amount of dynamic range out of a harpsichord; just listen to how explosive the fortissimo chords come across in K. 249, just to cite one example.
Newer fans of Domenico Scarlatti's music are enthusiastically advised to set aside the means to acquire Domenico Scarlatti: 21 Sonatas for Harpsichord. Older ones, who may still retain a much-used copy of the Archiv LP, may welcome the opportunity to retire the vinyl at last. However, do hang onto the jacket with its wealth of information and insert – outside of a fine appreciation of Kirkpatrick's playing written by Jed Distler, the book in this "Blue" series disc is skimpy indeed.
Uncle Dave Lewis


Tracklist:

01. Sonata in G minor, K. 347
02. Sonata in G major, K. 348
03. Sonata in D minor, K. 213
04. Sonata in D major, K. 214
05. Sonata in F sharp major, K. 318
06. Sonata in F sharp major, K. 319
07. Sonata in E major, K. 380
08. Sonata in E major, K. 381
09. Sonata in C major, K. 356
10. Sonata in C major, K. 357
11. Sonata in C minor, K. 526
12. Sonata in C major, K. 527
13. Sonata in D major, K. 478
14. Sonata in D major, K. 479
15. Sonata in F major, K. 524
16. Sonata in F major, K. 525
17. Sonata in G major, K. 454
18. Sonata in G major, K. 455
19. Sonata in B flat major, K. 248
20. Sonata in B flat major, K. 249
21. Sonata in D major, K. 436

Ralph Kirkpatrick - Scarlatti: Sonatas for Harpsichord (2004) (REPOST)


X Lossless Decoder version 20141129 (148.1)

XLD extraction logfile from 2017-10-27 18:37:50 +0200

Ralph Kirkpatrick / Scarlatti - Sonatas for Harpsichord

Used drive : HL-DT-ST DVDRW GA11NR (revision KR06)
Media type : Pressed CD

Ripper mode : XLD Secure Ripper
Disable audio cache : OK for the drive with a cache less than 1375KiB
Make use of C2 pointers : NO
Read offset correction : 667
Max retry count : 20
Gap status : Analyzed, Appended

TOC of the extracted CD
Track | Start | Length | Start sector | End sector
––––––––––––––––––––––––––––-
1 | 00:00:00 | 02:14:38 | 0 | 10087
2 | 02:14:38 | 02:28:37 | 10088 | 21224
3 | 04:43:00 | 03:43:38 | 21225 | 37987
4 | 08:26:38 | 02:15:36 | 37988 | 48148
5 | 10:41:74 | 01:53:43 | 48149 | 56666
6 | 12:35:42 | 01:53:33 | 56667 | 65174
7 | 14:29:00 | 02:55:10 | 65175 | 78309
8 | 17:24:10 | 03:19:63 | 78310 | 93297
9 | 20:43:73 | 03:51:25 | 93298 | 110647
10 | 24:35:23 | 02:37:51 | 110648 | 122473
11 | 27:12:74 | 02:34:66 | 122474 | 134089
12 | 29:47:65 | 03:55:09 | 134090 | 151723
13 | 33:42:74 | 03:44:00 | 151724 | 168523
14 | 37:26:74 | 02:29:00 | 168524 | 179698
15 | 39:55:74 | 02:35:01 | 179699 | 191324
16 | 42:31:00 | 02:54:74 | 191325 | 204448
17 | 45:25:74 | 02:38:19 | 204449 | 216317
18 | 48:04:18 | 03:34:57 | 216318 | 232424
19 | 51:39:00 | 02:58:00 | 232425 | 245774
20 | 54:37:00 | 04:19:00 | 245775 | 265199
21 | 58:56:00 | 01:31:01 | 265200 | 272025

List of alternate offset correction values
# | Absolute | Relative | Confidence
–––––––––––––––––––––
1 | 103 | -564 | 36

AccurateRip Summary (DiscID: 002c55e9-02b0db11-3d0e2b15)
Track 01 : OK (v1+v2, confidence 34/34, with different offset)
Track 02 : OK (v1+v2, confidence 34/34, with different offset)
Track 03 : OK (v1+v2, confidence 34/34, with different offset)
Track 04 : OK (v1+v2, confidence 34/34, with different offset)
Track 05 : OK (v1+v2, confidence 34/34, with different offset)
Track 06 : OK (v1+v2, confidence 34/34, with different offset)
Track 07 : OK (v1+v2, confidence 34/34, with different offset)
Track 08 : OK (v1+v2, confidence 34/34, with different offset)
Track 09 : OK (v1+v2, confidence 34/34, with different offset)
Track 10 : OK (v1+v2, confidence 34/34, with different offset)
Track 11 : OK (v1+v2, confidence 34/34, with different offset)
Track 12 : OK (v1+v2, confidence 34/34, with different offset)
Track 13 : OK (v1+v2, confidence 34/34, with different offset)
Track 14 : OK (v1+v2, confidence 34/34, with different offset)
Track 15 : OK (v1+v2, confidence 34/34, with different offset)
Track 16 : OK (v1+v2, confidence 34/34, with different offset)
Track 17 : OK (v1+v2, confidence 35/35, with different offset)
Track 18 : OK (v1+v2, confidence 36/36, with different offset)
Track 19 : OK (v1+v2, confidence 35/35, with different offset)
Track 20 : OK (v1+v2, confidence 36/36, with different offset)
Track 21 : OK (v1+v2, confidence 36/36, with different offset)
->All tracks accurately ripped.

All Tracks
Album gain : 3.62 dB
Peak : 0.513641
Statistics
Read error : 0
Jitter error (maybe fixed) : 0
Retry sector count : 0
Damaged sector count : 0

Track 01
Filename : /Users/dehors/Music/Domenico Scarlatti - Sonatas for Harpsichord {Ralph Kirkpatrick} (2004) [FLAC]/01 - Sonata in G minor, K. 347.flac
Pre-gap length : 00:02:00

Track gain : 5.30 dB
Peak : 0.333435
CRC32 hash (test run) : 8DAB6762
CRC32 hash : 8DAB6762
CRC32 hash (skip zero) : 3A96960D
AccurateRip v1 signature : 876A6A32 (DEEEE558 w/correction)
AccurateRip v2 signature : 39CFD7AD (89E2203E w/correction)
->Accurately ripped with different offset (v1+v2, confidence 2+32/34, offset -564)
Statistics
Read error : 0
Jitter error (maybe fixed) : 0
Retry sector count : 0
Damaged sector count : 0

Track 02
Filename : /Users/dehors/Music/Domenico Scarlatti - Sonatas for Harpsichord {Ralph Kirkpatrick} (2004) [FLAC]/02 - Sonata in G major, K. 348.flac

Track gain : 3.13 dB
Peak : 0.412811
CRC32 hash (test run) : 464BDE93
CRC32 hash : 464BDE93
CRC32 hash (skip zero) : 5A4AFDDE
AccurateRip v1 signature : 213C080E (18C8796E w/correction)
AccurateRip v2 signature : 9A36D269 (71183821 w/correction)
->Accurately ripped with different offset (v1+v2, confidence 2+32/34, offset -564)
Statistics
Read error : 0
Jitter error (maybe fixed) : 0
Retry sector count : 0
Damaged sector count : 0

Track 03
Filename : /Users/dehors/Music/Domenico Scarlatti - Sonatas for Harpsichord {Ralph Kirkpatrick} (2004) [FLAC]/03 - Sonata in D minor, K. 213.flac
Pre-gap length : 00:05:00

Track gain : 8.41 dB
Peak : 0.234131
CRC32 hash (test run) : 9B6D1563
CRC32 hash : 9B6D1563
CRC32 hash (skip zero) : 2DF2AC78
AccurateRip v1 signature : 0A15C3D4 (34F006B9 w/correction)
AccurateRip v2 signature : AB20BE26 (0E2952DB w/correction)
->Accurately ripped with different offset (v1+v2, confidence 2+32/34, offset -564)
Statistics
Read error : 0
Jitter error (maybe fixed) : 0
Retry sector count : 0
Damaged sector count : 0

Track 04
Filename : /Users/dehors/Music/Domenico Scarlatti - Sonatas for Harpsichord {Ralph Kirkpatrick} (2004) [FLAC]/04 - Sonata in D major, K. 214.flac

Track gain : 1.95 dB
Peak : 0.488861
CRC32 hash (test run) : CB10E548
CRC32 hash : CB10E548
CRC32 hash (skip zero) : D6FED445
AccurateRip v1 signature : EACD7C06 (050C9974 w/correction)
AccurateRip v2 signature : 3102EB5A (6A4A84A5 w/correction)
->Accurately ripped with different offset (v1+v2, confidence 2+32/34, offset -564)
Statistics
Read error : 0
Jitter error (maybe fixed) : 0
Retry sector count : 0
Damaged sector count : 0

Track 05
Filename : /Users/dehors/Music/Domenico Scarlatti - Sonatas for Harpsichord {Ralph Kirkpatrick} (2004) [FLAC]/05 - Sonata in F sharp major, K. 318.flac
Pre-gap length : 00:03:73

Track gain : 6.53 dB
Peak : 0.288361
CRC32 hash (test run) : E84DE267
CRC32 hash : E84DE267
CRC32 hash (skip zero) : 788B54E6
AccurateRip v1 signature : 7D41E328 (AB2CEEDD w/correction)
AccurateRip v2 signature : 3475FEDA (8C7F6E15 w/correction)
->Accurately ripped with different offset (v1+v2, confidence 2+32/34, offset -564)
Statistics
Read error : 0
Jitter error (maybe fixed) : 0
Retry sector count : 0
Damaged sector count : 0

Track 06
Filename : /Users/dehors/Music/Domenico Scarlatti - Sonatas for Harpsichord {Ralph Kirkpatrick} (2004) [FLAC]/06 - Sonata in F sharp major, K. 319.flac

Track gain : 3.05 dB
Peak : 0.408112
CRC32 hash (test run) : D1257B6D
CRC32 hash : D1257B6D
CRC32 hash (skip zero) : 7208A493
AccurateRip v1 signature : E6CB90D0 (B6D84778 w/correction)
AccurateRip v2 signature : C5A3121B (B8FAE7C2 w/correction)
->Accurately ripped with different offset (v1+v2, confidence 2+32/34, offset -564)
Statistics
Read error : 0
Jitter error (maybe fixed) : 0
Retry sector count : 0
Damaged sector count : 0

Track 07
Filename : /Users/dehors/Music/Domenico Scarlatti - Sonatas for Harpsichord {Ralph Kirkpatrick} (2004) [FLAC]/07 - Sonata in E major, K. 380.flac
Pre-gap length : 00:05:74

Track gain : 4.39 dB
Peak : 0.383026
CRC32 hash (test run) : B6FF3488
CRC32 hash : B6FF3488
CRC32 hash (skip zero) : 6168C334
AccurateRip v1 signature : F23CB4B6 (E691F60A w/correction)
AccurateRip v2 signature : 22B4F7ED (E8BC5B8D w/correction)
->Accurately ripped with different offset (v1+v2, confidence 2+32/34, offset -564)
Statistics
Read error : 0
Jitter error (maybe fixed) : 0
Retry sector count : 0
Damaged sector count : 0

Track 08
Filename : /Users/dehors/Music/Domenico Scarlatti - Sonatas for Harpsichord {Ralph Kirkpatrick} (2004) [FLAC]/08 - Sonata in E major, K. 381.flac

Track gain : 2.54 dB
Peak : 0.436768
CRC32 hash (test run) : C68D809E
CRC32 hash : C68D809E
CRC32 hash (skip zero) : A57BADA2
AccurateRip v1 signature : B65FF0DB (BA43C37C w/correction)
AccurateRip v2 signature : 79E23EDB (D63B0DB4 w/correction)
->Accurately ripped with different offset (v1+v2, confidence 2+32/34, offset -564)
Statistics
Read error : 0
Jitter error (maybe fixed) : 0
Retry sector count : 0
Damaged sector count : 0

Track 09
Filename : /Users/dehors/Music/Domenico Scarlatti - Sonatas for Harpsichord {Ralph Kirkpatrick} (2004) [FLAC]/09 - Sonata in C major, K. 356.flac
Pre-gap length : 00:04:73

Track gain : 4.78 dB
Peak : 0.400787
CRC32 hash (test run) : A2EBFBCF
CRC32 hash : A2EBFBCF
CRC32 hash (skip zero) : C7065708
AccurateRip v1 signature : F09CE47E (B10568AA w/correction)
AccurateRip v2 signature : C8B2B23D (FC41D182 w/correction)
->Accurately ripped with different offset (v1+v2, confidence 2+32/34, offset -564)
Statistics
Read error : 0
Jitter error (maybe fixed) : 0
Retry sector count : 0
Damaged sector count : 0

Track 10
Filename : /Users/dehors/Music/Domenico Scarlatti - Sonatas for Harpsichord {Ralph Kirkpatrick} (2004) [FLAC]/10 - Sonata in C major, K. 357.flac

Track gain : 2.27 dB
Peak : 0.467285
CRC32 hash (test run) : BD87C3CC
CRC32 hash : BD87C3CC
CRC32 hash (skip zero) : B97390C9
AccurateRip v1 signature : DD56A565 (7775EE72 w/correction)
AccurateRip v2 signature : ADF912D3 (6531E42B w/correction)
->Accurately ripped with different offset (v1+v2, confidence 2+32/34, offset -564)
Statistics
Read error : 0
Jitter error (maybe fixed) : 0
Retry sector count : 0
Damaged sector count : 0

Track 11
Filename : /Users/dehors/Music/Domenico Scarlatti - Sonatas for Harpsichord {Ralph Kirkpatrick} (2004) [FLAC]/11 - Sonata in C minor, K. 526.flac
Pre-gap length : 00:04:00

Track gain : 5.67 dB
Peak : 0.313477
CRC32 hash (test run) : B5CDCA14
CRC32 hash : B5CDCA14
CRC32 hash (skip zero) : CD426A22
AccurateRip v1 signature : 435F0FB4 (468E7803 w/correction)
AccurateRip v2 signature : 7A13DB6D (86A59C85 w/correction)
->Accurately ripped with different offset (v1+v2, confidence 2+32/34, offset -564)
Statistics
Read error : 0
Jitter error (maybe fixed) : 0
Retry sector count : 0
Damaged sector count : 0

Track 12
Filename : /Users/dehors/Music/Domenico Scarlatti - Sonatas for Harpsichord {Ralph Kirkpatrick} (2004) [FLAC]/12 - Sonata in C major, K. 527.flac

Track gain : 7.61 dB
Peak : 0.245453
CRC32 hash (test run) : 6AE03094
CRC32 hash : 6AE03094
CRC32 hash (skip zero) : BA0B69AD
AccurateRip v1 signature : 1635FBDD (73E58CB8 w/correction)
AccurateRip v2 signature : DB2AAC34 (A95BAA29 w/correction)
->Accurately ripped with different offset (v1+v2, confidence 2+32/34, offset -564)
Statistics
Read error : 0
Jitter error (maybe fixed) : 0
Retry sector count : 0
Damaged sector count : 0

Track 13
Filename : /Users/dehors/Music/Domenico Scarlatti - Sonatas for Harpsichord {Ralph Kirkpatrick} (2004) [FLAC]/13 - Sonata in D major, K. 478.flac
Pre-gap length : 00:04:73

Track gain : 7.51 dB
Peak : 0.249908
CRC32 hash (test run) : 82F6A1EA
CRC32 hash : 82F6A1EA
CRC32 hash (skip zero) : 028DC9CE
AccurateRip v1 signature : 7A55F6BD (BCB10A5F w/correction)
AccurateRip v2 signature : 1A5FB4DC (64E42495 w/correction)
->Accurately ripped with different offset (v1+v2, confidence 2+32/34, offset -564)
Statistics
Read error : 0
Jitter error (maybe fixed) : 0
Retry sector count : 0
Damaged sector count : 0

Track 14
Filename : /Users/dehors/Music/Domenico Scarlatti - Sonatas for Harpsichord {Ralph Kirkpatrick} (2004) [FLAC]/14 - Sonata in D major, K. 479.flac

Track gain : 5.30 dB
Peak : 0.333313
CRC32 hash (test run) : B46C44AC
CRC32 hash : B46C44AC
CRC32 hash (skip zero) : 9170953F
AccurateRip v1 signature : 490B40B7 (8187C22C w/correction)
AccurateRip v2 signature : 69B8611E (8532B3B8 w/correction)
->Accurately ripped with different offset (v1+v2, confidence 2+32/34, offset -564)
Statistics
Read error : 0
Jitter error (maybe fixed) : 0
Retry sector count : 0
Damaged sector count : 0

Track 15
Filename : /Users/dehors/Music/Domenico Scarlatti - Sonatas for Harpsichord {Ralph Kirkpatrick} (2004) [FLAC]/15 - Sonata in F major, K. 524.flac
Pre-gap length : 00:04:74

Track gain : 8.12 dB
Peak : 0.225311
CRC32 hash (test run) : F03CFFED
CRC32 hash : F03CFFED
CRC32 hash (skip zero) : A42424B5
AccurateRip v1 signature : C0C2382D (66DAAF8B w/correction)
AccurateRip v2 signature : 435D470A (C8AE8739 w/correction)
->Accurately ripped with different offset (v1+v2, confidence 2+32/34, offset -564)
Statistics
Read error : 0
Jitter error (maybe fixed) : 0
Retry sector count : 0
Damaged sector count : 0

Track 16
Filename : /Users/dehors/Music/Domenico Scarlatti - Sonatas for Harpsichord {Ralph Kirkpatrick} (2004) [FLAC]/16 - Sonata in F major, K. 525.flac

Track gain : 4.71 dB
Peak : 0.424683
CRC32 hash (test run) : F0B93DA7
CRC32 hash : F0B93DA7
CRC32 hash (skip zero) : ED1B322D
AccurateRip v1 signature : 57F93183 (DE7A7046 w/correction)
AccurateRip v2 signature : 16394FE0 (A02CB249 w/correction)
->Accurately ripped with different offset (v1+v2, confidence 2+32/34, offset -564)
Statistics
Read error : 0
Jitter error (maybe fixed) : 0
Retry sector count : 0
Damaged sector count : 0

Track 17
Filename : /Users/dehors/Music/Domenico Scarlatti - Sonatas for Harpsichord {Ralph Kirkpatrick} (2004) [FLAC]/17 - Sonata in G major, K. 454.flac
Pre-gap length : 00:04:74

Track gain : 5.05 dB
Peak : 0.336365
CRC32 hash (test run) : 4712034B
CRC32 hash : 4712034B
CRC32 hash (skip zero) : E03EED23
AccurateRip v1 signature : 346B7830 (5F29207F w/correction)
AccurateRip v2 signature : 4E911E2D (17F693D2 w/correction)
->Accurately ripped with different offset (v1+v2, confidence 2+33/35, offset -564)
Statistics
Read error : 0
Jitter error (maybe fixed) : 0
Retry sector count : 0
Damaged sector count : 0

Track 18
Filename : /Users/dehors/Music/Domenico Scarlatti - Sonatas for Harpsichord {Ralph Kirkpatrick} (2004) [FLAC]/18 - Sonata in G major, K. 455.flac

Track gain : 5.22 dB
Peak : 0.333771
CRC32 hash (test run) : 8A64C41B
CRC32 hash : 8A64C41B
CRC32 hash (skip zero) : 77119FBF
AccurateRip v1 signature : 63117406 (46C6F590 w/correction)
AccurateRip v2 signature : DEE9CB6E (5C3A83E1 w/correction)
->Accurately ripped with different offset (v1+v2, confidence 2+34/36, offset -564)
Statistics
Read error : 0
Jitter error (maybe fixed) : 0
Retry sector count : 0
Damaged sector count : 0

Track 19
Filename : /Users/dehors/Music/Domenico Scarlatti - Sonatas for Harpsichord {Ralph Kirkpatrick} (2004) [FLAC]/19 - Sonata in B flat major, K. 248.flac
Pre-gap length : 00:09:00

Track gain : 6.41 dB
Peak : 0.295349
CRC32 hash (test run) : 3C3AEF16
CRC32 hash : 3C3AEF16
CRC32 hash (skip zero) : B737D90F
AccurateRip v1 signature : 462F00DF (52B8B804 w/correction)
AccurateRip v2 signature : 97001AA3 (03382D23 w/correction)
->Accurately ripped with different offset (v1+v2, confidence 2+33/35, offset -564)
Statistics
Read error : 0
Jitter error (maybe fixed) : 0
Retry sector count : 0
Damaged sector count : 0

Track 20
Filename : /Users/dehors/Music/Domenico Scarlatti - Sonatas for Harpsichord {Ralph Kirkpatrick} (2004) [FLAC]/20 - Sonata in B flat major, K. 249.flac

Track gain : 2.28 dB
Peak : 0.513641
CRC32 hash (test run) : 2A103527
CRC32 hash : 2A103527
CRC32 hash (skip zero) : E8E8CC86
AccurateRip v1 signature : 780438A1 (FFD3BA84 w/correction)
AccurateRip v2 signature : C9B65E5C (ACCD5C95 w/correction)
->Accurately ripped with different offset (v1+v2, confidence 2+34/36, offset -564)
Statistics
Read error : 0
Jitter error (maybe fixed) : 0
Retry sector count : 0
Damaged sector count : 0

Track 21
Filename : /Users/dehors/Music/Domenico Scarlatti - Sonatas for Harpsichord {Ralph Kirkpatrick} (2004) [FLAC]/21 - Sonata in D major, K. 436.flac

Track gain : 2.43 dB
Peak : 0.443573
CRC32 hash (test run) : 3D4FFFF7
CRC32 hash : 3D4FFFF7
CRC32 hash (skip zero) : FD4CDB84
AccurateRip v1 signature : 687B0A17 (FB8FA858 w/correction)
AccurateRip v2 signature : FC30DE06 (98F3BB19 w/correction)
->Accurately ripped with different offset (v1+v2, confidence 2+34/36, offset -564)
Statistics
Read error : 0
Jitter error (maybe fixed) : 0
Retry sector count : 0
Damaged sector count : 0

No errors occurred

End of status report

––-BEGIN XLD SIGNATURE––-
grwXO34_v.xh.6vbrTEM9wbwI7FZ501Za8bm2Hq7Y_zIiaNT0ar2EvT3vZm91OGiqs0TpjPr2fh4KslHRGI8IJs8oULlqNOjEstlPG8
––-END XLD SIGNATURE––-


Thanks to the Original customer.