Subcategories

ARK - ARK (1999)

Posted By: rd
ARK - ARK (1999)

ARK - ARK (1999)
MP3 320 CBR | 120 Mb | APE + CUE | 361 Mb | 50:45
Genre: Progressive Metal

Дебют.

Release Date: .09.2009
Label: Pirate Label


Official Website
Wikipedia
Encyclopaedia Metallum

Band:

Jorn Lande - Lead vocals
Tore Ostby - Lead guitars
John Macaluso - Drums

Tracklist:

1. Burning down
2. Where the winds blow
3. The hunch back of Notre Dame
4. Singers at the worlds dawn
5. Mother love
6. Center avenue
7. Cant let go

MP3

Part 1
Part 2

APE

Part 1
Part 2
Part 3
Part 4

В каждом архиве инфа для восстановления!
Обложки в комплекте.


Exact Audio Copy V0.99 prebeta 5 from 4. May 2009

Отчёт EAC об извлечении, выполненном 9. декабря 2009, 22:16

ARK / ARK

Дисковод: PLEXTOR DVDR PX-860A Adapter: 0 ID: 0

Режим чтения : Достоверность
Использование точного потока : Да
Отключение кэша аудио : Да
Использование указателей C2 : Нет

Коррекция смещения при чтении : 96
Способность читать области Lead-in и Lead-out : Нет
Заполнение пропущенных сэмплов тишиной : Да
Удаление блоков с тишиной в начале и конце : Нет
При вычислениях CRC использовались нулевые сэмплы : Да
Интерфейс : Установленный внешний ASPI-интерфейс

Выходной формат : Monkey's Audio (без потерь)
Выбранный битрейт : Normal Lossless Compression
Качество : Высокий
Добавление ID3-тэга : Да
Утилита сжатия : C:\Program Files\Monkey's Audio\MAC.exe


TOC извлечённого CD

Трек | Старт | Длительность | Начальный сектор | Конечный сектор
––––––––––––––––––––––––––––––––––-
1 | 0:00.00 | 5:26.42 | 0 | 24491
2 | 5:26.42 | 5:06.30 | 24492 | 47471
3 | 10:32.72 | 8:53.68 | 47472 | 87514
4 | 19:26.65 | 6:56.55 | 87515 | 118769
5 | 26:23.45 | 8:43.27 | 118770 | 158021
6 | 35:06.72 | 5:54.23 | 158022 | 184594
7 | 41:01.20 | 9:44.25 | 184595 | 228419


Характеристики диапазона извлечения и сообщения об ошибках

Выбранный диапазон

Имя файла J:\MUSIC\ARK - ARK.wav

Пиковый уровень 99.9 %
Качество диапазона 99.9 %
CRC копии 59FA8053
Копирование… OK

Ошибок не произошло


AccurateRip: сводка

Трек 1 точность не определена (достоверность 5) [2C3503B6], AccurateRip вернул [72AC0EFC]
Трек 2 точность не определена (достоверность 5) [6121C226], AccurateRip вернул [3DCC0EEA]
Трек 3 точность не определена (достоверность 5) [DCA0FFA2], AccurateRip вернул [2C525C0D]
Трек 4 точность не определена (достоверность 5) [6500C553], AccurateRip вернул [FBD37178]
Трек 5 точность не определена (достоверность 5) [2A741168], AccurateRip вернул [8BFE9162]
Трек 6 точность не определена (достоверность 5) [44D9872E], AccurateRip вернул [B8C5780B]
Трек 7 точность не определена (достоверность 5) [3DD84D6A], AccurateRip вернул [6F8B4246]

Ни один трек не прошёл проверки на точность
В вашей базе может быть иной вариант штамповки диска

Конец отчёта


Прошу обратить внимание на то, что весь материал, представленный выше, предназначен исключительно для ознакомления! Приобретайте, пожалуйста, легальные диски, которые вне всякого сомнения станут достойным украшением вашей коллекции!