Subcategories

ARK - Burn The Sun (2001)

Posted By: rd
ARK - Burn The Sun (2001)

ARK - Burn The Sun (2001)
MP3 320 CBR | 140 Mb | APE + CUE | 442 Mb | 59:32
Genre: Progressive Metal

Второй и последний.

Release Date: 23.03.2001
Label: Pirate Label


Official Website
Wikipedia
Encyclopaedia Metallum

Band:

Jorn Lande - Lead vocals
Tore Ostby - Lead guitars
John Macaluso - Drums
Randy Coven - Bass
Mats Olausson - Keyboard

Tracklist:

1. Heal the waters
2. Torn
3. Burn the sun
4. Ressurection
5. Absolute zero
6. Just a little
7. Waking hour
8. Noose
9. Feed the fire
10. Bleed
11. Missing you
12. Silent is the rain (Japanese bonus track)

MP3

Part 1
Part 2

APE

Part 1
Part 2
Part 3
Part 4
Part 5



В каждом архиве инфа для восстановления!
Обложки в комплекте.


Exact Audio Copy V0.99 prebeta 5 from 4. May 2009

Отчёт EAC об извлечении, выполненном 9. декабря 2009, 7:29

Ark / Burn The Sun [japan]

Дисковод: PLEXTOR DVDR PX-860A Adapter: 0 ID: 0

Режим чтения : Достоверность
Использование точного потока : Да
Отключение кэша аудио : Да
Использование указателей C2 : Нет

Коррекция смещения при чтении : 96
Способность читать области Lead-in и Lead-out : Нет
Заполнение пропущенных сэмплов тишиной : Да
Удаление блоков с тишиной в начале и конце : Нет
При вычислениях CRC использовались нулевые сэмплы : Да
Интерфейс : Установленный внешний ASPI-интерфейс

Выходной формат : Monkey's Audio (без потерь)
Выбранный битрейт : Normal Lossless Compression
Качество : Высокий
Добавление ID3-тэга : Да
Утилита сжатия : C:\Program Files\Monkey's Audio\MAC.exe


TOC извлечённого CD

Трек | Старт | Длительность | Начальный сектор | Конечный сектор
––––––––––––––––––––––––––––––––––-
1 | 0:00.00 | 6:38.70 | 0 | 29919
2 | 6:38.70 | 3:51.29 | 29920 | 47273
3 | 10:30.24 | 4:35.46 | 47274 | 67944
4 | 15:05.70 | 5:32.12 | 67945 | 92856
5 | 20:38.07 | 5:06.19 | 92857 | 115825
6 | 25:44.26 | 4:37.63 | 115826 | 136663
7 | 30:22.14 | 4:15.41 | 136664 | 155829
8 | 34:37.55 | 5:03.74 | 155830 | 178628
9 | 39:41.54 | 3:57.04 | 178629 | 196407
10 | 43:38.58 | 4:03.44 | 196408 | 214676
11 | 47:42.27 | 9:04.31 | 214677 | 255507
12 | 56:46.58 | 2:46.16 | 255508 | 267973


Характеристики диапазона извлечения и сообщения об ошибках

Выбранный диапазон

Имя файла J:\MUSIC\Ark - Burn The Sun [japan].wav

Пиковый уровень 99.8 %
Качество диапазона 99.9 %
CRC копии 145FDEF0
Копирование… OK

Ошибок не произошло


AccurateRip: сводка

Трек 1 точность не определена (достоверность 2) [E74682FB], AccurateRip вернул [197ACBBB]
Трек 2 точность не определена (достоверность 2) [3CFB8596], AccurateRip вернул [3E214C26]
Трек 3 точность не определена (достоверность 2) [7E7B5DA8], AccurateRip вернул [BACF2D68]
Трек 4 точность не определена (достоверность 2) [D8BFB1B6], AccurateRip вернул [02932546]
Трек 5 точность не определена (достоверность 2) [59504060], AccurateRip вернул [B2729A00]
Трек 6 точность не определена (достоверность 2) [65596E02], AccurateRip вернул [04695F72]
Трек 7 точность не определена (достоверность 2) [800DD886], AccurateRip вернул [08142E06]
Трек 8 точность не определена (достоверность 2) [539C6DEE], AccurateRip вернул [4E10B415]
Трек 9 точность не определена (достоверность 2) [CC6A2348], AccurateRip вернул [01FB7C5D]
Трек 10 точность не определена (достоверность 2) [07A682C9], AccurateRip вернул [98452EB9]
Трек 11 точность не определена (достоверность 2) [8EBAB0DD], AccurateRip вернул [08418E8D]
Трек 12 точность не определена (достоверность 2) [13DBBB4B], AccurateRip вернул [1D578A71]

Ни один трек не прошёл проверки на точность
В вашей базе может быть иной вариант штамповки диска

Конец отчёта


Прошу обратить внимание на то, что весь материал, представленный выше, предназначен исключительно для ознакомления! Приобретайте, пожалуйста, легальные диски, которые вне всякого сомнения станут достойным украшением вашей коллекции!