Subcategories

Stream Of Passion - Darker Days (2011)

Posted By: rd
Stream Of Passion - Darker Days (2011)

Stream Of Passion - Darker Days (2011)
EAC Rip | FLAC + CUE + LOG | 429 Mb | MP3 320 CBR | 174 Mb | Covers | 54:12
Genre: Progressive Metal

Красивый и разнообразный симфо-готик-метал, жёсткие гитары и нежные клавишные, а во главе всего - эмоциональный вокал.


Label: Mazzar / Napalm

Tracklist:

01. Lost
02. Reborn
03. Collide
04. The Scarlet Mark
05. Spark
06. Our Cause
07. Darker Days
08. Broken
09. This Moment
10. Closer
11. The Mirror
12. Nadie Lo Ve
13. The World Is Ours

Инфа для восстановления и сканы в комплекте. Части взаимозаменяемы.
Information for recovery & covers included. All parts are interchangeable


Exact Audio Copy V0.99 prebeta 5 from 4. May 2009

EAC extraction logfile from 5. August 2011, 20:20

Stream Of Passion / Darker Days

Used drive : PLEXTOR DVDR PX-860A Adapter: 0 ID: 0

Read mode : Secure
Utilize accurate stream : Yes
Defeat audio cache : Yes
Make use of C2 pointers : No

Read offset correction : 96
Overread into Lead-In and Lead-Out : No
Fill up missing offset samples with silence : Yes
Delete leading and trailing silent blocks : No
Null samples used in CRC calculations : Yes
Used interface : Installed external ASPI interface

Used output format : User Defined Encoder
Selected bitrate : 320 kBit/s
Quality : High
Add ID3 tag : Yes
Command line compressor : C:\Program Files\Exact Audio Copy\FLAC.EXE
Additional command line options : -6 -V %s


TOC of the extracted CD

Track | Start | Length | Start sector | End sector
––––––––––––––––––––––––––––-
1 | 0:00.00 | 5:29.07 | 0 | 24681
2 | 5:29.07 | 3:39.16 | 24682 | 41122
3 | 9:08.23 | 5:22.50 | 41123 | 65322
4 | 14:30.73 | 3:43.35 | 65323 | 82082
5 | 18:14.33 | 2:38.25 | 82083 | 93957
6 | 20:52.58 | 4:45.45 | 93958 | 115377
7 | 25:38.28 | 4:34.22 | 115378 | 135949
8 | 30:12.50 | 4:49.07 | 135950 | 157631
9 | 35:01.57 | 3:57.24 | 157632 | 175430
10 | 38:59.06 | 4:39.12 | 175431 | 196367
11 | 43:38.18 | 3:36.28 | 196368 | 212595
12 | 47:14.46 | 3:06.60 | 212596 | 226605
13 | 50:21.31 | 3:51.34 | 226606 | 243964


Range status and errors

Selected range

Filename J:\MUSIC\Stream Of Passion - Darker Days.wav

Peak level 98.8 %
Range quality 100.0 %
Test CRC FDCD0148
Copy CRC FDCD0148
Copy OK

No errors occurred


AccurateRip summary

Track 1 not present in database
Track 2 not present in database
Track 3 not present in database
Track 4 not present in database
Track 5 not present in database
Track 6 not present in database
Track 7 not present in database
Track 8 not present in database
Track 9 not present in database
Track 10 not present in database
Track 11 not present in database
Track 12 not present in database
Track 13 not present in database

None of the tracks are present in the AccurateRip database

End of status report


Прошу обратить внимание на то, что весь материал, представленный выше, предназначен исключительно для ознакомления! Приобретайте, пожалуйста, легальные диски, которые вне всякого сомнения станут достойным украшением вашей коллекции!
MP3

FSonic

или / or

Fpost

или / or

FServe

FLAC

FSonic 1 FSonic 2

или / or

Fpost 1 Fpost 2

или / or

FServe 1 FServe 2