Subcategories
Tags
Language
Tags

Ronn McFarlane - The Renaissance Lute (1994) {Dorian Recordings DOR-90186}

Posted By: ruskaval
Ronn McFarlane - The Renaissance Lute (1994) {Dorian Recordings DOR-90186}

Ronn McFarlane - The Renaissance Lute (1994) {Dorian Recordings DOR-90186}
XLD rip (secure mode) | FLAC (tracks)+CUE+LOG -> 316 Mb | MP3 @320 -> 188 Mb
Full Artwork @ 300 dpi (jpg) -> 23 Mb | 5% repair rar
© 1994 Dorian Recordings | DOR-90186
Classical / Renaissance / Lute

When first conceiving this recording, I imagined myself as a first time listener to the lute. I have tried to bring together a collection of pieces that capture some of the variety and range of styles of the Renaissance lute. The lute was the favorite solo instrument of the Renaissance, valued for its portability and its expressiveness. The lute's shadings of dynamics and tone color were literally at the tip of one's fingers I hope that these varying colors and textures of sound will help communicate the spirit and character of these pieces more clearly, as well as keeping the ear refreshed. For any variety of sounds will be meaningless unless tied to the emotional or structural content of the music
Ronn McFarlane - The Renaissance Lute (1994) {Dorian Recordings DOR-90186}


Musicians

Ronn McFarlane - lute

Track Listing

1 Branle - Pierre Attaingnant 0:54
2 Branle Gay 'C'est Mon Amy' - Pierre Attaingnant 0:49
3 Haulberroys - Pierre Attaingnant 1:27
4 Haulberroys - Pierre Attaingnant 0:41
5 Branle de Poictou - Pierre Attaingnant 1:20
6 Petite fantasie dessus laccord du Leut - Adrian Le Roy 1:01
7 Passemeze - Adrian Le Roy 3:36
8 Pavana Bray - William Byrd 4:52
9 Galliard - William Byrd 1:32
10 Forlorn Hope Fancy - John Dowland 3:33
11 Greensleeves - Anon (Ballet Lute Book c. 1590) 1:34
12 Greensleeves - Anon (Thysius Lute Book c. 1600) 0:48
13 Greensleeves - Francis Cutting 1:14
14 John Come Kiss Me Now - Anon (Cozens Lute Book c. 1600) 4:16
15 Madonna katerina - Hans Judenkönig 0:53
16 Christ ist erstanden - Christ is risen - Hans Judenkönig 0:58
17 Und wer er nit erstanden-And who is not risen - Hans Judenkönig 0:26
18 Der hoff dantz - Hans Judenkönig 1:04
19 Der hoff dantz (Nach tantz) - Hans Judenkönig 0:43
20 Preambel - Hans Newsidler 1:38
21 Elslein liebstes Elslein mein- Dearest Elslein my Elslein - Hans Newsidler 1:06
22 Ich klag den tag- I lament the day - Hans Newsidler 1:09
23 Ein welsher tantz Wascha mesa - Hans Newsidler 0:55
24 Der hupff auff - Hans Newsidler 1:42
25 Fantasia - Luis Milan 2:56
26 Conde Claros - Luis de Narváez 2:43
27 Mille Regretz - Luis de Narváez 3:14
28 Passacaglia - Alessandro Piccinini 4:40
29 Branles de village - Robert Ballard 3:50
30 Fantasia - Valentin Bakfark 3:51
31 Pavane alla ferrarese - Joanambrosio Dalza 1:59
32 Salterello - Joanambrosio Dalza 1:20
33 Piva - Joanambrosio Dalza 2:16
34 Ricercar #51 - Francesco da Milano 3:05
35 Ricercar #16 - Francesco da Milano 1:02
36 Fantasia #33 - Francesco da Milano 3:00
37 Ricercar #34 - Francesco da Milano 3:09
38 O Bone Jesu - Francesco da Milano 3:12

X Lossless Decoder version 20170729 (150.3)

XLD extraction logfile from 2018-11-30 12:29:00 -0500

Ronn McFarlane / The Renaissance Lute

Used drive : HL-DT-ST DVDRAM SP80NB60 (revision PC00)
Media type : Pressed CD

Ripper mode : XLD Secure Ripper
Disable audio cache : OK for the drive with a cache less than 1375KiB
Make use of C2 pointers : NO
Read offset correction : 6
Max retry count : 20
Gap status : Analyzed, Appended (except HTOA)

TOC of the extracted CD
Track | Start | Length | Start sector | End sector
––––––––––––––––––––––––––––-
1 | 00:00:62 | 00:53:60 | 62 | 4096
2 | 00:54:47 | 00:49:28 | 4097 | 7799
3 | 01:44:00 | 01:27:10 | 7800 | 14334
4 | 03:11:10 | 00:41:25 | 14335 | 17434
5 | 03:52:35 | 01:20:15 | 17435 | 23449
6 | 05:12:50 | 01:01:25 | 23450 | 28049
7 | 06:14:00 | 03:35:52 | 28050 | 44226
8 | 09:49:52 | 04:51:45 | 44227 | 66096
9 | 14:41:22 | 01:32:20 | 66097 | 73016
10 | 16:13:42 | 03:33:15 | 73017 | 89006
11 | 19:46:57 | 01:33:53 | 89007 | 96034
12 | 21:20:35 | 00:48:07 | 96035 | 99641
13 | 22:08:42 | 01:13:45 | 99642 | 105161
14 | 23:22:12 | 04:16:23 | 105162 | 124384
15 | 27:38:35 | 00:52:70 | 124385 | 128354
16 | 28:31:30 | 00:58:25 | 128355 | 132729
17 | 29:29:55 | 00:25:55 | 132730 | 134659
18 | 29:55:35 | 01:04:37 | 134660 | 139496
19 | 30:59:72 | 00:43:28 | 139497 | 142749
20 | 31:43:25 | 01:37:72 | 142750 | 150096
21 | 33:21:22 | 01:05:70 | 150097 | 155041
22 | 34:27:17 | 01:09:03 | 155042 | 160219
23 | 35:36:20 | 00:54:55 | 160220 | 164324
24 | 36:31:00 | 01:42:15 | 164325 | 171989
25 | 38:13:15 | 02:55:42 | 171990 | 185156
26 | 41:08:57 | 02:43:18 | 185157 | 197399
27 | 43:52:00 | 03:14:05 | 197400 | 211954
28 | 47:06:05 | 04:39:50 | 211955 | 232929
29 | 51:45:55 | 03:49:57 | 232930 | 250161
30 | 55:35:37 | 03:51:15 | 250162 | 267501
31 | 59:26:52 | 01:59:28 | 267502 | 276454
32 | 61:26:05 | 01:20:00 | 276455 | 282454
33 | 62:46:05 | 02:16:00 | 282455 | 292654
34 | 65:02:05 | 03:04:45 | 292655 | 306499
35 | 68:06:50 | 01:02:10 | 306500 | 311159
36 | 69:08:60 | 03:00:25 | 311160 | 324684
37 | 72:09:10 | 03:08:62 | 324685 | 338846
38 | 75:17:72 | 03:12:15 | 338847 | 353261

List of alternate offset correction values
# | Absolute | Relative | Confidence
–––––––––––––––––––––
1 | -895 | -901 | 10

AccurateRip Summary (DiscID: 005d2228-09f4b7f2-2d126626)
Track 01 : OK (v1+v2, confidence 17/27)
Track 02 : OK (v1+v2, confidence 17/27)
Track 03 : OK (v1+v2, confidence 17/27)
Track 04 : OK (v1+v2, confidence 17/27)
Track 05 : OK (v1+v2, confidence 17/27)
Track 06 : OK (v1+v2, confidence 17/27)
Track 07 : OK (v1+v2, confidence 17/27)
Track 08 : OK (v1+v2, confidence 17/27)
Track 09 : OK (v1+v2, confidence 17/27)
Track 10 : OK (v1+v2, confidence 17/27)
Track 11 : OK (v1+v2, confidence 17/27)
Track 12 : OK (v1+v2, confidence 17/27)
Track 13 : OK (v1+v2, confidence 17/27)
Track 14 : OK (v1+v2, confidence 17/27)
Track 15 : OK (v1+v2, confidence 17/27)
Track 16 : OK (v1+v2, confidence 17/27)
Track 17 : OK (v1+v2, confidence 16/26)
Track 18 : OK (v1+v2, confidence 17/27)
Track 19 : OK (v1+v2, confidence 17/27)
Track 20 : OK (v1+v2, confidence 17/27)
Track 21 : OK (v1+v2, confidence 17/27)
Track 22 : OK (v1+v2, confidence 17/27)
Track 23 : OK (v1+v2, confidence 17/27)
Track 24 : OK (v1+v2, confidence 17/27)
Track 25 : OK (v1+v2, confidence 17/27)
Track 26 : OK (v1+v2, confidence 17/26)
Track 27 : OK (v1+v2, confidence 17/26)
Track 28 : OK (v1+v2, confidence 17/27)
Track 29 : OK (v1+v2, confidence 17/27)
Track 30 : OK (v1+v2, confidence 18/28)
Track 31 : OK (v1+v2, confidence 18/28)
Track 32 : OK (v1+v2, confidence 18/28)
Track 33 : OK (v1+v2, confidence 18/28)
Track 34 : OK (v1+v2, confidence 18/28)
Track 35 : OK (v1+v2, confidence 18/28)
Track 36 : OK (v1+v2, confidence 18/28)
Track 37 : OK (v1+v2, confidence 17/27)
Track 38 : OK (v1+v2, confidence 16/26)
->All tracks accurately ripped.

All Tracks
Album gain : 6.22 dB
Peak : 0.909515
Statistics
Read error : 0
Jitter error (maybe fixed) : 0
Retry sector count : 0
Damaged sector count : 0

Track 01
Filename : /Volumes/My Book/FLAC Rips Master/Rips/Ronn McFarlane - The Renaissance Lute (2007) [FLAC]/01 Branle
Ronn McFarlane - The Renaissance Lute (2007) [FLAC]/01 Branle
Ronn McFarlane - The Renaissance Lute (2007) [FLAC]/01 Branle
Ronn McFarlane - The Renaissance Lute (2007) [FLAC]/01 Branle.flac
Pre-gap length : 00:02:62

Track gain : 10.91 dB
Peak : 0.305878
CRC32 hash (test run) : 832ACB3D
CRC32 hash : 832ACB3D
CRC32 hash (skip zero) : CBE8E604
AccurateRip v1 signature : 48692A37
AccurateRip v2 signature : 584D6814
->Accurately ripped (v1+v2, confidence 5+12/27)
Statistics
Read error : 0
Jitter error (maybe fixed) : 0
Retry sector count : 0
Damaged sector count : 0

Track 02
Filename : /Volumes/My Book/FLAC Rips Master/Rips/Ronn McFarlane - The Renaissance Lute (2007) [FLAC]/02 Branle Gay 'C'est Mon Amy'
Ronn McFarlane - The Renaissance Lute (2007) [FLAC]/02 Branle Gay 'C'est Mon Amy'
Ronn McFarlane - The Renaissance Lute (2007) [FLAC]/02 Branle Gay 'C'est Mon Amy'
Ronn McFarlane - The Renaissance Lute (2007) [FLAC]/02 Branle Gay 'C'est Mon Amy'.flac

Track gain : 5.55 dB
Peak : 0.330078
CRC32 hash (test run) : 9F120BED
CRC32 hash : 9F120BED
CRC32 hash (skip zero) : 23EEF253
AccurateRip v1 signature : 2794B04B
AccurateRip v2 signature : 303EC810
->Accurately ripped (v1+v2, confidence 5+12/27)
Statistics
Read error : 0
Jitter error (maybe fixed) : 0
Retry sector count : 0
Damaged sector count : 0

Track 03
Filename : /Volumes/My Book/FLAC Rips Master/Rips/Ronn McFarlane - The Renaissance Lute (2007) [FLAC]/03 Haulberroys
Ronn McFarlane - The Renaissance Lute (2007) [FLAC]/03 Haulberroys
Ronn McFarlane - The Renaissance Lute (2007) [FLAC]/03 Haulberroys
Ronn McFarlane - The Renaissance Lute (2007) [FLAC]/03 Haulberroys.flac

Track gain : 8.14 dB
Peak : 0.384247
CRC32 hash (test run) : 548F049F
CRC32 hash : 548F049F
CRC32 hash (skip zero) : CE5AE949
AccurateRip v1 signature : AA2161BF
AccurateRip v2 signature : B9675316
->Accurately ripped (v1+v2, confidence 5+12/27)
Statistics
Read error : 0
Jitter error (maybe fixed) : 0
Retry sector count : 0
Damaged sector count : 0

Track 04
Filename : /Volumes/My Book/FLAC Rips Master/Rips/Ronn McFarlane - The Renaissance Lute (2007) [FLAC]/04 Haulberroys
Ronn McFarlane - The Renaissance Lute (2007) [FLAC]/04 Haulberroys
Ronn McFarlane - The Renaissance Lute (2007) [FLAC]/04 Haulberroys
Ronn McFarlane - The Renaissance Lute (2007) [FLAC]/04 Haulberroys.flac

Track gain : 2.09 dB
Peak : 0.660950
CRC32 hash (test run) : 9C8B07E3
CRC32 hash : 9C8B07E3
CRC32 hash (skip zero) : 35193DA3
AccurateRip v1 signature : 0A321BDA
AccurateRip v2 signature : 174AA676
->Accurately ripped (v1+v2, confidence 5+12/27)
Statistics
Read error : 0
Jitter error (maybe fixed) : 0
Retry sector count : 0
Damaged sector count : 0

Track 05
Filename : /Volumes/My Book/FLAC Rips Master/Rips/Ronn McFarlane - The Renaissance Lute (2007) [FLAC]/05 Branle de Poictou
Ronn McFarlane - The Renaissance Lute (2007) [FLAC]/05 Branle de Poictou
Ronn McFarlane - The Renaissance Lute (2007) [FLAC]/05 Branle de Poictou
Ronn McFarlane - The Renaissance Lute (2007) [FLAC]/05 Branle de Poictou.flac

Track gain : 1.87 dB
Peak : 0.909515
CRC32 hash (test run) : D6D24F7A
CRC32 hash : D6D24F7A
CRC32 hash (skip zero) : 198BC775
AccurateRip v1 signature : B117CF1A
AccurateRip v2 signature : E3992902
->Accurately ripped (v1+v2, confidence 5+12/27)
Statistics
Read error : 0
Jitter error (maybe fixed) : 0
Retry sector count : 0
Damaged sector count : 0

Track 06
Filename : /Volumes/My Book/FLAC Rips Master/Rips/Ronn McFarlane - The Renaissance Lute (2007) [FLAC]/06 Petite fantasie dessus laccord du Leut
Ronn McFarlane - The Renaissance Lute (2007) [FLAC]/06 Petite fantasie dessus laccord du Leut
Ronn McFarlane - The Renaissance Lute (2007) [FLAC]/06 Petite fantasie dessus laccord du Leut
Ronn McFarlane - The Renaissance Lute (2007) [FLAC]/06 Petite fantasie dessus laccord du Leut.flac
Pre-gap length : 00:01:62

Track gain : 5.08 dB
Peak : 0.443726
CRC32 hash (test run) : 89A8DA12
CRC32 hash : 89A8DA12
CRC32 hash (skip zero) : 7868DB2C
AccurateRip v1 signature : 2EDF83D0
AccurateRip v2 signature : E2F7B321
->Accurately ripped (v1+v2, confidence 5+12/27)
Statistics
Read error : 0
Jitter error (maybe fixed) : 0
Retry sector count : 0
Damaged sector count : 0

Track 07
Filename : /Volumes/My Book/FLAC Rips Master/Rips/Ronn McFarlane - The Renaissance Lute (2007) [FLAC]/07 Passemeze
Ronn McFarlane - The Renaissance Lute (2007) [FLAC]/07 Passemeze
Ronn McFarlane - The Renaissance Lute (2007) [FLAC]/07 Passemeze
Ronn McFarlane - The Renaissance Lute (2007) [FLAC]/07 Passemeze.flac

Track gain : 6.54 dB
Peak : 0.347198
CRC32 hash (test run) : 6A23D245
CRC32 hash : 6A23D245
CRC32 hash (skip zero) : 00C914B3
AccurateRip v1 signature : A94CFC22
AccurateRip v2 signature : 4E340D84
->Accurately ripped (v1+v2, confidence 5+12/27)
Statistics
Read error : 0
Jitter error (maybe fixed) : 0
Retry sector count : 0
Damaged sector count : 0

Track 08
Filename : /Volumes/My Book/FLAC Rips Master/Rips/Ronn McFarlane - The Renaissance Lute (2007) [FLAC]/08 Pavana Bray
Ronn McFarlane - The Renaissance Lute (2007) [FLAC]/08 Pavana Bray
Ronn McFarlane - The Renaissance Lute (2007) [FLAC]/08 Pavana Bray
Ronn McFarlane - The Renaissance Lute (2007) [FLAC]/08 Pavana Bray.flac
Pre-gap length : 00:06:69

Track gain : 8.25 dB
Peak : 0.305695
CRC32 hash (test run) : 2677D1AD
CRC32 hash : 2677D1AD
CRC32 hash (skip zero) : E84DB0B6
AccurateRip v1 signature : 92205580
AccurateRip v2 signature : 6CF253EB
->Accurately ripped (v1+v2, confidence 5+12/27)
Statistics
Read error : 0
Jitter error (maybe fixed) : 0
Retry sector count : 0
Damaged sector count : 0

Track 09
Filename : /Volumes/My Book/FLAC Rips Master/Rips/Ronn McFarlane - The Renaissance Lute (2007) [FLAC]/09 Galliard
Ronn McFarlane - The Renaissance Lute (2007) [FLAC]/09 Galliard
Ronn McFarlane - The Renaissance Lute (2007) [FLAC]/09 Galliard
Ronn McFarlane - The Renaissance Lute (2007) [FLAC]/09 Galliard.flac

Track gain : 5.30 dB
Peak : 0.354065
CRC32 hash (test run) : B03DEB79
CRC32 hash : B03DEB79
CRC32 hash (skip zero) : A98D090E
AccurateRip v1 signature : 8F949542
AccurateRip v2 signature : FCCC3A2D
->Accurately ripped (v1+v2, confidence 5+12/27)
Statistics
Read error : 0
Jitter error (maybe fixed) : 0
Retry sector count : 0
Damaged sector count : 0

Track 10
Filename : /Volumes/My Book/FLAC Rips Master/Rips/Ronn McFarlane - The Renaissance Lute (2007) [FLAC]/10 Forlorn Hope Fancy
Ronn McFarlane - The Renaissance Lute (2007) [FLAC]/10 Forlorn Hope Fancy
Ronn McFarlane - The Renaissance Lute (2007) [FLAC]/10 Forlorn Hope Fancy
Ronn McFarlane - The Renaissance Lute (2007) [FLAC]/10 Forlorn Hope Fancy.flac
Pre-gap length : 00:05:74

Track gain : 6.87 dB
Peak : 0.471008
CRC32 hash (test run) : E70AE523
CRC32 hash : E70AE523
CRC32 hash (skip zero) : 60F16808
AccurateRip v1 signature : E3A2C51C
AccurateRip v2 signature : 3093A116
->Accurately ripped (v1+v2, confidence 5+12/27)
Statistics
Read error : 0
Jitter error (maybe fixed) : 0
Retry sector count : 0
Damaged sector count : 0

Track 11
Filename : /Volumes/My Book/FLAC Rips Master/Rips/Ronn McFarlane - The Renaissance Lute (2007) [FLAC]/11 Greensleeves
Ronn McFarlane - The Renaissance Lute (2007) [FLAC]/11 Greensleeves
Ronn McFarlane - The Renaissance Lute (2007) [FLAC]/11 Greensleeves
Ronn McFarlane - The Renaissance Lute (2007) [FLAC]/11 Greensleeves.flac
Pre-gap length : 00:06:29

Track gain : 9.73 dB
Peak : 0.256927
CRC32 hash (test run) : 1A24842E
CRC32 hash : 1A24842E
CRC32 hash (skip zero) : 6C43DA93
AccurateRip v1 signature : A67CFA9E
AccurateRip v2 signature : 2A4602DB
->Accurately ripped (v1+v2, confidence 5+12/27)
Statistics
Read error : 0
Jitter error (maybe fixed) : 0
Retry sector count : 0
Damaged sector count : 0

Track 12
Filename : /Volumes/My Book/FLAC Rips Master/Rips/Ronn McFarlane - The Renaissance Lute (2007) [FLAC]/12 Greensleeves
Ronn McFarlane - The Renaissance Lute (2007) [FLAC]/12 Greensleeves
Ronn McFarlane - The Renaissance Lute (2007) [FLAC]/12 Greensleeves
Ronn McFarlane - The Renaissance Lute (2007) [FLAC]/12 Greensleeves.flac

Track gain : 6.72 dB
Peak : 0.332123
CRC32 hash (test run) : 3816EA62
CRC32 hash : 3816EA62
CRC32 hash (skip zero) : 98556BC8
AccurateRip v1 signature : A1E5D5D6
AccurateRip v2 signature : 27D7322E
->Accurately ripped (v1+v2, confidence 5+12/27)
Statistics
Read error : 0
Jitter error (maybe fixed) : 0
Retry sector count : 0
Damaged sector count : 0

Track 13
Filename : /Volumes/My Book/FLAC Rips Master/Rips/Ronn McFarlane - The Renaissance Lute (2007) [FLAC]/13 Greensleeves
Ronn McFarlane - The Renaissance Lute (2007) [FLAC]/13 Greensleeves
Ronn McFarlane - The Renaissance Lute (2007) [FLAC]/13 Greensleeves
Ronn McFarlane - The Renaissance Lute (2007) [FLAC]/13 Greensleeves.flac

Track gain : 6.40 dB
Peak : 0.301544
CRC32 hash (test run) : CCC2E9CF
CRC32 hash : CCC2E9CF
CRC32 hash (skip zero) : 3A84EDB7
AccurateRip v1 signature : C0AFA996
AccurateRip v2 signature : EDD0E7F2
->Accurately ripped (v1+v2, confidence 5+12/27)
Statistics
Read error : 0
Jitter error (maybe fixed) : 0
Retry sector count : 0
Damaged sector count : 0

Track 14
Filename : /Volumes/My Book/FLAC Rips Master/Rips/Ronn McFarlane - The Renaissance Lute (2007) [FLAC]/14 John Come Kiss Me Now
Ronn McFarlane - The Renaissance Lute (2007) [FLAC]/14 John Come Kiss Me Now
Ronn McFarlane - The Renaissance Lute (2007) [FLAC]/14 John Come Kiss Me Now
Ronn McFarlane - The Renaissance Lute (2007) [FLAC]/14 John Come Kiss Me Now.flac
Pre-gap length : 00:03:72

Track gain : 7.18 dB
Peak : 0.328888
CRC32 hash (test run) : F74D2AEF
CRC32 hash : F74D2AEF
CRC32 hash (skip zero) : 2258058D
AccurateRip v1 signature : 7D01951D
AccurateRip v2 signature : B79B545B
->Accurately ripped (v1+v2, confidence 5+12/27)
Statistics
Read error : 0
Jitter error (maybe fixed) : 0
Retry sector count : 0
Damaged sector count : 0

Track 15
Filename : /Volumes/My Book/FLAC Rips Master/Rips/Ronn McFarlane - The Renaissance Lute (2007) [FLAC]/15 Madonna katerina
Ronn McFarlane - The Renaissance Lute (2007) [FLAC]/15 Madonna katerina
Ronn McFarlane - The Renaissance Lute (2007) [FLAC]/15 Madonna katerina
Ronn McFarlane - The Renaissance Lute (2007) [FLAC]/15 Madonna katerina.flac
Pre-gap length : 00:02:30

Track gain : 4.78 dB
Peak : 0.386688
CRC32 hash (test run) : B923AC09
CRC32 hash : B923AC09
CRC32 hash (skip zero) : E3B0DB2C
AccurateRip v1 signature : 1B223C84
AccurateRip v2 signature : 60C66E92
->Accurately ripped (v1+v2, confidence 5+12/27)
Statistics
Read error : 0
Jitter error (maybe fixed) : 0
Retry sector count : 0
Damaged sector count : 0

Track 16
Filename : /Volumes/My Book/FLAC Rips Master/Rips/Ronn McFarlane - The Renaissance Lute (2007) [FLAC]/16 Christ ist erstanden-Christ is risen
Ronn McFarlane - The Renaissance Lute (2007) [FLAC]/16 Christ ist erstanden-Christ is risen
Ronn McFarlane - The Renaissance Lute (2007) [FLAC]/16 Christ ist erstanden-Christ is risen
Ronn McFarlane - The Renaissance Lute (2007) [FLAC]/16 Christ ist erstanden-Christ is risen.flac

Track gain : 8.59 dB
Peak : 0.303925
CRC32 hash (test run) : C2AB8ECE
CRC32 hash : C2AB8ECE
CRC32 hash (skip zero) : 5D28D65F
AccurateRip v1 signature : 3F651FD4
AccurateRip v2 signature : C5B7B1DD
->Accurately ripped (v1+v2, confidence 5+12/27)
Statistics
Read error : 0
Jitter error (maybe fixed) : 0
Retry sector count : 0
Damaged sector count : 0

Track 17
Filename : /Volumes/My Book/FLAC Rips Master/Rips/Ronn McFarlane - The Renaissance Lute (2007) [FLAC]/17 Und wer er nit erstanden-And who is not risen
Ronn McFarlane - The Renaissance Lute (2007) [FLAC]/17 Und wer er nit erstanden-And who is not risen
Ronn McFarlane - The Renaissance Lute (2007) [FLAC]/17 Und wer er nit erstanden-And who is not risen
Ronn McFarlane - The Renaissance Lute (2007) [FLAC]/17 Und wer er nit erstanden-And who is not risen.flac

Track gain : 3.99 dB
Peak : 0.430023
CRC32 hash (test run) : B70A499B
CRC32 hash : B70A499B
CRC32 hash (skip zero) : B6735E4C
AccurateRip v1 signature : BD178B56
AccurateRip v2 signature : A51079AB
->Accurately ripped (v1+v2, confidence 4+12/26)
Statistics
Read error : 0
Jitter error (maybe fixed) : 0
Retry sector count : 0
Damaged sector count : 0

Track 18
Filename : /Volumes/My Book/FLAC Rips Master/Rips/Ronn McFarlane - The Renaissance Lute (2007) [FLAC]/18 Der hoff dantz
Ronn McFarlane - The Renaissance Lute (2007) [FLAC]/18 Der hoff dantz
Ronn McFarlane - The Renaissance Lute (2007) [FLAC]/18 Der hoff dantz
Ronn McFarlane - The Renaissance Lute (2007) [FLAC]/18 Der hoff dantz.flac

Track gain : 1.41 dB
Peak : 0.718842
CRC32 hash (test run) : 7D881345
CRC32 hash : 7D881345
CRC32 hash (skip zero) : 9AA93788
AccurateRip v1 signature : 920AA472
AccurateRip v2 signature : 16D8289D
->Accurately ripped (v1+v2, confidence 5+12/27)
Statistics
Read error : 0
Jitter error (maybe fixed) : 0
Retry sector count : 0
Damaged sector count : 0

Track 19
Filename : /Volumes/My Book/FLAC Rips Master/Rips/Ronn McFarlane - The Renaissance Lute (2007) [FLAC]/19 Der hoff dantz (Nach tantz)
Ronn McFarlane - The Renaissance Lute (2007) [FLAC]/19 Der hoff dantz (Nach tantz)
Ronn McFarlane - The Renaissance Lute (2007) [FLAC]/19 Der hoff dantz (Nach tantz)
Ronn McFarlane - The Renaissance Lute (2007) [FLAC]/19 Der hoff dantz (Nach tantz).flac

Track gain : 4.34 dB
Peak : 0.624512
CRC32 hash (test run) : D16A6AFB
CRC32 hash : D16A6AFB
CRC32 hash (skip zero) : 985497B8
AccurateRip v1 signature : 6687CBFF
AccurateRip v2 signature : DA80A96B
->Accurately ripped (v1+v2, confidence 5+12/27)
Statistics
Read error : 0
Jitter error (maybe fixed) : 0
Retry sector count : 0
Damaged sector count : 0

Track 20
Filename : /Volumes/My Book/FLAC Rips Master/Rips/Ronn McFarlane - The Renaissance Lute (2007) [FLAC]/20 Preambel
Ronn McFarlane - The Renaissance Lute (2007) [FLAC]/20 Preambel
Ronn McFarlane - The Renaissance Lute (2007) [FLAC]/20 Preambel
Ronn McFarlane - The Renaissance Lute (2007) [FLAC]/20 Preambel.flac
Pre-gap length : 00:07:30

Track gain : 9.19 dB
Peak : 0.403137
CRC32 hash (test run) : 02A6E5A0
CRC32 hash : 02A6E5A0
CRC32 hash (skip zero) : 5543563D
AccurateRip v1 signature : DEFD84C9
AccurateRip v2 signature : 69B92482
->Accurately ripped (v1+v2, confidence 5+12/27)
Statistics
Read error : 0
Jitter error (maybe fixed) : 0
Retry sector count : 0
Damaged sector count : 0

Track 21
Filename : /Volumes/My Book/FLAC Rips Master/Rips/Ronn McFarlane - The Renaissance Lute (2007) [FLAC]/21 Elslein liebstes Elslein mein-Dearest Elslein my Elslein
Ronn McFarlane - The Renaissance Lute (2007) [FLAC]/21 Elslein liebstes Elslein mein-Dearest Elslein my Elslein
Ronn McFarlane - The Renaissance Lute (2007) [FLAC]/21 Elslein liebstes Elslein mein-Dearest Elslein my Elslein
Ronn McFarlane - The Renaissance Lute (2007) [FLAC]/21 Elslein liebstes Elslein mein-Dearest Elslein my Elslein.flac

Track gain : 9.50 dB
Peak : 0.304413
CRC32 hash (test run) : 4B5FF474
CRC32 hash : 4B5FF474
CRC32 hash (skip zero) : E0258149
AccurateRip v1 signature : ADF0C447
AccurateRip v2 signature : E5E30964
->Accurately ripped (v1+v2, confidence 5+12/27)
Statistics
Read error : 0
Jitter error (maybe fixed) : 0
Retry sector count : 0
Damaged sector count : 0

Track 22
Filename : /Volumes/My Book/FLAC Rips Master/Rips/Ronn McFarlane - The Renaissance Lute (2007) [FLAC]/22 Ich klag den tag-I lament the day
Ronn McFarlane - The Renaissance Lute (2007) [FLAC]/22 Ich klag den tag-I lament the day
Ronn McFarlane - The Renaissance Lute (2007) [FLAC]/22 Ich klag den tag-I lament the day
Ronn McFarlane - The Renaissance Lute (2007) [FLAC]/22 Ich klag den tag-I lament the day.flac

Track gain : 10.54 dB
Peak : 0.419312
CRC32 hash (test run) : A83FF915
CRC32 hash : A83FF915
CRC32 hash (skip zero) : 1CFC3BB7
AccurateRip v1 signature : 3F5B2276
AccurateRip v2 signature : 1BEBACEA
->Accurately ripped (v1+v2, confidence 5+12/27)
Statistics
Read error : 0
Jitter error (maybe fixed) : 0
Retry sector count : 0
Damaged sector count : 0

Track 23
Filename : /Volumes/My Book/FLAC Rips Master/Rips/Ronn McFarlane - The Renaissance Lute (2007) [FLAC]/23 Ein welsher tantz Wascha mesa
Ronn McFarlane - The Renaissance Lute (2007) [FLAC]/23 Ein welsher tantz Wascha mesa
Ronn McFarlane - The Renaissance Lute (2007) [FLAC]/23 Ein welsher tantz Wascha mesa
Ronn McFarlane - The Renaissance Lute (2007) [FLAC]/23 Ein welsher tantz Wascha mesa.flac

Track gain : 3.68 dB
Peak : 0.420197
CRC32 hash (test run) : 82C7042F
CRC32 hash : 82C7042F
CRC32 hash (skip zero) : 6EC453E4
AccurateRip v1 signature : 97399E11
AccurateRip v2 signature : 0B621E96
->Accurately ripped (v1+v2, confidence 5+12/27)
Statistics
Read error : 0
Jitter error (maybe fixed) : 0
Retry sector count : 0
Damaged sector count : 0

Track 24
Filename : /Volumes/My Book/FLAC Rips Master/Rips/Ronn McFarlane - The Renaissance Lute (2007) [FLAC]/24 Der hupff auff
Ronn McFarlane - The Renaissance Lute (2007) [FLAC]/24 Der hupff auff
Ronn McFarlane - The Renaissance Lute (2007) [FLAC]/24 Der hupff auff
Ronn McFarlane - The Renaissance Lute (2007) [FLAC]/24 Der hupff auff.flac

Track gain : 0.41 dB
Peak : 0.778290
CRC32 hash (test run) : 50989151
CRC32 hash : 50989151
CRC32 hash (skip zero) : 967D8820
AccurateRip v1 signature : 2A0F927A
AccurateRip v2 signature : 2EEBB47D
->Accurately ripped (v1+v2, confidence 5+12/27)
Statistics
Read error : 0
Jitter error (maybe fixed) : 0
Retry sector count : 0
Damaged sector count : 0

Track 25
Filename : /Volumes/My Book/FLAC Rips Master/Rips/Ronn McFarlane - The Renaissance Lute (2007) [FLAC]/25 Fantasia
Ronn McFarlane - The Renaissance Lute (2007) [FLAC]/25 Fantasia
Ronn McFarlane - The Renaissance Lute (2007) [FLAC]/25 Fantasia
Ronn McFarlane - The Renaissance Lute (2007) [FLAC]/25 Fantasia.flac
Pre-gap length : 00:05:00

Track gain : 9.54 dB
Peak : 0.341248
CRC32 hash (test run) : 7106F1EC
CRC32 hash : 7106F1EC
CRC32 hash (skip zero) : CDAA230F
AccurateRip v1 signature : 0ACA574D
AccurateRip v2 signature : DBF76803
->Accurately ripped (v1+v2, confidence 5+12/27)
Statistics
Read error : 0
Jitter error (maybe fixed) : 0
Retry sector count : 0
Damaged sector count : 0

Track 26
Filename : /Volumes/My Book/FLAC Rips Master/Rips/Ronn McFarlane - The Renaissance Lute (2007) [FLAC]/26 Conde Claros
Ronn McFarlane - The Renaissance Lute (2007) [FLAC]/26 Conde Claros
Ronn McFarlane - The Renaissance Lute (2007) [FLAC]/26 Conde Claros
Ronn McFarlane - The Renaissance Lute (2007) [FLAC]/26 Conde Claros.flac

Track gain : 6.16 dB
Peak : 0.424194
CRC32 hash (test run) : 740ED7A4
CRC32 hash : 740ED7A4
CRC32 hash (skip zero) : 8FFAB3A8
AccurateRip v1 signature : 197D0F3F
AccurateRip v2 signature : E7FDF6DE
->Accurately ripped (v1+v2, confidence 5+12/26)
Statistics
Read error : 0
Jitter error (maybe fixed) : 0
Retry sector count : 0
Damaged sector count : 0

Track 27
Filename : /Volumes/My Book/FLAC Rips Master/Rips/Ronn McFarlane - The Renaissance Lute (2007) [FLAC]/27 Mille Regretz
Ronn McFarlane - The Renaissance Lute (2007) [FLAC]/27 Mille Regretz
Ronn McFarlane - The Renaissance Lute (2007) [FLAC]/27 Mille Regretz
Ronn McFarlane - The Renaissance Lute (2007) [FLAC]/27 Mille Regretz.flac

Track gain : 9.94 dB
Peak : 0.459595
CRC32 hash (test run) : 14E4889F
CRC32 hash : 14E4889F
CRC32 hash (skip zero) : 21F8DE34
AccurateRip v1 signature : 74456DAE
AccurateRip v2 signature : AD37F3C5
->Accurately ripped (v1+v2, confidence 5+12/26)
Statistics
Read error : 0
Jitter error (maybe fixed) : 0
Retry sector count : 0
Damaged sector count : 0

Track 28
Filename : /Volumes/My Book/FLAC Rips Master/Rips/Ronn McFarlane - The Renaissance Lute (2007) [FLAC]/28 Passacaglia
Ronn McFarlane - The Renaissance Lute (2007) [FLAC]/28 Passacaglia
Ronn McFarlane - The Renaissance Lute (2007) [FLAC]/28 Passacaglia
Ronn McFarlane - The Renaissance Lute (2007) [FLAC]/28 Passacaglia.flac

Track gain : 7.05 dB
Peak : 0.398468
CRC32 hash (test run) : 692E9475
CRC32 hash : 692E9475
CRC32 hash (skip zero) : C3A483B8
AccurateRip v1 signature : 9E2516CF
AccurateRip v2 signature : 50AC6197
->Accurately ripped (v1+v2, confidence 5+12/27)
Statistics
Read error : 0
Jitter error (maybe fixed) : 0
Retry sector count : 0
Damaged sector count : 0

Track 29
Filename : /Volumes/My Book/FLAC Rips Master/Rips/Ronn McFarlane - The Renaissance Lute (2007) [FLAC]/29 Branles de village
Ronn McFarlane - The Renaissance Lute (2007) [FLAC]/29 Branles de village
Ronn McFarlane - The Renaissance Lute (2007) [FLAC]/29 Branles de village
Ronn McFarlane - The Renaissance Lute (2007) [FLAC]/29 Branles de village.flac
Pre-gap length : 00:04:47

Track gain : 7.83 dB
Peak : 0.378601
CRC32 hash (test run) : CCF10912
CRC32 hash : CCF10912
CRC32 hash (skip zero) : 81F5DE0A
AccurateRip v1 signature : 3D2A48B0
AccurateRip v2 signature : A1BD763C
->Accurately ripped (v1+v2, confidence 5+12/27)
Statistics
Read error : 0
Jitter error (maybe fixed) : 0
Retry sector count : 0
Damaged sector count : 0

Track 30
Filename : /Volumes/My Book/FLAC Rips Master/Rips/Ronn McFarlane - The Renaissance Lute (2007) [FLAC]/30 Fantasia
Ronn McFarlane - The Renaissance Lute (2007) [FLAC]/30 Fantasia
Ronn McFarlane - The Renaissance Lute (2007) [FLAC]/30 Fantasia
Ronn McFarlane - The Renaissance Lute (2007) [FLAC]/30 Fantasia.flac
Pre-gap length : 00:05:62

Track gain : 8.67 dB
Peak : 0.323456
CRC32 hash (test run) : 5D0374A0
CRC32 hash : 5D0374A0
CRC32 hash (skip zero) : 5CA90902
AccurateRip v1 signature : 8391BCF1
AccurateRip v2 signature : BF66B49B
->Accurately ripped (v1+v2, confidence 5+13/28)
Statistics
Read error : 0
Jitter error (maybe fixed) : 0
Retry sector count : 0
Damaged sector count : 0

Track 31
Filename : /Volumes/My Book/FLAC Rips Master/Rips/Ronn McFarlane - The Renaissance Lute (2007) [FLAC]/31 Pavane alla ferrarese
Ronn McFarlane - The Renaissance Lute (2007) [FLAC]/31 Pavane alla ferrarese
Ronn McFarlane - The Renaissance Lute (2007) [FLAC]/31 Pavane alla ferrarese
Ronn McFarlane - The Renaissance Lute (2007) [FLAC]/31 Pavane alla ferrarese.flac
Pre-gap length : 00:05:69

Track gain : 6.04 dB
Peak : 0.403412
CRC32 hash (test run) : DC29FCB2
CRC32 hash : DC29FCB2
CRC32 hash (skip zero) : E8DEDD8F
AccurateRip v1 signature : D24045E8
AccurateRip v2 signature : 2BE0221B
->Accurately ripped (v1+v2, confidence 5+13/28)
Statistics
Read error : 0
Jitter error (maybe fixed) : 0
Retry sector count : 0
Damaged sector count : 0

Track 32
Filename : /Volumes/My Book/FLAC Rips Master/Rips/Ronn McFarlane - The Renaissance Lute (2007) [FLAC]/32 Salterello
Ronn McFarlane - The Renaissance Lute (2007) [FLAC]/32 Salterello
Ronn McFarlane - The Renaissance Lute (2007) [FLAC]/32 Salterello
Ronn McFarlane - The Renaissance Lute (2007) [FLAC]/32 Salterello.flac

Track gain : 4.27 dB
Peak : 0.412811
CRC32 hash (test run) : FD4F1E95
CRC32 hash : FD4F1E95
CRC32 hash (skip zero) : 56CF7D9A
AccurateRip v1 signature : D784BDE4
AccurateRip v2 signature : D3868C18
->Accurately ripped (v1+v2, confidence 5+13/28)
Statistics
Read error : 0
Jitter error (maybe fixed) : 0
Retry sector count : 0
Damaged sector count : 0

Track 33
Filename : /Volumes/My Book/FLAC Rips Master/Rips/Ronn McFarlane - The Renaissance Lute (2007) [FLAC]/33 Piva
Ronn McFarlane - The Renaissance Lute (2007) [FLAC]/33 Piva
Ronn McFarlane - The Renaissance Lute (2007) [FLAC]/33 Piva
Ronn McFarlane - The Renaissance Lute (2007) [FLAC]/33 Piva.flac

Track gain : 4.77 dB
Peak : 0.431580
CRC32 hash (test run) : 997D89F0
CRC32 hash : 997D89F0
CRC32 hash (skip zero) : 1BEBB629
AccurateRip v1 signature : 9378302B
AccurateRip v2 signature : 3A51A740
->Accurately ripped (v1+v2, confidence 5+13/28)
Statistics
Read error : 0
Jitter error (maybe fixed) : 0
Retry sector count : 0
Damaged sector count : 0

Track 34
Filename : /Volumes/My Book/FLAC Rips Master/Rips/Ronn McFarlane - The Renaissance Lute (2007) [FLAC]/34 Ricercar #51
Ronn McFarlane - The Renaissance Lute (2007) [FLAC]/34 Ricercar #51
Ronn McFarlane - The Renaissance Lute (2007) [FLAC]/34 Ricercar #51
Ronn McFarlane - The Renaissance Lute (2007) [FLAC]/34 Ricercar #51.flac
Pre-gap length : 00:05:42

Track gain : 7.02 dB
Peak : 0.360382
CRC32 hash (test run) : F620BF00
CRC32 hash : F620BF00
CRC32 hash (skip zero) : 268B2B81
AccurateRip v1 signature : 266B580C
AccurateRip v2 signature : 86194640
->Accurately ripped (v1+v2, confidence 5+13/28)
Statistics
Read error : 0
Jitter error (maybe fixed) : 0
Retry sector count : 0
Damaged sector count : 0

Track 35
Filename : /Volumes/My Book/FLAC Rips Master/Rips/Ronn McFarlane - The Renaissance Lute (2007) [FLAC]/35 Ricercar #16
Ronn McFarlane - The Renaissance Lute (2007) [FLAC]/35 Ricercar #16
Ronn McFarlane - The Renaissance Lute (2007) [FLAC]/35 Ricercar #16
Ronn McFarlane - The Renaissance Lute (2007) [FLAC]/35 Ricercar #16.flac
Pre-gap length : 00:05:20

Track gain : 5.27 dB
Peak : 0.331390
CRC32 hash (test run) : EEDC788D
CRC32 hash : EEDC788D
CRC32 hash (skip zero) : 1BAA5E11
AccurateRip v1 signature : 4F453ADD
AccurateRip v2 signature : EB6C5588
->Accurately ripped (v1+v2, confidence 5+13/28)
Statistics
Read error : 0
Jitter error (maybe fixed) : 0
Retry sector count : 0
Damaged sector count : 0

Track 36
Filename : /Volumes/My Book/FLAC Rips Master/Rips/Ronn McFarlane - The Renaissance Lute (2007) [FLAC]/36 Fantasia #33
Ronn McFarlane - The Renaissance Lute (2007) [FLAC]/36 Fantasia #33
Ronn McFarlane - The Renaissance Lute (2007) [FLAC]/36 Fantasia #33
Ronn McFarlane - The Renaissance Lute (2007) [FLAC]/36 Fantasia #33.flac
Pre-gap length : 00:01:32

Track gain : 7.62 dB
Peak : 0.332947
CRC32 hash (test run) : C572A85F
CRC32 hash : C572A85F
CRC32 hash (skip zero) : BD8766BE
AccurateRip v1 signature : 2F5687D3
AccurateRip v2 signature : C77426B5
->Accurately ripped (v1+v2, confidence 5+13/28)
Statistics
Read error : 0
Jitter error (maybe fixed) : 0
Retry sector count : 0
Damaged sector count : 0

Track 37
Filename : /Volumes/My Book/FLAC Rips Master/Rips/Ronn McFarlane - The Renaissance Lute (2007) [FLAC]/37 Ricercar #34
Ronn McFarlane - The Renaissance Lute (2007) [FLAC]/37 Ricercar #34
Ronn McFarlane - The Renaissance Lute (2007) [FLAC]/37 Ricercar #34
Ronn McFarlane - The Renaissance Lute (2007) [FLAC]/37 Ricercar #34.flac

Track gain : 6.79 dB
Peak : 0.325104
CRC32 hash (test run) : 78D2A0A5
CRC32 hash : 78D2A0A5
CRC32 hash (skip zero) : 814DA381
AccurateRip v1 signature : E376681C
AccurateRip v2 signature : 41EE09A8
->Accurately ripped (v1+v2, confidence 4+13/27)
Statistics
Read error : 0
Jitter error (maybe fixed) : 0
Retry sector count : 0
Damaged sector count : 0

Track 38
Filename : /Volumes/My Book/FLAC Rips Master/Rips/Ronn McFarlane - The Renaissance Lute (2007) [FLAC]/38 O Bone Jesu
Ronn McFarlane - The Renaissance Lute (2007) [FLAC]/38 O Bone Jesu
Ronn McFarlane - The Renaissance Lute (2007) [FLAC]/38 O Bone Jesu
Ronn McFarlane - The Renaissance Lute (2007) [FLAC]/38 O Bone Jesu.flac
Pre-gap length : 00:06:32

Track gain : 9.94 dB
Peak : 0.283020
CRC32 hash (test run) : 95AE2B43
CRC32 hash : 95AE2B43
CRC32 hash (skip zero) : B45205EB
AccurateRip v1 signature : A12FD19E
AccurateRip v2 signature : 9C1260E4
->Accurately ripped (v1+v2, confidence 4+12/26)
Statistics
Read error : 0
Jitter error (maybe fixed) : 0
Retry sector count : 0
Damaged sector count : 0

No errors occurred

End of status report

––-BEGIN XLD SIGNATURE––-
AEHYfSaMtAikkAeDeKOgVtZGC9x260kqKPDtZ.GxraT3quo5Pdzv09Fg_t61ESzX_TkrVcFLopNat3QVeaHUo7JKWltBGuJ7_Z7Vz3q
––-END XLD SIGNATURE––-


Ronn McFarlane - The Renaissance Lute (1994) {Dorian Recordings DOR-90186}



===