Subcategories

Rosa Ponselle - On The Air, Volume 1, 1934-1936 {2CD Set Marston 52012-2 rel 1999}

Posted By: ruskaval
Rosa Ponselle - On The Air, Volume 1, 1934-1936 {2CD Set Marston 52012-2 rel 1999}

Rosa Ponselle - On The Air, Volume 1, 1934-1936 {2CD Set Marston 52012-2 rel 1999}
XLD rip (secure mode) | FLAC (tracks)+CUE+LOG -> 397 Mb | MP3 @320 -> 350 Mb
Full Artwork @ 600 dpi (jpg) -> 44 Mb | 5% repair rar
© 1934-36, 1999 Marston | 52012-2
Classical / Vocal / Historical

Rosa Ponselle was arguably this century's greatest soprano. Artists such as Callas and Caruso acknowledged her vocal supremacy. Ponselle's voice had volume, beauty, emotion, sure intonation and remarkable flexibility. Before Rosa Ponselle (1897-1981), there had been no leading American singer who had not first made his or her mark abroad. This two-CD set marks the first volume of her on the air recordings. By Ponselle's own account, her broadcasts captured her true voice and she preferred these performances to her numerous commercial recordings. This set chronicles the Chesterfield broadcasts from 1934-1936 which demonstrate Ponselle at her best.
Rosa Ponselle - On The Air, Volume 1, 1934-1936 {2CD Set Marston 52012-2 rel 1999}


marstonrecords.com INFO

TRACKLISTING

CD 1 (77:59)


CHESTERFIELD HOUR
1 October 1934
1. DON GIOVANNI: Batti, batti, o bel Masetto (Mozart) 4:37
2. I Love You Truly (Bond) 2:50
3. The Cuckoo Clock (Schaefer) 1:29
4. Homing (Del Riego) 3:05

8 October 1934
5. Ave Maria (Adapted from Cavalleria Rusticana: "Intermezzo") (Mascagni/Weatherly) 4:10
6. In Luxembourg Gardens (Lockhart-Manning) 2:28
7. CARMEN: Chanson bohème (Bizet) 2:51
8. THE CHOCOLATE SOLDIER: My Hero (O. Straus) 3:09

15 October 1934
9. Blue Danube Waltz (J. Strauss) 4:41
10. La Golondrina (Serradell) 4:12
11. Will-o'-the-Wisp (Spross) 1:27
12. Wiegenlied (Brahms) 2:51

29 October 1934
13. SAMSON ET DALILA: Printemps qui commence (Saint-Saëns) 6:32
14. La Violetera (Padilla) 3:19
15. The Last Rose of Summer (Traditional) 4:10

19 November 1934
16. Ave Maria (Sandoval) 4:44
17. Estrellita (Ponce) 3:02
18. The Sleigh (Tchervanow-Kountz) 1:17
19. DIE LUSTIGE WITWE: Waltz Song (Lehár) 3:13

26 November 1934
20. CARMEN: Habanera (Bizet) 4:18
21. A Dream (Bartlett) 3:54
22. What's in the Air Today (Eden) 2:05
23. The Rosary (Nevin) 3:22

All tracks originally broadcast from New York City
All tracks accompanied by orchestra, conducted by André Kostelanetz
Languages: Italian [1, 16]; English [2-5, 6, 8-9, 11, 15, 18-19, 21-23]; French [7, 13, 20]; Spanish [10, 14, 17]; and German [12]

Rosa Ponselle - On The Air, Volume 1, 1934-1936 {2CD Set Marston 52012-2 rel 1999}


CD 2 (67:48)

3 December 1934
1. ALCESTE: Divinités du Styx (Gluck) 4:31
2. Mariä Wiegenlied (Reger) 2:34
3. The Big Brown Bear (Mana-Zucca) 2:00
4. Good-bye (Tosti) 4:56

26 February 1936
5. Nur wer die Sehnsucht kennt (Tchaikowsky) 3:47
6. HERE'S TO ROMANCE: I Carry You in My Pocket (Grosvenor) 3:21
7. CARMEN: Air des cartes (Bizet) 4:12
8. CARMEN: Séguedille (Bizet) 2:20

4 March 1936
9. Der Erlkönig (Schubert) 4:09
10. Danny Boy (Traditional) 4:19
11. Clavelitos (Valverde) 1:25
12. CARMEN: Chanson bohème (Bizet) 3:02

11 March 1936
13. CAVALLERIA RUSTICANA: Voi lo sapete (Mascagni) 3:17
14. The Old Refrain (Kreisler) 4:13
15. Comin' Thro' the Rye (Traditional) 2:12
16. L'ultima canzone (Tosti) 3:56

18 March 1936
17. FEDRA: O divina Afrodite (Romani) 4:31
18. Humoresque (Dvorák) 4:18
19. When I Have Sung My Songs (Charles) 2:04
20. Ouvre ton coeur (Bizet) 2:41

All tracks originally broadcast from New York City
All tracks accompanied by orchestra, conducted by André Kostelanetz except Track 3 which is accompanied by piano, Charles Henderson
Languages: French [1, 7-8, 12, 20]; German [2, 5, 9]; English [3-4, 6, 10, 14-15, 18-19]; Spanish [11]; and Italian [13, 16-17]

Rosa Ponselle - On The Air, Volume 1, 1934-1936 {2CD Set Marston 52012-2 rel 1999}


X Lossless Decoder version 20170729 (150.3)

XLD extraction logfile from 2019-05-10 16:43:45 +0200

Rosa Ponselle / Rosa Ponselle on the Air Vol. 1 - 1934-36 [Marston]

Used drive : PLEXTOR DVDR PX-755A (revision 1.06)
Media type : Pressed CD

Ripper mode : XLD Secure Ripper
Disable audio cache : OK for the drive with a cache less than 1375KiB
Make use of C2 pointers : NO
Read offset correction : 30
Max retry count : 100
Gap status : Analyzed, Appended (except HTOA)

TOC of the extracted CD
Track | Start | Length | Start sector | End sector
––––––––––––––––––––––––––––-
1 | 00:00:00 | 04:37:37 | 0 | 20811
2 | 04:37:37 | 02:50:58 | 20812 | 33619
3 | 07:28:20 | 01:29:32 | 33620 | 40326
4 | 08:57:52 | 03:05:05 | 40327 | 54206
5 | 12:02:57 | 04:09:40 | 54207 | 72921
6 | 16:12:22 | 02:24:65 | 72922 | 83786
7 | 18:37:12 | 02:51:23 | 83787 | 96634
8 | 21:28:35 | 03:08:70 | 96635 | 110804
9 | 24:37:30 | 04:42:37 | 110805 | 131991
10 | 29:19:67 | 04:11:45 | 131992 | 150861
11 | 33:31:37 | 01:28:28 | 150862 | 157489
12 | 34:59:65 | 02:50:02 | 157490 | 170241
13 | 37:49:67 | 06:32:30 | 170242 | 199671
14 | 44:22:22 | 03:19:63 | 199672 | 214659
15 | 47:42:10 | 04:09:47 | 214660 | 233381
16 | 51:51:57 | 04:44:13 | 233382 | 254694
17 | 56:35:70 | 03:03:27 | 254695 | 268446
18 | 59:39:22 | 01:17:20 | 268447 | 274241
19 | 60:56:42 | 03:13:43 | 274242 | 288759
20 | 64:10:10 | 04:17:72 | 288760 | 308106
21 | 68:28:07 | 03:55:23 | 308107 | 325754
22 | 72:23:30 | 02:05:02 | 325755 | 335131
23 | 74:28:32 | 03:22:70 | 335132 | 350351

List of alternate offset correction values
# | Absolute | Relative | Confidence
–––––––––––––––––––––
1 | -637 | -667 | 3

AccurateRip Summary (DiscID: 003fbc09-042dac1a-44123f17)
Track 01 : OK (v2, confidence 3/6)
Track 02 : OK (v2, confidence 3/6)
Track 03 : OK (v2, confidence 3/6)
Track 04 : OK (v2, confidence 3/6)
Track 05 : OK (v2, confidence 3/6)
Track 06 : OK (v2, confidence 3/6)
Track 07 : OK (v2, confidence 3/6)
Track 08 : OK (v2, confidence 3/6)
Track 09 : OK (v2, confidence 3/6)
Track 10 : OK (v2, confidence 3/6)
Track 11 : OK (v2, confidence 3/6)
Track 12 : OK (v2, confidence 3/6)
Track 13 : OK (v2, confidence 3/6)
Track 14 : OK (v2, confidence 3/6)
Track 15 : OK (v2, confidence 3/6)
Track 16 : OK (v2, confidence 3/6)
Track 17 : OK (v2, confidence 3/6)
Track 18 : OK (v2, confidence 3/6)
Track 19 : OK (v2, confidence 3/6)
Track 20 : OK (v2, confidence 3/6)
Track 21 : OK (v2, confidence 3/6)
Track 22 : OK (v2, confidence 3/6)
Track 23 : OK (v2, confidence 3/6)
->All tracks accurately ripped.

All Tracks
Album gain : -0.51 dB
Peak : 0.868103
Statistics
Read error : 0
Jitter error (maybe fixed) : 0
Retry sector count : 0
Damaged sector count : 0

Track 01
Filename : /Rosa Ponselle on the Air Vol. 1 - 1934-36 [Marston]/CD 1/01 Don Giovanni - Batti, batti, o bel Masetto.flac
Pre-gap length : 00:02:00

Track gain : 1.54 dB
Peak : 0.868103
CRC32 hash (test run) : EDE9EE2D
CRC32 hash : EDE9EE2D
CRC32 hash (skip zero) : B93FDA87
AccurateRip v1 signature : 1C0B9B92
AccurateRip v2 signature : ADD7E98B
->Accurately ripped (v2, confidence 3/6)
Statistics
Read error : 0
Jitter error (maybe fixed) : 0
Retry sector count : 0
Damaged sector count : 0

Track 02
Filename : /Rosa Ponselle on the Air Vol. 1 - 1934-36 [Marston]/CD 1/02 I Love You Truly.flac

Track gain : 0.64 dB
Peak : 0.566925
CRC32 hash (test run) : 078B6D76
CRC32 hash : 078B6D76
CRC32 hash (skip zero) : 979FE29A
AccurateRip v1 signature : 72A48A36
AccurateRip v2 signature : 441EF665
->Accurately ripped (v2, confidence 3/6)
Statistics
Read error : 0
Jitter error (maybe fixed) : 0
Retry sector count : 0
Damaged sector count : 0

Track 03
Filename : /Rosa Ponselle on the Air Vol. 1 - 1934-36 [Marston]/CD 1/03 The Cuckoo Clock.flac

Track gain : 1.84 dB
Peak : 0.546173
CRC32 hash (test run) : C3AB42E4
CRC32 hash : C3AB42E4
CRC32 hash (skip zero) : 7B6F9812
AccurateRip v1 signature : 27B8F818
AccurateRip v2 signature : E4868CB8
->Accurately ripped (v2, confidence 3/6)
Statistics
Read error : 0
Jitter error (maybe fixed) : 0
Retry sector count : 0
Damaged sector count : 0

Track 04
Filename : /Rosa Ponselle on the Air Vol. 1 - 1934-36 [Marston]/CD 1/04 Homing.flac

Track gain : -0.05 dB
Peak : 0.507141
CRC32 hash (test run) : B58DD067
CRC32 hash : B58DD067
CRC32 hash (skip zero) : AC8B2C86
AccurateRip v1 signature : 34D32FC9
AccurateRip v2 signature : F88D981D
->Accurately ripped (v2, confidence 3/6)
Statistics
Read error : 0
Jitter error (maybe fixed) : 0
Retry sector count : 0
Damaged sector count : 0

Track 05
Filename : /Rosa Ponselle on the Air Vol. 1 - 1934-36 [Marston]/CD 1/05 Ave Maria [adapted from Cavalleria rusticana - Intermezzo].flac

Track gain : 1.01 dB
Peak : 0.445557
CRC32 hash (test run) : 2E48C87E
CRC32 hash : 2E48C87E
CRC32 hash (skip zero) : 543CC1AA
AccurateRip v1 signature : 905D9C9E
AccurateRip v2 signature : 9C648000
->Accurately ripped (v2, confidence 3/6)
Statistics
Read error : 0
Jitter error (maybe fixed) : 0
Retry sector count : 0
Damaged sector count : 0

Track 06
Filename : /Rosa Ponselle on the Air Vol. 1 - 1934-36 [Marston]/CD 1/06 In Luxembourg Gardens.flac

Track gain : 4.02 dB
Peak : 0.621582
CRC32 hash (test run) : C923B5C0
CRC32 hash : C923B5C0
CRC32 hash (skip zero) : 32DFBEC6
AccurateRip v1 signature : 781D496E
AccurateRip v2 signature : F387B37B
->Accurately ripped (v2, confidence 3/6)
Statistics
Read error : 0
Jitter error (maybe fixed) : 0
Retry sector count : 0
Damaged sector count : 0

Track 07
Filename : /Rosa Ponselle on the Air Vol. 1 - 1934-36 [Marston]/CD 1/07 Carmen - Chanson boheme.flac

Track gain : 1.63 dB
Peak : 0.468292
CRC32 hash (test run) : CD70009A
CRC32 hash : CD70009A
CRC32 hash (skip zero) : F2B964FB
AccurateRip v1 signature : 93F0839F
AccurateRip v2 signature : 6A9BE029
->Accurately ripped (v2, confidence 3/6)
Statistics
Read error : 0
Jitter error (maybe fixed) : 0
Retry sector count : 0
Damaged sector count : 0

Track 08
Filename : /Rosa Ponselle on the Air Vol. 1 - 1934-36 [Marston]/CD 1/08 The Chocolate Soldier - My Hero.flac

Track gain : 0.45 dB
Peak : 0.458496
CRC32 hash (test run) : F2DC3512
CRC32 hash : F2DC3512
CRC32 hash (skip zero) : DA4BBC27
AccurateRip v1 signature : 832B68CE
AccurateRip v2 signature : 88AFE856
->Accurately ripped (v2, confidence 3/6)
Statistics
Read error : 0
Jitter error (maybe fixed) : 0
Retry sector count : 0
Damaged sector count : 0

Track 09
Filename : /Rosa Ponselle on the Air Vol. 1 - 1934-36 [Marston]/CD 1/09 Blue Danube Waltz.flac

Track gain : 2.56 dB
Peak : 0.371704
CRC32 hash (test run) : 3FC1C1C9
CRC32 hash : 3FC1C1C9
CRC32 hash (skip zero) : 5E2FAA1B
AccurateRip v1 signature : B4CA9AC1
AccurateRip v2 signature : E983BD15
->Accurately ripped (v2, confidence 3/6)
Statistics
Read error : 0
Jitter error (maybe fixed) : 0
Retry sector count : 0
Damaged sector count : 0

Track 10
Filename : /Rosa Ponselle on the Air Vol. 1 - 1934-36 [Marston]/CD 1/10 La Golondrina.flac

Track gain : 3.16 dB
Peak : 0.385956
CRC32 hash (test run) : 2896A529
CRC32 hash : 2896A529
CRC32 hash (skip zero) : 8915B3A3
AccurateRip v1 signature : 506E1C94
AccurateRip v2 signature : 48CB6847
->Accurately ripped (v2, confidence 3/6)
Statistics
Read error : 0
Jitter error (maybe fixed) : 0
Retry sector count : 0
Damaged sector count : 0

Track 11
Filename : /Rosa Ponselle on the Air Vol. 1 - 1934-36 [Marston]/CD 1/11 Will-o'-the-Wisp.flac

Track gain : 1.34 dB
Peak : 0.424561
CRC32 hash (test run) : 1835FF1A
CRC32 hash : 1835FF1A
CRC32 hash (skip zero) : 39684CA4
AccurateRip v1 signature : F1CF48E4
AccurateRip v2 signature : 61DB71B8
->Accurately ripped (v2, confidence 3/6)
Statistics
Read error : 0
Jitter error (maybe fixed) : 0
Retry sector count : 0
Damaged sector count : 0

Track 12
Filename : /Rosa Ponselle on the Air Vol. 1 - 1934-36 [Marston]/CD 1/12 Wiegenlied.flac

Track gain : 0.36 dB
Peak : 0.703247
CRC32 hash (test run) : FAE2FFC0
CRC32 hash : FAE2FFC0
CRC32 hash (skip zero) : 7CBA7D36
AccurateRip v1 signature : 03441D53
AccurateRip v2 signature : DB1381E2
->Accurately ripped (v2, confidence 3/6)
Statistics
Read error : 0
Jitter error (maybe fixed) : 0
Retry sector count : 0
Damaged sector count : 0

Track 13
Filename : /Rosa Ponselle on the Air Vol. 1 - 1934-36 [Marston]/CD 1/13 Samson et Dalila - Printemps qui commence.flac

Track gain : 1.83 dB
Peak : 0.450806
CRC32 hash (test run) : 7F689D5C
CRC32 hash : 7F689D5C
CRC32 hash (skip zero) : 80D6183E
AccurateRip v1 signature : 2E57287D
AccurateRip v2 signature : 1E4B37AD
->Accurately ripped (v2, confidence 3/6)
Statistics
Read error : 0
Jitter error (maybe fixed) : 0
Retry sector count : 0
Damaged sector count : 0

Track 14
Filename : /Rosa Ponselle on the Air Vol. 1 - 1934-36 [Marston]/CD 1/14 La Violetera.flac

Track gain : 1.61 dB
Peak : 0.428925
CRC32 hash (test run) : F8B7A128
CRC32 hash : F8B7A128
CRC32 hash (skip zero) : 224F6C41
AccurateRip v1 signature : B38680A8
AccurateRip v2 signature : DFA5334E
->Accurately ripped (v2, confidence 3/6)
Statistics
Read error : 0
Jitter error (maybe fixed) : 0
Retry sector count : 0
Damaged sector count : 0

Track 15
Filename : /Rosa Ponselle on the Air Vol. 1 - 1934-36 [Marston]/CD 1/15 The Last Rose of Summer.flac

Track gain : 0.60 dB
Peak : 0.589508
CRC32 hash (test run) : AEA5D9FE
CRC32 hash : AEA5D9FE
CRC32 hash (skip zero) : 11954252
AccurateRip v1 signature : 43547468
AccurateRip v2 signature : 5BFFCC77
->Accurately ripped (v2, confidence 3/6)
Statistics
Read error : 0
Jitter error (maybe fixed) : 0
Retry sector count : 0
Damaged sector count : 0

Track 16
Filename : /Rosa Ponselle on the Air Vol. 1 - 1934-36 [Marston]/CD 1/16 Ave Maria.flac

Track gain : -2.75 dB
Peak : 0.821960
CRC32 hash (test run) : 951EA61E
CRC32 hash : 951EA61E
CRC32 hash (skip zero) : FC184EC8
AccurateRip v1 signature : 58DDF062
AccurateRip v2 signature : 376904E2
->Accurately ripped (v2, confidence 3/6)
Statistics
Read error : 0
Jitter error (maybe fixed) : 0
Retry sector count : 0
Damaged sector count : 0

Track 17
Filename : /Rosa Ponselle on the Air Vol. 1 - 1934-36 [Marston]/CD 1/17 Estrellita.flac

Track gain : -2.77 dB
Peak : 0.623932
CRC32 hash (test run) : EB67FEAD
CRC32 hash : EB67FEAD
CRC32 hash (skip zero) : E6F71537
AccurateRip v1 signature : C426026A
AccurateRip v2 signature : C7ECC04A
->Accurately ripped (v2, confidence 3/6)
Statistics
Read error : 0
Jitter error (maybe fixed) : 0
Retry sector count : 0
Damaged sector count : 0

Track 18
Filename : /Rosa Ponselle on the Air Vol. 1 - 1934-36 [Marston]/CD 1/18 The Sleigh.flac

Track gain : -3.29 dB
Peak : 0.639160
CRC32 hash (test run) : 5EF1A135
CRC32 hash : 5EF1A135
CRC32 hash (skip zero) : D3478620
AccurateRip v1 signature : E3FEE238
AccurateRip v2 signature : C4D0D81E
->Accurately ripped (v2, confidence 3/6)
Statistics
Read error : 0
Jitter error (maybe fixed) : 0
Retry sector count : 0
Damaged sector count : 0

Track 19
Filename : /Rosa Ponselle on the Air Vol. 1 - 1934-36 [Marston]/CD 1/19 Die lustige Witwe - Waltz Song.flac

Track gain : -6.61 dB
Peak : 0.802399
CRC32 hash (test run) : E933B0F1
CRC32 hash : E933B0F1
CRC32 hash (skip zero) : 3FDA2503
AccurateRip v1 signature : D032B1F8
AccurateRip v2 signature : 40BCFFFB
->Accurately ripped (v2, confidence 3/6)
Statistics
Read error : 0
Jitter error (maybe fixed) : 0
Retry sector count : 0
Damaged sector count : 0

Track 20
Filename : /Rosa Ponselle on the Air Vol. 1 - 1934-36 [Marston]/CD 1/20 Carmen - Habanera.flac

Track gain : -1.41 dB
Peak : 0.649048
CRC32 hash (test run) : C375E9DB
CRC32 hash : C375E9DB
CRC32 hash (skip zero) : C104EE33
AccurateRip v1 signature : 6AF258A7
AccurateRip v2 signature : 7C4E9A7B
->Accurately ripped (v2, confidence 3/6)
Statistics
Read error : 0
Jitter error (maybe fixed) : 0
Retry sector count : 0
Damaged sector count : 0

Track 21
Filename : /Rosa Ponselle on the Air Vol. 1 - 1934-36 [Marston]/CD 1/21 A Dream.flac

Track gain : -2.41 dB
Peak : 0.523468
CRC32 hash (test run) : 3E38EFE6
CRC32 hash : 3E38EFE6
CRC32 hash (skip zero) : F8CDA45F
AccurateRip v1 signature : A580ABCF
AccurateRip v2 signature : BABEE334
->Accurately ripped (v2, confidence 3/6)
Statistics
Read error : 0
Jitter error (maybe fixed) : 0
Retry sector count : 0
Damaged sector count : 0

Track 22
Filename : /Rosa Ponselle on the Air Vol. 1 - 1934-36 [Marston]/CD 1/22 What's in the Air Today.flac

Track gain : -3.12 dB
Peak : 0.797058
CRC32 hash (test run) : CA5229D1
CRC32 hash : CA5229D1
CRC32 hash (skip zero) : 6E7E7956
AccurateRip v1 signature : 40830804
AccurateRip v2 signature : 6A3B1F0D
->Accurately ripped (v2, confidence 3/6)
Statistics
Read error : 0
Jitter error (maybe fixed) : 0
Retry sector count : 0
Damaged sector count : 0

Track 23
Filename : /Rosa Ponselle on the Air Vol. 1 - 1934-36 [Marston]/CD 1/23 The Rosary.flac

Track gain : -1.04 dB
Peak : 0.610077
CRC32 hash (test run) : FC2DFD9B
CRC32 hash : FC2DFD9B
CRC32 hash (skip zero) : B53379A7
AccurateRip v1 signature : 2E37C3A3
AccurateRip v2 signature : 508F5CC5
->Accurately ripped (v2, confidence 3/6)
Statistics
Read error : 0
Jitter error (maybe fixed) : 0
Retry sector count : 0
Damaged sector count : 0

No errors occurred

End of status report

––-BEGIN XLD SIGNATURE––-
ObLapQ5XJaVwO4cYGXHfEzwe8M3PE7Hi1pTTN1hDcx8KwgqAVUB8.kRecowiWvalY8vlY9faGYXvtfEQ02Q_DyxkmJmMrZ6Ugls6JhG
––-END XLD SIGNATURE––-
X Lossless Decoder version 20170729 (150.3)

XLD extraction logfile from 2019-05-10 17:29:37 +0200

Rosa Ponselle / Rosa Ponselle on the Air Vol. 1 - 1934-36 [Marston]

Used drive : PLEXTOR DVDR PX-755A (revision 1.06)
Media type : Pressed CD

Ripper mode : XLD Secure Ripper
Disable audio cache : OK for the drive with a cache less than 1375KiB
Make use of C2 pointers : NO
Read offset correction : 30
Max retry count : 100
Gap status : Analyzed, Appended (except HTOA)

TOC of the extracted CD
Track | Start | Length | Start sector | End sector
––––––––––––––––––––––––––––-
1 | 00:00:00 | 04:33:62 | 0 | 20536
2 | 04:33:62 | 02:32:30 | 20537 | 31966
3 | 07:06:17 | 02:01:00 | 31967 | 41041
4 | 09:07:17 | 04:55:68 | 41042 | 63234
5 | 14:03:10 | 03:47:05 | 63235 | 80264
6 | 17:50:15 | 03:22:65 | 80265 | 95479
7 | 21:13:05 | 04:11:27 | 95480 | 114331
8 | 25:24:32 | 02:19:08 | 114332 | 124764
9 | 27:43:40 | 04:09:27 | 124765 | 143466
10 | 31:52:67 | 04:18:28 | 143467 | 162844
11 | 36:11:20 | 01:25:70 | 162845 | 169289
12 | 37:37:15 | 03:01:40 | 169290 | 182904
13 | 40:38:55 | 03:15:57 | 182905 | 197586
14 | 43:54:37 | 04:13:63 | 197587 | 216624
15 | 48:08:25 | 02:11:65 | 216625 | 226514
16 | 50:20:15 | 03:56:00 | 226515 | 244214
17 | 54:16:15 | 04:31:50 | 244215 | 264589
18 | 58:47:65 | 04:18:40 | 264590 | 283979
19 | 63:06:30 | 02:04:10 | 283980 | 293289
20 | 65:10:40 | 02:41:10 | 293290 | 305374

List of alternate offset correction values
# | Absolute | Relative | Confidence
–––––––––––––––––––––
1 | -637 | -667 | 3

AccurateRip Summary (DiscID: 0031c763-02d75cc7-2c0fe714)
Track 01 : OK (v2, confidence 2/5)
Track 02 : OK (v2, confidence 2/5)
Track 03 : OK (v2, confidence 2/5)
Track 04 : OK (v2, confidence 2/5)
Track 05 : OK (v2, confidence 2/5)
Track 06 : OK (v2, confidence 2/5)
Track 07 : OK (v2, confidence 2/5)
Track 08 : OK (v2, confidence 2/5)
Track 09 : OK (v2, confidence 2/5)
Track 10 : OK (v2, confidence 2/5)
Track 11 : OK (v2, confidence 2/5)
Track 12 : OK (v2, confidence 2/5)
Track 13 : OK (v2, confidence 2/5)
Track 14 : OK (v2, confidence 2/5)
Track 15 : OK (v2, confidence 2/5)
Track 16 : OK (v2, confidence 2/5)
Track 17 : OK (v2, confidence 2/5)
Track 18 : OK (v2, confidence 2/5)
Track 19 : OK (v2, confidence 2/5)
Track 20 : OK (v2, confidence 2/5)
->All tracks accurately ripped.

All Tracks
Album gain : -3.98 dB
Peak : 0.930389
Statistics
Read error : 0
Jitter error (maybe fixed) : 0
Retry sector count : 0
Damaged sector count : 0

Track 01
Filename : /Rosa Ponselle on the Air Vol. 1 - 1934-36 [Marston]/CD 2/01 Alceste - Divinites du Styx.flac
Pre-gap length : 00:02:00

Track gain : -3.79 dB
Peak : 0.578827
CRC32 hash (test run) : BEBA5E85
CRC32 hash : BEBA5E85
CRC32 hash (skip zero) : C22C6177
AccurateRip v1 signature : 6ECE0BD5
AccurateRip v2 signature : 3502DD5E
->Accurately ripped (v2, confidence 2/5)
Statistics
Read error : 0
Jitter error (maybe fixed) : 0
Retry sector count : 0
Damaged sector count : 0

Track 02
Filename : /Rosa Ponselle on the Air Vol. 1 - 1934-36 [Marston]/CD 2/02 Maria Wiegenlied.flac

Track gain : -2.67 dB
Peak : 0.494476
CRC32 hash (test run) : E22B71CE
CRC32 hash : E22B71CE
CRC32 hash (skip zero) : C7AB9CA9
AccurateRip v1 signature : 1E6789C6
AccurateRip v2 signature : A2F5E916
->Accurately ripped (v2, confidence 2/5)
Statistics
Read error : 0
Jitter error (maybe fixed) : 0
Retry sector count : 0
Damaged sector count : 0

Track 03
Filename : /Rosa Ponselle on the Air Vol. 1 - 1934-36 [Marston]/CD 2/03 The Big Brown Bear.flac

Track gain : -3.85 dB
Peak : 0.707611
CRC32 hash (test run) : 904B49B4
CRC32 hash : 904B49B4
CRC32 hash (skip zero) : 842CF895
AccurateRip v1 signature : 14E8E73E
AccurateRip v2 signature : 11C57040
->Accurately ripped (v2, confidence 2/5)
Statistics
Read error : 0
Jitter error (maybe fixed) : 0
Retry sector count : 0
Damaged sector count : 0

Track 04
Filename : /Rosa Ponselle on the Air Vol. 1 - 1934-36 [Marston]/CD 2/04 Good-bye.flac

Track gain : -6.12 dB
Peak : 0.737854
CRC32 hash (test run) : 52EE240F
CRC32 hash : 52EE240F
CRC32 hash (skip zero) : 26933EA3
AccurateRip v1 signature : AE4C85D7
AccurateRip v2 signature : 89F61AC2
->Accurately ripped (v2, confidence 2/5)
Statistics
Read error : 0
Jitter error (maybe fixed) : 0
Retry sector count : 0
Damaged sector count : 0

Track 05
Filename : /Rosa Ponselle on the Air Vol. 1 - 1934-36 [Marston]/CD 2/05 Nur wer die Sehnsuch kennt.flac

Track gain : -1.60 dB
Peak : 0.692169
CRC32 hash (test run) : A3973B3D
CRC32 hash : A3973B3D
CRC32 hash (skip zero) : 53507F8F
AccurateRip v1 signature : FC694B20
AccurateRip v2 signature : A71C40A3
->Accurately ripped (v2, confidence 2/5)
Statistics
Read error : 0
Jitter error (maybe fixed) : 0
Retry sector count : 0
Damaged sector count : 0

Track 06
Filename : /Rosa Ponselle on the Air Vol. 1 - 1934-36 [Marston]/CD 2/06 Here's to Romance - I Carry You in My Pocket.flac

Track gain : -5.09 dB
Peak : 0.606262
CRC32 hash (test run) : 864E5A5A
CRC32 hash : 864E5A5A
CRC32 hash (skip zero) : D5EE21C4
AccurateRip v1 signature : 165C83AF
AccurateRip v2 signature : AE50B1BD
->Accurately ripped (v2, confidence 2/5)
Statistics
Read error : 0
Jitter error (maybe fixed) : 0
Retry sector count : 0
Damaged sector count : 0

Track 07
Filename : /Rosa Ponselle on the Air Vol. 1 - 1934-36 [Marston]/CD 2/07 Carmen - Air des cartes.flac

Track gain : 0.19 dB
Peak : 0.522430
CRC32 hash (test run) : 15599B85
CRC32 hash : 15599B85
CRC32 hash (skip zero) : E8136395
AccurateRip v1 signature : 7C4FE437
AccurateRip v2 signature : F978468B
->Accurately ripped (v2, confidence 2/5)
Statistics
Read error : 0
Jitter error (maybe fixed) : 0
Retry sector count : 0
Damaged sector count : 0

Track 08
Filename : /Rosa Ponselle on the Air Vol. 1 - 1934-36 [Marston]/CD 2/08 Carmen - Seguedille.flac

Track gain : -4.85 dB
Peak : 0.835724
CRC32 hash (test run) : 32A2CD70
CRC32 hash : 32A2CD70
CRC32 hash (skip zero) : F39C55BB
AccurateRip v1 signature : 68E2F152
AccurateRip v2 signature : DC5B6357
->Accurately ripped (v2, confidence 2/5)
Statistics
Read error : 0
Jitter error (maybe fixed) : 0
Retry sector count : 0
Damaged sector count : 0

Track 09
Filename : /Rosa Ponselle on the Air Vol. 1 - 1934-36 [Marston]/CD 2/09 Der Erlkonig.flac

Track gain : -3.36 dB
Peak : 0.839264
CRC32 hash (test run) : 315711F5
CRC32 hash : 315711F5
CRC32 hash (skip zero) : 611B6BC7
AccurateRip v1 signature : 89663B95
AccurateRip v2 signature : E5A8E52A
->Accurately ripped (v2, confidence 2/5)
Statistics
Read error : 0
Jitter error (maybe fixed) : 0
Retry sector count : 0
Damaged sector count : 0

Track 10
Filename : /Rosa Ponselle on the Air Vol. 1 - 1934-36 [Marston]/CD 2/10 Danny Boy.flac

Track gain : -3.10 dB
Peak : 0.930389
CRC32 hash (test run) : AE6B3B5D
CRC32 hash : AE6B3B5D
CRC32 hash (skip zero) : B964A405
AccurateRip v1 signature : 29A50199
AccurateRip v2 signature : 73176069
->Accurately ripped (v2, confidence 2/5)
Statistics
Read error : 0
Jitter error (maybe fixed) : 0
Retry sector count : 0
Damaged sector count : 0

Track 11
Filename : /Rosa Ponselle on the Air Vol. 1 - 1934-36 [Marston]/CD 2/11 Clavelitos.flac

Track gain : -2.31 dB
Peak : 0.607605
CRC32 hash (test run) : 7ED9BCF0
CRC32 hash : 7ED9BCF0
CRC32 hash (skip zero) : F1DD0941
AccurateRip v1 signature : FBB76B82
AccurateRip v2 signature : 2A662CBE
->Accurately ripped (v2, confidence 2/5)
Statistics
Read error : 0
Jitter error (maybe fixed) : 0
Retry sector count : 0
Damaged sector count : 0

Track 12
Filename : /Rosa Ponselle on the Air Vol. 1 - 1934-36 [Marston]/CD 2/12 Carmen - Chanson boheme.flac

Track gain : -5.17 dB
Peak : 0.779633
CRC32 hash (test run) : 0E2D6B6F
CRC32 hash : 0E2D6B6F
CRC32 hash (skip zero) : CA0A55A3
AccurateRip v1 signature : 76C247CE
AccurateRip v2 signature : AA69CDAB
->Accurately ripped (v2, confidence 2/5)
Statistics
Read error : 0
Jitter error (maybe fixed) : 0
Retry sector count : 0
Damaged sector count : 0

Track 13
Filename : /Rosa Ponselle on the Air Vol. 1 - 1934-36 [Marston]/CD 2/13 Cavalleria rusticana - Voi lo sapete.flac

Track gain : -6.10 dB
Peak : 0.875854
CRC32 hash (test run) : 2EDC8C8E
CRC32 hash : 2EDC8C8E
CRC32 hash (skip zero) : 1A828EA2
AccurateRip v1 signature : FC970A70
AccurateRip v2 signature : 2E8313EF
->Accurately ripped (v2, confidence 2/5)
Statistics
Read error : 0
Jitter error (maybe fixed) : 0
Retry sector count : 0
Damaged sector count : 0

Track 14
Filename : /Rosa Ponselle on the Air Vol. 1 - 1934-36 [Marston]/CD 2/14 The Old Refrain.flac

Track gain : -1.40 dB
Peak : 0.644196
CRC32 hash (test run) : 0C3DF6A4
CRC32 hash : 0C3DF6A4
CRC32 hash (skip zero) : D49DD0E4
AccurateRip v1 signature : 8EB5C218
AccurateRip v2 signature : B79289DD
->Accurately ripped (v2, confidence 2/5)
Statistics
Read error : 0
Jitter error (maybe fixed) : 0
Retry sector count : 0
Damaged sector count : 0

Track 15
Filename : /Rosa Ponselle on the Air Vol. 1 - 1934-36 [Marston]/CD 2/15 Comin' Thro' the Rye.flac

Track gain : -2.69 dB
Peak : 0.841675
CRC32 hash (test run) : F108E787
CRC32 hash : F108E787
CRC32 hash (skip zero) : CBC3D97F
AccurateRip v1 signature : 0B21A19E
AccurateRip v2 signature : 5A450B76
->Accurately ripped (v2, confidence 2/5)
Statistics
Read error : 0
Jitter error (maybe fixed) : 0
Retry sector count : 0
Damaged sector count : 0

Track 16
Filename : /Rosa Ponselle on the Air Vol. 1 - 1934-36 [Marston]/CD 2/16 L'ultima canzone.flac

Track gain : -2.92 dB
Peak : 0.904694
CRC32 hash (test run) : 40A78600
CRC32 hash : 40A78600
CRC32 hash (skip zero) : 087D42EA
AccurateRip v1 signature : 392FA358
AccurateRip v2 signature : 36A9DCA2
->Accurately ripped (v2, confidence 2/5)
Statistics
Read error : 0
Jitter error (maybe fixed) : 0
Retry sector count : 0
Damaged sector count : 0

Track 17
Filename : /Rosa Ponselle on the Air Vol. 1 - 1934-36 [Marston]/CD 2/17 Fedra - O divina Afrodite.flac

Track gain : -4.37 dB
Peak : 0.681183
CRC32 hash (test run) : A94902D4
CRC32 hash : A94902D4
CRC32 hash (skip zero) : 8C546418
AccurateRip v1 signature : 5ECAACCD
AccurateRip v2 signature : 7AD45496
->Accurately ripped (v2, confidence 2/5)
Statistics
Read error : 0
Jitter error (maybe fixed) : 0
Retry sector count : 0
Damaged sector count : 0

Track 18
Filename : /Rosa Ponselle on the Air Vol. 1 - 1934-36 [Marston]/CD 2/18 Humoresque.flac

Track gain : -0.42 dB
Peak : 0.818512
CRC32 hash (test run) : 52B3E8B8
CRC32 hash : 52B3E8B8
CRC32 hash (skip zero) : E101929E
AccurateRip v1 signature : D3307379
AccurateRip v2 signature : FEA47E14
->Accurately ripped (v2, confidence 2/5)
Statistics
Read error : 0
Jitter error (maybe fixed) : 0
Retry sector count : 0
Damaged sector count : 0

Track 19
Filename : /Rosa Ponselle on the Air Vol. 1 - 1934-36 [Marston]/CD 2/19 When I Have Sung My Songs.flac

Track gain : -6.26 dB
Peak : 0.793213
CRC32 hash (test run) : DDDFB9A7
CRC32 hash : DDDFB9A7
CRC32 hash (skip zero) : B482C89F
AccurateRip v1 signature : 4FF378CB
AccurateRip v2 signature : 87415D11
->Accurately ripped (v2, confidence 2/5)
Statistics
Read error : 0
Jitter error (maybe fixed) : 0
Retry sector count : 0
Damaged sector count : 0

Track 20
Filename : /Rosa Ponselle on the Air Vol. 1 - 1934-36 [Marston]/CD 2/20 Ouvre ton coeur.flac

Track gain : -4.97 dB
Peak : 0.828156
CRC32 hash (test run) : A3B2D8C5
CRC32 hash : A3B2D8C5
CRC32 hash (skip zero) : 6295BE64
AccurateRip v1 signature : D918501C
AccurateRip v2 signature : 3DEBA2B5
->Accurately ripped (v2, confidence 2/5)
Statistics
Read error : 0
Jitter error (maybe fixed) : 0
Retry sector count : 0
Damaged sector count : 0

No errors occurred

End of status report

––-BEGIN XLD SIGNATURE––-
l079h.xhLa1j7jct7KJBAxZKC.76lSALds33yYS7V2aYw2h2cSZ4SbryU1g_Y.xNwNInw2_V6VNUL3e7FEeDw.vNNSRVMpcqXMovQCa
––-END XLD SIGNATURE––-


Rosa Ponselle - On The Air, Volume 1, 1934-1936 {2CD Set Marston 52012-2 rel 1999}


see more Rosa Ponselle…

NEXT -> more Rosa Ponselle on the way…


===