Subcategories

Rosa Ponselle - On The Air, Volume 2, 1936-1937 {2CD Set Marston 52032-2 rel 1999}

Posted By: ruskaval
Rosa Ponselle - On The Air, Volume 2, 1936-1937 {2CD Set Marston 52032-2 rel 1999}

Rosa Ponselle - On The Air, Volume 2, 1936-1937 {2CD Set Marston 52032-2 rel 1999}
XLD rip (secure mode) | FLAC (tracks)+CUE+LOG -> 449 Mb | MP3 @320 -> 366 Mb
Full Artwork @ 600 dpi (jpg) -> 49 Mb | 5% repair rar
© 1936-37, 2000 Marston | 52032-2
Classical / Vocal / Historical

Rosa Ponselle (1897-1981) was arguably this century's greatest soprano. Artists such as Callas and Caruso acknowledged her vocal supremacy. Ponselle's voice had volume, beauty, emotion, sure intonation and remarkable flexibility. This two-CD set chronicles the second volume of her on the air recordings from 1936-1937. By Ponselle's own account, her broadcasts captured her true voice and she preferred these performances to her numerous commercial recordings. This set has been produced in association with the Rosa Ponselle Foundation and a portion of the sales will go to the Rosa Ponselle Scholarship Fund.
Rosa Ponselle - On The Air, Volume 2, 1936-1937 {2CD Set Marston 52032-2 rel 1999}


marstonrecords.com INFO

TRACKLISTING

CD 1 (78:34)

CHESTERFIELD HOUR
25 March 1936
1. Ave Maria (Sandoval) 4:19
2. Ich liebe dich (Grieg) 2:10
3. The Night Wind (Farley) 1:47
4. CARMEN: Habanera (Bizet) 4:38
1 April 1936
5. LA VESTALE: Tu che invoco (Spontini) 4:36
6. Good-bye (Tosti) 4:31
7. Cuckoo Clock (Griselle and Young) 1:26
8. El Morenito (Buzzi-Peccia) 2:33
GENERAL MOTORS HOUR
24 May 1936
9. SEMIRAMIDE: Bel raggio (Rossini) 5:10
10. LA TRAVIATA: Addio del passato (Verdi) 5:08
11. CAVALLERIA RUSTICANA: Voi lo sapete (Mascagni) 3:24
12. Marechiare (Tosti) 3:00
13. Carry Me Back to Old Virginny (Bland) 4:08
GENERAL MOTORS HOUR
31 May 1936
14. Ave Maria (Schubert) missing orchestral closing 4:51
15. Annie Laurie (Traditional) 3:26
ERNESTINE SCHUMANN-HEINK: 75TH BIRTHDAY PARTY
15 June 1936
16. Wiegenlied (Brahms) 2:18
17. Home, Sweet Home (Bishop) 5:05
GENERAL MOTORS HOUR
27 September 1936
18. AIDA: Ritorna vincitor (Verdi) missing one bar 7:34
19. Dicitencello vuje (Falvo) 3:33
20. OTELLO: Ave Maria (Verdi) 4:48

Rosa Ponselle - On The Air, Volume 2, 1936-1937 {2CD Set Marston 52032-2 rel 1999}


CD 2 (74:56)
GENERAL MOTORS HOUR
27 September 1936
1. Ouvre ton coeur (Bizet) 2:46
2. Homing (Del Riego) 2:46
THEN AND NOW
10 December 1936
3. Moonlight Bay (Madden-Wenrich) 2:27
4. Carme (arr. De Curtis) 3:51
5. LA FORZA DEL DESTINO: La Vergine degli angeli (Verdi) 4:30
6. MADEMOISELLE MODISTE: Kiss Me Again (Herbert) 4:43
PROMS CONCERT, CINCINNATI OHIO
25 April 1937
7. Ave Maria (Kahn) 4:25
8. THE CHOCOLATE SOLDIER: My Hero (O. Straus) with Frank Forest 4:33
9. The Old Refrain (Kreisler) 4:39
10. Nur wer die Sehnsucht kennt (Tchaikovsky) 4:00
11. The Night Wind (Farley) 1:50
RCA MAGIC KEY
2 May 1937
12. FEDRA: O divina Afrodite (Romani) 4:50
13. Carry Me Back to Old Virginny (Bland) 3:38
14. MADEMOISELLE MODISTE: Kiss Me Again (Herbert) 4:35
15. My Old Kentucky Home (Foster) 4:12
16. Home, Sweet Home (Bishop) 4:24
ADDENDUM:
15 November 1933
17. Drink to Me Only with Thine Eyes (Traditional) 3:52
MGM SCREEN TEST
13 April 1936
18. Rosa Ponselle Conversation 2:56
19. CARMEN: Habanera (Bizet) 1:59
20. CARMEN: Chanson bohème (Bizet) 3:52


CD 1:
Tracks 1-8 and 18-20 originally broadcast from New York City.
Tracks 1-8 orchestra conducted by André Kostelanetz; tracks 18-20 conducted by Erno Rapee.
Tracks 9-13 and 16-17 originally broadcast from Los Angeles; tracks 9-13 orchestra conducted by Erno Rapee.
Tracks 14-15 originally broadcast from San Franciso; orchestra conducted by Erno Rapee.
Languages: Italian [1,5,9-11,18-20]; English [2-3, 6-7, 13, 15,17,]; French [4]; Spanish [8]; Neapolitan [12]; Latin [14] and German [16]

CD 2:
Tracks 1-6, 12-16 originally broadcast from New York City
Tracks 1-2 conducted by Erno Rapee; tracks 3-6 orchestra and chorus conducted by Kelsey; tracks 12-15 orchestra conducted by Frank Black and track 16 piano by Rosa Ponselle
Tracks 7-11 originally broadcast from Cinncinnati; orchestra conducted by Eugene Goossens.
Tracks 18-20 recorded in Hollywood
Languages: French [1,19-20]; English [2-3,6,8-9,11,13-18]; Italian [4-5,12]; German [10] and Latin [7]

Rosa Ponselle - On The Air, Volume 2, 1936-1937 {2CD Set Marston 52032-2 rel 1999}


X Lossless Decoder version 20170729 (150.3)

XLD extraction logfile from 2019-05-10 15:41:37 +0200

Rosa Ponselle / Rosa Ponselle on the Air Vol. 2 - 1936-37 [Marston]

Used drive : PLEXTOR DVDR PX-755A (revision 1.06)
Media type : Pressed CD

Ripper mode : XLD Secure Ripper
Disable audio cache : OK for the drive with a cache less than 1375KiB
Make use of C2 pointers : NO
Read offset correction : 30
Max retry count : 100
Gap status : Analyzed, Appended (except HTOA)

TOC of the extracted CD
Track | Start | Length | Start sector | End sector
––––––––––––––––––––––––––––-
1 | 00:00:00 | 04:19:35 | 0 | 19459
2 | 04:19:35 | 02:10:55 | 19460 | 29264
3 | 06:30:15 | 01:47:15 | 29265 | 37304
4 | 08:17:30 | 04:38:05 | 37305 | 58159
5 | 12:55:35 | 04:36:12 | 58160 | 78871
6 | 17:31:47 | 04:31:48 | 78872 | 99244
7 | 22:03:20 | 01:26:05 | 99245 | 105699
8 | 23:29:25 | 02:32:30 | 105700 | 117129
9 | 26:01:55 | 05:10:70 | 117130 | 140449
10 | 31:12:50 | 05:08:52 | 140450 | 163601
11 | 36:21:27 | 03:23:48 | 163602 | 178874
12 | 39:45:00 | 03:01:42 | 178875 | 192491
13 | 42:46:42 | 04:08:63 | 192492 | 211154
14 | 46:55:30 | 04:51:40 | 211155 | 233019
15 | 51:46:70 | 03:26:37 | 233020 | 248506
16 | 55:13:32 | 02:20:48 | 248507 | 259054
17 | 57:34:05 | 05:02:27 | 259055 | 281731
18 | 62:36:32 | 07:33:23 | 281732 | 315729
19 | 70:09:55 | 03:35:27 | 315730 | 331881
20 | 73:45:07 | 04:51:43 | 331882 | 353749

AccurateRip Summary (DiscID: 0034b99b-031125c0-26126c14)
Track 01 : OK (v2, confidence 2/2)
Track 02 : OK (v2, confidence 2/2)
Track 03 : OK (v2, confidence 2/2)
Track 04 : OK (v2, confidence 2/2)
Track 05 : OK (v2, confidence 2/2)
Track 06 : OK (v2, confidence 2/2)
Track 07 : OK (v2, confidence 2/2)
Track 08 : OK (v2, confidence 2/2)
Track 09 : OK (v2, confidence 2/2)
Track 10 : OK (v2, confidence 2/2)
Track 11 : OK (v2, confidence 2/2)
Track 12 : OK (v2, confidence 2/2)
Track 13 : OK (v2, confidence 2/2)
Track 14 : OK (v2, confidence 2/2)
Track 15 : OK (v2, confidence 2/2)
Track 16 : OK (v2, confidence 2/2)
Track 17 : OK (v2, confidence 2/2)
Track 18 : OK (v2, confidence 2/2)
Track 19 : OK (v2, confidence 2/2)
Track 20 : OK (v2, confidence 2/2)
->All tracks accurately ripped.

All Tracks
Album gain : -0.44 dB
Peak : 0.882050
Statistics
Read error : 0
Jitter error (maybe fixed) : 0
Retry sector count : 0
Damaged sector count : 0

Track 01
Filename : /Rosa Ponselle on the Air Vol. 2 - 1936-37 [Marston]/CD 1/01 Ave Maria.flac
Pre-gap length : 00:02:00

Track gain : -0.53 dB
Peak : 0.528107
CRC32 hash (test run) : 0B3E077B
CRC32 hash : 0B3E077B
CRC32 hash (skip zero) : 79E96104
AccurateRip v1 signature : 88B93119
AccurateRip v2 signature : 09ECE86E
->Accurately ripped (v2, confidence 2/2)
Statistics
Read error : 0
Jitter error (maybe fixed) : 0
Retry sector count : 0
Damaged sector count : 0

Track 02
Filename : /Rosa Ponselle on the Air Vol. 2 - 1936-37 [Marston]/CD 1/02 Ich liebe dich.flac

Track gain : -3.63 dB
Peak : 0.609833
CRC32 hash (test run) : 25EF51AE
CRC32 hash : 25EF51AE
CRC32 hash (skip zero) : 84BF584A
AccurateRip v1 signature : 867FFD7F
AccurateRip v2 signature : 7FE93067
->Accurately ripped (v2, confidence 2/2)
Statistics
Read error : 0
Jitter error (maybe fixed) : 0
Retry sector count : 0
Damaged sector count : 0

Track 03
Filename : /Rosa Ponselle on the Air Vol. 2 - 1936-37 [Marston]/CD 1/03 The Night Wind.flac

Track gain : -1.03 dB
Peak : 0.694794
CRC32 hash (test run) : 11ECE83B
CRC32 hash : 11ECE83B
CRC32 hash (skip zero) : CB69930A
AccurateRip v1 signature : 91AD8851
AccurateRip v2 signature : 0CA6E26B
->Accurately ripped (v2, confidence 2/2)
Statistics
Read error : 0
Jitter error (maybe fixed) : 0
Retry sector count : 0
Damaged sector count : 0

Track 04
Filename : /Rosa Ponselle on the Air Vol. 2 - 1936-37 [Marston]/CD 1/04 Carmen - Habanera.flac

Track gain : 0.89 dB
Peak : 0.709015
CRC32 hash (test run) : F24AE5BE
CRC32 hash : F24AE5BE
CRC32 hash (skip zero) : 9A2ADCC0
AccurateRip v1 signature : 6160F0C7
AccurateRip v2 signature : B4B1B5EB
->Accurately ripped (v2, confidence 2/2)
Statistics
Read error : 0
Jitter error (maybe fixed) : 0
Retry sector count : 0
Damaged sector count : 0

Track 05
Filename : /Rosa Ponselle on the Air Vol. 2 - 1936-37 [Marston]/CD 1/05 La vestale - Tu che invoco.flac

Track gain : -2.71 dB
Peak : 0.612488
CRC32 hash (test run) : 285482ED
CRC32 hash : 285482ED
CRC32 hash (skip zero) : A6EBD9E9
AccurateRip v1 signature : C991A3A1
AccurateRip v2 signature : 3B8E96E2
->Accurately ripped (v2, confidence 2/2)
Statistics
Read error : 0
Jitter error (maybe fixed) : 0
Retry sector count : 0
Damaged sector count : 0

Track 06
Filename : /Rosa Ponselle on the Air Vol. 2 - 1936-37 [Marston]/CD 1/06 Good-bye.flac

Track gain : -3.72 dB
Peak : 0.672821
CRC32 hash (test run) : 48B6363C
CRC32 hash : 48B6363C
CRC32 hash (skip zero) : 223634C2
AccurateRip v1 signature : 992D0796
AccurateRip v2 signature : 7ABC21CC
->Accurately ripped (v2, confidence 2/2)
Statistics
Read error : 0
Jitter error (maybe fixed) : 0
Retry sector count : 0
Damaged sector count : 0

Track 07
Filename : /Rosa Ponselle on the Air Vol. 2 - 1936-37 [Marston]/CD 1/07 Cuckoo Clock.flac

Track gain : -3.45 dB
Peak : 0.658386
CRC32 hash (test run) : 92558060
CRC32 hash : 92558060
CRC32 hash (skip zero) : 6E3CE636
AccurateRip v1 signature : BC7E435F
AccurateRip v2 signature : 26DEF05A
->Accurately ripped (v2, confidence 2/2)
Statistics
Read error : 0
Jitter error (maybe fixed) : 0
Retry sector count : 0
Damaged sector count : 0

Track 08
Filename : /Rosa Ponselle on the Air Vol. 2 - 1936-37 [Marston]/CD 1/08 El Morenito.flac

Track gain : -4.04 dB
Peak : 0.882050
CRC32 hash (test run) : EB0C8548
CRC32 hash : EB0C8548
CRC32 hash (skip zero) : D04192BF
AccurateRip v1 signature : 56D915C4
AccurateRip v2 signature : 43AAD857
->Accurately ripped (v2, confidence 2/2)
Statistics
Read error : 0
Jitter error (maybe fixed) : 0
Retry sector count : 0
Damaged sector count : 0

Track 09
Filename : /Rosa Ponselle on the Air Vol. 2 - 1936-37 [Marston]/CD 1/09 Semiramide - Bel raggio.flac

Track gain : 0.32 dB
Peak : 0.822510
CRC32 hash (test run) : E991DD80
CRC32 hash : E991DD80
CRC32 hash (skip zero) : 6632E1F7
AccurateRip v1 signature : 9A5C218C
AccurateRip v2 signature : 42EDB1E2
->Accurately ripped (v2, confidence 2/2)
Statistics
Read error : 0
Jitter error (maybe fixed) : 0
Retry sector count : 0
Damaged sector count : 0

Track 10
Filename : /Rosa Ponselle on the Air Vol. 2 - 1936-37 [Marston]/CD 1/10 La traviata - Addio del passato.flac

Track gain : -0.54 dB
Peak : 0.682922
CRC32 hash (test run) : EFE1846E
CRC32 hash : EFE1846E
CRC32 hash (skip zero) : 0F8E1E58
AccurateRip v1 signature : D2114ED1
AccurateRip v2 signature : D6F15A34
->Accurately ripped (v2, confidence 2/2)
Statistics
Read error : 0
Jitter error (maybe fixed) : 0
Retry sector count : 0
Damaged sector count : 0

Track 11
Filename : /Rosa Ponselle on the Air Vol. 2 - 1936-37 [Marston]/CD 1/11 Cavalleria rusticana - Voi lo sapete.flac

Track gain : -0.28 dB
Peak : 0.549622
CRC32 hash (test run) : 4352DCD4
CRC32 hash : 4352DCD4
CRC32 hash (skip zero) : 1B2F3A7A
AccurateRip v1 signature : 1F7E7F4D
AccurateRip v2 signature : 9D764BB8
->Accurately ripped (v2, confidence 2/2)
Statistics
Read error : 0
Jitter error (maybe fixed) : 0
Retry sector count : 0
Damaged sector count : 0

Track 12
Filename : /Rosa Ponselle on the Air Vol. 2 - 1936-37 [Marston]/CD 1/12 Marechiare.flac

Track gain : 2.15 dB
Peak : 0.399811
CRC32 hash (test run) : BF44EA34
CRC32 hash : BF44EA34
CRC32 hash (skip zero) : 7DA03AB7
AccurateRip v1 signature : CB83F33E
AccurateRip v2 signature : E6F79162
->Accurately ripped (v2, confidence 2/2)
Statistics
Read error : 0
Jitter error (maybe fixed) : 0
Retry sector count : 0
Damaged sector count : 0

Track 13
Filename : /Rosa Ponselle on the Air Vol. 2 - 1936-37 [Marston]/CD 1/13 Carry Me Back to Old Virginny.flac

Track gain : 2.54 dB
Peak : 0.534515
CRC32 hash (test run) : 08B2D8A2
CRC32 hash : 08B2D8A2
CRC32 hash (skip zero) : 51D6CDD2
AccurateRip v1 signature : F6BED49F
AccurateRip v2 signature : F7E5381F
->Accurately ripped (v2, confidence 2/2)
Statistics
Read error : 0
Jitter error (maybe fixed) : 0
Retry sector count : 0
Damaged sector count : 0

Track 14
Filename : /Rosa Ponselle on the Air Vol. 2 - 1936-37 [Marston]/CD 1/14 Ave Maria [missing orchestral closing].flac

Track gain : -0.48 dB
Peak : 0.407288
CRC32 hash (test run) : 071539D0
CRC32 hash : 071539D0
CRC32 hash (skip zero) : 90D7B286
AccurateRip v1 signature : 9001D0B6
AccurateRip v2 signature : 00A82FBD
->Accurately ripped (v2, confidence 2/2)
Statistics
Read error : 0
Jitter error (maybe fixed) : 0
Retry sector count : 0
Damaged sector count : 0

Track 15
Filename : /Rosa Ponselle on the Air Vol. 2 - 1936-37 [Marston]/CD 1/15 Annnie Laurie.flac

Track gain : 0.19 dB
Peak : 0.398621
CRC32 hash (test run) : 5EF17C56
CRC32 hash : 5EF17C56
CRC32 hash (skip zero) : 3C24899D
AccurateRip v1 signature : 0ACFD71D
AccurateRip v2 signature : 09632F88
->Accurately ripped (v2, confidence 2/2)
Statistics
Read error : 0
Jitter error (maybe fixed) : 0
Retry sector count : 0
Damaged sector count : 0

Track 16
Filename : /Rosa Ponselle on the Air Vol. 2 - 1936-37 [Marston]/CD 1/16 Wiegenlied.flac

Track gain : 1.16 dB
Peak : 0.544373
CRC32 hash (test run) : DC1F7E7A
CRC32 hash : DC1F7E7A
CRC32 hash (skip zero) : 9ACCEEBD
AccurateRip v1 signature : 2A73E6EC
AccurateRip v2 signature : 0B3001F7
->Accurately ripped (v2, confidence 2/2)
Statistics
Read error : 0
Jitter error (maybe fixed) : 0
Retry sector count : 0
Damaged sector count : 0

Track 17
Filename : /Rosa Ponselle on the Air Vol. 2 - 1936-37 [Marston]/CD 1/17 Home, Sweet Home.flac

Track gain : 1.59 dB
Peak : 0.547455
CRC32 hash (test run) : BAAD0EFC
CRC32 hash : BAAD0EFC
CRC32 hash (skip zero) : F9615915
AccurateRip v1 signature : 54754FD2
AccurateRip v2 signature : 6035C13A
->Accurately ripped (v2, confidence 2/2)
Statistics
Read error : 0
Jitter error (maybe fixed) : 0
Retry sector count : 0
Damaged sector count : 0

Track 18
Filename : /Rosa Ponselle on the Air Vol. 2 - 1936-37 [Marston]/CD 1/18 Aida - Ritorna vincitor [missing one bar].flac

Track gain : 0.86 dB
Peak : 0.667450
CRC32 hash (test run) : EFF64F0E
CRC32 hash : EFF64F0E
CRC32 hash (skip zero) : BFE54978
AccurateRip v1 signature : AE274438
AccurateRip v2 signature : 71BEE290
->Accurately ripped (v2, confidence 2/2)
Statistics
Read error : 0
Jitter error (maybe fixed) : 0
Retry sector count : 0
Damaged sector count : 0

Track 19
Filename : /Rosa Ponselle on the Air Vol. 2 - 1936-37 [Marston]/CD 1/19 Dicitencello vuje.flac

Track gain : 0.74 dB
Peak : 0.385284
CRC32 hash (test run) : C789AB5D
CRC32 hash : C789AB5D
CRC32 hash (skip zero) : DBACC073
AccurateRip v1 signature : 2FB6AAD3
AccurateRip v2 signature : F0998C95
->Accurately ripped (v2, confidence 2/2)
Statistics
Read error : 0
Jitter error (maybe fixed) : 0
Retry sector count : 0
Damaged sector count : 0

Track 20
Filename : /Rosa Ponselle on the Air Vol. 2 - 1936-37 [Marston]/CD 1/20 Otello - Ave Maria.flac

Track gain : 4.35 dB
Peak : 0.410248
CRC32 hash (test run) : FBEC86D8
CRC32 hash : FBEC86D8
CRC32 hash (skip zero) : AF3FB0F3
AccurateRip v1 signature : 6D944FB0
AccurateRip v2 signature : 6A3648CA
->Accurately ripped (v2, confidence 2/2)
Statistics
Read error : 0
Jitter error (maybe fixed) : 0
Retry sector count : 0
Damaged sector count : 0

No errors occurred

End of status report

––-BEGIN XLD SIGNATURE––-
JYeLdyQgRpmRCxe0ZBktmxGgTdsBC3LzO8NhJGxiOrBtIaX7fn3QoRdrLsRoR_8KZEtIFulRq.r9Naect3vETb0ch_xITnUzQnFcNle
––-END XLD SIGNATURE––-
X Lossless Decoder version 20170729 (150.3)

XLD extraction logfile from 2019-05-10 16:00:24 +0200

Rosa Ponselle / Rosa Ponselle on the Air Vol. 2 - 1936-37 [Marston]

Used drive : PLEXTOR DVDR PX-755A (revision 1.06)
Media type : Pressed CD

Ripper mode : XLD Secure Ripper
Disable audio cache : OK for the drive with a cache less than 1375KiB
Make use of C2 pointers : NO
Read offset correction : 30
Max retry count : 100
Gap status : Analyzed, Appended (except HTOA)

TOC of the extracted CD
Track | Start | Length | Start sector | End sector
––––––––––––––––––––––––––––-
1 | 00:00:00 | 02:46:07 | 0 | 12456
2 | 02:46:07 | 02:46:00 | 12457 | 24906
3 | 05:32:07 | 02:27:55 | 24907 | 35986
4 | 07:59:62 | 03:51:53 | 35987 | 53364
5 | 11:51:40 | 04:30:25 | 53365 | 73639
6 | 16:21:65 | 04:43:60 | 73640 | 94924
7 | 21:05:50 | 04:24:62 | 94925 | 114786
8 | 25:30:37 | 04:32:40 | 114787 | 135226
9 | 30:03:02 | 04:41:35 | 135227 | 156336
10 | 34:44:37 | 04:01:25 | 156337 | 174436
11 | 38:45:62 | 01:49:25 | 174437 | 182636
12 | 40:35:12 | 04:51:60 | 182637 | 204521
13 | 45:26:72 | 03:35:50 | 204522 | 220696
14 | 49:02:47 | 04:35:20 | 220697 | 241341
15 | 53:37:67 | 04:12:18 | 241342 | 260259
16 | 57:50:10 | 04:24:62 | 260260 | 280121
17 | 62:14:72 | 03:56:08 | 280122 | 297829
18 | 66:11:05 | 02:57:60 | 297830 | 311164
19 | 69:08:65 | 03:54:65 | 311165 | 328779
20 | 73:03:55 | 01:55:42 | 328780 | 337446

AccurateRip Summary (DiscID: 00360787-032376ee-2b119314)
Track 01 : OK (v2, confidence 2/2)
Track 02 : OK (v2, confidence 2/2)
Track 03 : OK (v2, confidence 2/2)
Track 04 : OK (v2, confidence 2/2)
Track 05 : OK (v2, confidence 2/2)
Track 06 : OK (v2, confidence 2/2)
Track 07 : OK (v2, confidence 2/2)
Track 08 : OK (v2, confidence 2/2)
Track 09 : OK (v2, confidence 2/2)
Track 10 : OK (v2, confidence 2/2)
Track 11 : OK (v2, confidence 2/2)
Track 12 : OK (v2, confidence 2/2)
Track 13 : OK (v2, confidence 2/2)
Track 14 : OK (v2, confidence 2/2)
Track 15 : OK (v2, confidence 2/2)
Track 16 : OK (v2, confidence 2/2)
Track 17 : OK (v2, confidence 2/2)
Track 18 : OK (v2, confidence 2/2)
Track 19 : OK (v2, confidence 2/2)
Track 20 : OK (v2, confidence 2/2)
->All tracks accurately ripped.

All Tracks
Album gain : -2.17 dB
Peak : 1.000000
Statistics
Read error : 0
Jitter error (maybe fixed) : 0
Retry sector count : 0
Damaged sector count : 0

Track 01
Filename : /Rosa Ponselle on the Air Vol. 2 - 1936-37 [Marston]/CD 2/01 Ouvre ton coeur.flac
Pre-gap length : 00:02:00

Track gain : 0.90 dB
Peak : 0.546326
CRC32 hash (test run) : B9AADFC4
CRC32 hash : B9AADFC4
CRC32 hash (skip zero) : 5D8312E6
AccurateRip v1 signature : B63C2307
AccurateRip v2 signature : 93FD5C40
->Accurately ripped (v2, confidence 2/2)
Statistics
Read error : 0
Jitter error (maybe fixed) : 0
Retry sector count : 0
Damaged sector count : 0

Track 02
Filename : /Rosa Ponselle on the Air Vol. 2 - 1936-37 [Marston]/CD 2/02 Homing.flac

Track gain : 0.47 dB
Peak : 0.441864
CRC32 hash (test run) : 5724CA37
CRC32 hash : 5724CA37
CRC32 hash (skip zero) : D5D31550
AccurateRip v1 signature : 52CEFC2C
AccurateRip v2 signature : 03D168D2
->Accurately ripped (v2, confidence 2/2)
Statistics
Read error : 0
Jitter error (maybe fixed) : 0
Retry sector count : 0
Damaged sector count : 0

Track 03
Filename : /Rosa Ponselle on the Air Vol. 2 - 1936-37 [Marston]/CD 2/03 Moonlight Bay.flac

Track gain : -1.06 dB
Peak : 0.625427
CRC32 hash (test run) : 55EFBE0F
CRC32 hash : 55EFBE0F
CRC32 hash (skip zero) : F601D37E
AccurateRip v1 signature : D667FC88
AccurateRip v2 signature : 00F1C907
->Accurately ripped (v2, confidence 2/2)
Statistics
Read error : 0
Jitter error (maybe fixed) : 0
Retry sector count : 0
Damaged sector count : 0

Track 04
Filename : /Rosa Ponselle on the Air Vol. 2 - 1936-37 [Marston]/CD 2/04 Carme.flac

Track gain : -1.10 dB
Peak : 0.636322
CRC32 hash (test run) : 07AF95C6
CRC32 hash : 07AF95C6
CRC32 hash (skip zero) : 19704EB9
AccurateRip v1 signature : 433F32BA
AccurateRip v2 signature : B3FAC4B0
->Accurately ripped (v2, confidence 2/2)
Statistics
Read error : 0
Jitter error (maybe fixed) : 0
Retry sector count : 0
Damaged sector count : 0

Track 05
Filename : /Rosa Ponselle on the Air Vol. 2 - 1936-37 [Marston]/CD 2/05 La forza del destino - La Vergine degli angeli.flac

Track gain : -1.32 dB
Peak : 0.698822
CRC32 hash (test run) : DF93CCA5
CRC32 hash : DF93CCA5
CRC32 hash (skip zero) : 8EECBEE3
AccurateRip v1 signature : 9CFB590D
AccurateRip v2 signature : AF5C8E73
->Accurately ripped (v2, confidence 2/2)
Statistics
Read error : 0
Jitter error (maybe fixed) : 0
Retry sector count : 0
Damaged sector count : 0

Track 06
Filename : /Rosa Ponselle on the Air Vol. 2 - 1936-37 [Marston]/CD 2/06 Mademoiselle Modiste - Kiss Me Again.flac

Track gain : -2.93 dB
Peak : 0.667175
CRC32 hash (test run) : C5C8147A
CRC32 hash : C5C8147A
CRC32 hash (skip zero) : FE9E393B
AccurateRip v1 signature : 162D4AC2
AccurateRip v2 signature : F14C7CF8
->Accurately ripped (v2, confidence 2/2)
Statistics
Read error : 0
Jitter error (maybe fixed) : 0
Retry sector count : 0
Damaged sector count : 0

Track 07
Filename : /Rosa Ponselle on the Air Vol. 2 - 1936-37 [Marston]/CD 2/07 Ave Maria.flac

Track gain : -4.57 dB
Peak : 0.631317
CRC32 hash (test run) : 0D03FCBD
CRC32 hash : 0D03FCBD
CRC32 hash (skip zero) : DF7FAEA3
AccurateRip v1 signature : C68C5DC1
AccurateRip v2 signature : 41F9E659
->Accurately ripped (v2, confidence 2/2)
Statistics
Read error : 0
Jitter error (maybe fixed) : 0
Retry sector count : 0
Damaged sector count : 0

Track 08
Filename : /Rosa Ponselle on the Air Vol. 2 - 1936-37 [Marston]/CD 2/08 The Chocolate Soldier - My Hero.flac

Track gain : -0.95 dB
Peak : 0.518921
CRC32 hash (test run) : 224596F6
CRC32 hash : 224596F6
CRC32 hash (skip zero) : 2856543E
AccurateRip v1 signature : 4898C11C
AccurateRip v2 signature : F3BD9C2C
->Accurately ripped (v2, confidence 2/2)
Statistics
Read error : 0
Jitter error (maybe fixed) : 0
Retry sector count : 0
Damaged sector count : 0

Track 09
Filename : /Rosa Ponselle on the Air Vol. 2 - 1936-37 [Marston]/CD 2/09 The Old Refrain.flac

Track gain : 0.06 dB
Peak : 0.343140
CRC32 hash (test run) : A44C9BE6
CRC32 hash : A44C9BE6
CRC32 hash (skip zero) : AAB420EE
AccurateRip v1 signature : 34564BA1
AccurateRip v2 signature : 6821D8D1
->Accurately ripped (v2, confidence 2/2)
Statistics
Read error : 0
Jitter error (maybe fixed) : 0
Retry sector count : 0
Damaged sector count : 0

Track 10
Filename : /Rosa Ponselle on the Air Vol. 2 - 1936-37 [Marston]/CD 2/10 Nur wer die Sehnsucht kennt.flac

Track gain : 1.90 dB
Peak : 0.379486
CRC32 hash (test run) : CB9D1E88
CRC32 hash : CB9D1E88
CRC32 hash (skip zero) : E03E0BA7
AccurateRip v1 signature : 57F55E38
AccurateRip v2 signature : 5B0FCF5E
->Accurately ripped (v2, confidence 2/2)
Statistics
Read error : 0
Jitter error (maybe fixed) : 0
Retry sector count : 0
Damaged sector count : 0

Track 11
Filename : /Rosa Ponselle on the Air Vol. 2 - 1936-37 [Marston]/CD 2/11 The Night Wind.flac

Track gain : -3.66 dB
Peak : 0.537994
CRC32 hash (test run) : 8396B056
CRC32 hash : 8396B056
CRC32 hash (skip zero) : C69290C2
AccurateRip v1 signature : E1DF5301
AccurateRip v2 signature : A665D971
->Accurately ripped (v2, confidence 2/2)
Statistics
Read error : 0
Jitter error (maybe fixed) : 0
Retry sector count : 0
Damaged sector count : 0

Track 12
Filename : /Rosa Ponselle on the Air Vol. 2 - 1936-37 [Marston]/CD 2/12 Fedra - O divina Afrodite.flac

Track gain : -3.23 dB
Peak : 0.776123
CRC32 hash (test run) : 6A374046
CRC32 hash : 6A374046
CRC32 hash (skip zero) : BB091559
AccurateRip v1 signature : 2495A489
AccurateRip v2 signature : 9DA9656F
->Accurately ripped (v2, confidence 2/2)
Statistics
Read error : 0
Jitter error (maybe fixed) : 0
Retry sector count : 0
Damaged sector count : 0

Track 13
Filename : /Rosa Ponselle on the Air Vol. 2 - 1936-37 [Marston]/CD 2/13 Carry Me Back to Old Virginny.flac

Track gain : 2.06 dB
Peak : 0.344818
CRC32 hash (test run) : 8361ADB8
CRC32 hash : 8361ADB8
CRC32 hash (skip zero) : 223C9D5E
AccurateRip v1 signature : 9FE6DE00
AccurateRip v2 signature : F86E8847
->Accurately ripped (v2, confidence 2/2)
Statistics
Read error : 0
Jitter error (maybe fixed) : 0
Retry sector count : 0
Damaged sector count : 0

Track 14
Filename : /Rosa Ponselle on the Air Vol. 2 - 1936-37 [Marston]/CD 2/14 Mademoiselle Modiste - Kiss Me Again.flac

Track gain : -5.18 dB
Peak : 0.837891
CRC32 hash (test run) : 8EC7A4B6
CRC32 hash : 8EC7A4B6
CRC32 hash (skip zero) : CEBF4CA3
AccurateRip v1 signature : 04252B10
AccurateRip v2 signature : CE0EBF35
->Accurately ripped (v2, confidence 2/2)
Statistics
Read error : 0
Jitter error (maybe fixed) : 0
Retry sector count : 0
Damaged sector count : 0

Track 15
Filename : /Rosa Ponselle on the Air Vol. 2 - 1936-37 [Marston]/CD 2/15 My Old Kentucky Home.flac

Track gain : -3.57 dB
Peak : 0.806122
CRC32 hash (test run) : 7EE77688
CRC32 hash : 7EE77688
CRC32 hash (skip zero) : 2236B4D8
AccurateRip v1 signature : 1F6AAECB
AccurateRip v2 signature : 0125E1C1
->Accurately ripped (v2, confidence 2/2)
Statistics
Read error : 0
Jitter error (maybe fixed) : 0
Retry sector count : 0
Damaged sector count : 0

Track 16
Filename : /Rosa Ponselle on the Air Vol. 2 - 1936-37 [Marston]/CD 2/16 Home, Sweet Home.flac

Track gain : -1.79 dB
Peak : 0.842010
CRC32 hash (test run) : 73CAF842
CRC32 hash : 73CAF842
CRC32 hash (skip zero) : F8E29E08
AccurateRip v1 signature : 5ACB8AA3
AccurateRip v2 signature : FDEB27F5
->Accurately ripped (v2, confidence 2/2)
Statistics
Read error : 0
Jitter error (maybe fixed) : 0
Retry sector count : 0
Damaged sector count : 0

Track 17
Filename : /Rosa Ponselle on the Air Vol. 2 - 1936-37 [Marston]/CD 2/17 Drink to Me Only with Thine Eyes.flac

Track gain : -2.61 dB
Peak : 0.647858
CRC32 hash (test run) : C21127EC
CRC32 hash : C21127EC
CRC32 hash (skip zero) : CC3CDFB9
AccurateRip v1 signature : 2C275E82
AccurateRip v2 signature : B3B2D528
->Accurately ripped (v2, confidence 2/2)
Statistics
Read error : 0
Jitter error (maybe fixed) : 0
Retry sector count : 0
Damaged sector count : 0

Track 18
Filename : /Rosa Ponselle on the Air Vol. 2 - 1936-37 [Marston]/CD 2/18 Rosa Ponselle Conversation.flac

Track gain : 1.82 dB
Peak : 1.000000
CRC32 hash (test run) : 0951647E
CRC32 hash : 0951647E
CRC32 hash (skip zero) : 6276F901
AccurateRip v1 signature : A4F61286
AccurateRip v2 signature : A86AC88A
->Accurately ripped (v2, confidence 2/2)
Statistics
Read error : 0
Jitter error (maybe fixed) : 0
Retry sector count : 0
Damaged sector count : 0

Track 19
Filename : /Rosa Ponselle on the Air Vol. 2 - 1936-37 [Marston]/CD 2/19 Carmen - Habanera.flac

Track gain : -1.40 dB
Peak : 0.600555
CRC32 hash (test run) : 0D3625A8
CRC32 hash : 0D3625A8
CRC32 hash (skip zero) : C0E0279E
AccurateRip v1 signature : C2375FA2
AccurateRip v2 signature : E1F11285
->Accurately ripped (v2, confidence 2/2)
Statistics
Read error : 0
Jitter error (maybe fixed) : 0
Retry sector count : 0
Damaged sector count : 0

Track 20
Filename : /Rosa Ponselle on the Air Vol. 2 - 1936-37 [Marston]/CD 2/20 Carmen - Chanson boheme.flac

Track gain : -4.06 dB
Peak : 0.605804
CRC32 hash (test run) : 3ADB68D1
CRC32 hash : 3ADB68D1
CRC32 hash (skip zero) : 84F1B67B
AccurateRip v1 signature : 51721940
AccurateRip v2 signature : B05327DC
->Accurately ripped (v2, confidence 2/2)
Statistics
Read error : 0
Jitter error (maybe fixed) : 0
Retry sector count : 0
Damaged sector count : 0

No errors occurred

End of status report

––-BEGIN XLD SIGNATURE––-
P2dpnDAg5PDCTkPETbndZfIwYO2E55d1CW7sFLfi4KL9f1HzYxOUBYAkUtaEZpmDzOQjoVAISV6.7ii6y6nnWbdD._P1tz6V3ohQ1n4
––-END XLD SIGNATURE––-


Rosa Ponselle - On The Air, Volume 2, 1936-1937 {2CD Set Marston 52032-2 rel 1999}


see more Rosa Ponselle…

NEXT -> more Rosa Ponselle on the way…


===