Subcategories

The Rubinstein Collection Volume 69 - Chopin (w/ Ormandy & Wallenstein)

Posted By: wursthans
The Rubinstein Collection Volume 69 - Chopin (w/ Ormandy & Wallenstein)

The Rubinstein Collection Volume 69 - Chopin (w/Wallenstein & Ormandy
Genre: Romantic Piano Concertos | 1 CD | EAC & FLAC (CUE+LOG) | Complete Covers & PDF | 291 MB
1958 & 1968 recording, 2003 release | Publisher: RCA Red Seal 09026 63069-2
RapidShare


Works/Tracks

1. (00:14:22) Concerto for Piano & Orchestra No. 2 in F minor, Op. 21: I. Maestoso
2. (00:09:13) Concerto for Piano & Orchestra No. 2 in F minor, Op. 21: II. Larghetto
3. (00:08:45) Concerto for Piano & Orchestra No. 2 in F minor, Op. 21: III. Allegro vivace
4. (00:03:44) Fantasia on Polish Airs, Op. 13: I. Largo non troppo
5. (00:03:14) Fantasia on Polish Airs, Op. 13: II. Andantino
6. (00:07:30) Fantasia on Polish Airs, Op. 13: III. Kujawiak: Vivace
* 7. (00:04:56) Andante spianato & Grande Polonaise, Op. 22: I. Andante spianato*
* 8. (00:09:05) Andante spianato & Grande Polonaise, Op. 22: II. Grande polonaise*

Performers

Arthur Rubinstein (piano)
Philadelphia Orchestra & Eugene Ormandy
Symphony Of The Air & Alfred Wallenstein*

Exact Audio Copy V0.99 prebeta 5 from 4. May 2009

EAC extraction logfile from 8. June 2009, 22:49

Arthur Rubinstein / The Rubinstein Collection Volume 69 - Chopin

Used drive : PLEXTOR CD-R PREMIUM2 Adapter: 3 ID: 0

Read mode : Secure
Utilize accurate stream : Yes
Defeat audio cache : Yes
Make use of C2 pointers : No

Read offset correction : 30
Overread into Lead-In and Lead-Out : Yes
Fill up missing offset samples with silence : Yes
Delete leading and trailing silent blocks : No
Null samples used in CRC calculations : Yes
Used interface : Native Win32 interface for Win NT & 2000
Gap handling : Appended to previous track

Used output format : User Defined Encoder
Selected bitrate : 128 kBit/s
Quality : High
Add ID3 tag : No
Command line compressor : D:\Programme\EAC099\Flac\flac.exe
Additional command line options : -5 -V -T "ARTIST=%a" -T "TITLE=%t" -T "ALBUM=%g" -T "DATE=%y" -T "TRACKNUMBER=%n" -T "TOTALTRACKS=%x" -T "GENRE=%m" -T "ALBUM ARTIST=%v" -T "ALBUMARTIST=%v" -T "COMMENT=EAC V0.99 prebeta 5, Secure Mode, Test & Copy, Accurat


TOC of the extracted CD

Track | Start | Length | Start sector | End sector
––––––––––––––––––––––––––––-
1 | 0:00.00 | 14:21.50 | 0 | 64624
2 | 14:21.50 | 9:13.22 | 64625 | 106121
3 | 23:34.72 | 8:45.05 | 106122 | 145501
4 | 32:20.02 | 3:43.45 | 145502 | 162271
5 | 36:03.47 | 3:14.25 | 162272 | 176846
6 | 39:17.72 | 7:29.63 | 176847 | 210584
7 | 46:47.60 | 4:56.15 | 210585 | 232799
8 | 51:44.00 | 9:05.37 | 232800 | 273711


Track 1

Filename E:\The Rubinstein Collection Volume 69 - Chopin (2003) [FLAC]\01 - [Op. 21] I. Maestoso.wav

Pre-gap length 0:00:02.00

Peak level 98.3 %
Track quality 100.0 %
Test CRC AB4A9369
Copy CRC AB4A9369
Cannot be verified as accurate (confidence 3) [B864C715], AccurateRip returned [D2CE4361]
Copy OK

Track 2

Filename E:\The Rubinstein Collection Volume 69 - Chopin (2003) [FLAC]\02 - [Op. 21] II. Larghetto.wav

Pre-gap length 0:00:02.30

Peak level 85.0 %
Track quality 100.0 %
Test CRC 1C5CDE76
Copy CRC 1C5CDE76
Cannot be verified as accurate (confidence 3) [BD7D6017], AccurateRip returned [324C691F]
Copy OK

Track 3

Filename E:\The Rubinstein Collection Volume 69 - Chopin (2003) [FLAC]\03 - [Op. 21] III. Allegro vivace.wav

Pre-gap length 0:00:02.36

Peak level 98.1 %
Track quality 100.0 %
Test CRC 3209A176
Copy CRC 3209A176
Cannot be verified as accurate (confidence 3) [0FDE3F15], AccurateRip returned [BC945C46]
Copy OK

Track 4

Filename E:\The Rubinstein Collection Volume 69 - Chopin (2003) [FLAC]\04 - [Op. 13] I. Largo non troppo.wav

Pre-gap length 0:00:08.53

Peak level 87.6 %
Track quality 100.0 %
Test CRC FC1E3D58
Copy CRC FC1E3D58
Cannot be verified as accurate (confidence 3) [918D3466], AccurateRip returned [F5FBF31A]
Copy OK

Track 5

Filename E:\The Rubinstein Collection Volume 69 - Chopin (2003) [FLAC]\05 - [Op. 13] II. Andantino.wav

Peak level 87.6 %
Track quality 100.0 %
Test CRC ED9B20C1
Copy CRC ED9B20C1
Cannot be verified as accurate (confidence 3) [777B33E3], AccurateRip returned [DF022F2E]
Copy OK

Track 6

Filename E:\The Rubinstein Collection Volume 69 - Chopin (2003) [FLAC]\06 - [Op. 13] III. Kujawiak. Vivace.wav

Peak level 99.0 %
Track quality 100.0 %
Test CRC 9FFE9979
Copy CRC 9FFE9979
Cannot be verified as accurate (confidence 3) [9B3E1434], AccurateRip returned [27BAA412]
Copy OK

Track 7

Filename E:\The Rubinstein Collection Volume 69 - Chopin (2003) [FLAC]\07 - [Op. 22.] I. Andante spianato.wav

Pre-gap length 0:00:08.00

Peak level 60.9 %
Track quality 99.9 %
Test CRC 69A41509
Copy CRC 69A41509
Cannot be verified as accurate (confidence 3) [D9A7DC78], AccurateRip returned [02050012]
Copy OK

Track 8

Filename E:\The Rubinstein Collection Volume 69 - Chopin (2003) [FLAC]\08 - [Op. 22] II. Grande polonaise.wav

Pre-gap length 0:00:00.70

Peak level 95.1 %
Track quality 100.0 %
Test CRC 02D96A02
Copy CRC 02D96A02
Cannot be verified as accurate (confidence 3) [9447355E], AccurateRip returned [71D6E0E4]
Copy OK


No tracks could be verified as accurate
You may have a different pressing from the one(s) in the database

No errors occurred

End of status report



Recording Information

recorded in 1958* & 1968
released in 2003

RCA Red Seal
09026 63069-2


Reviews

Volume 69 of RCA's mammoth Rubinstein Collection contains some of Rubinstein's last authorized recordings of the music of his compatriot Chopin.

Rubinstein made no fewer than four recordings of Chopin's popular Second Concerto (there is an additional, filmed, performance from 1975). The pianist's conception of the concerto changed over the course of his career, from the brilliant, scintillating, and somewhat sectionalized playing of his early years, to the more mellow, mature, and structurally minded performance heard here. Rubinstein, 81 at the time of this recording, is occasionally cautious during the concerto's more demanding passages, uses less rubato, and less pedal than in his earlier recordings. Eugene Ormandy proves a most sympathetic accompanist here, even accommodating Rubinstein's rather questionable changes to Chopin's text: Rubinstein ordered a cut at the end of the first movement, and the violins in the mazurka episode of the finale play the passages with their bows, rather than sul ponticello (with the wood) as Chopin indicated.

The Fantasia on Polish Airs is one of the few works by Chopin that has never made it into the standard repertoire. Rubinstein rarely played the piece, and this is his only recording of it. His straighforward performance, along with Ormandy's accompaniment, fit the music like a glove.

Chopin's Andante Spianato and Grande Polonaise is better known as a solo piece than in the version with orchestra heard here. Indeed, Rubinstein made three versions of the solo version. Truth be told, the orchestration is rather scanty, and best dispensed with altogether. Rubinstein plays the piece with his usual brilliance, and the pick-up orchestra under Alfred Wallenstein tries to stay out of the pianist's way.

The recordings with Ormandy were made in 1968, and sound lush and full. The Wallenstein recording comes from ten years earlier, and despite remastering remains rather dry and compressed. (Hank Drake on amazon.com)



PW

r@@b3369

Download

Rapidshare