Tags
Language
Tags

Schubert - Prégardien, Gees - Die schöne Müllerin [Hybrid SACD: PS3 SACD Rip & EAC CD Rip]

Posted By:
Schubert - Prégardien, Gees - Die schöne Müllerin [Hybrid SACD: PS3 SACD Rip & EAC CD Rip]

JFranz Schubert - Die schöne Müllerin
Christoph Prégardien: Tenor / Michael Gees: Piano
PS3 SACD ISO (2.0/5.1): 3,18 GB | EAC Rip, FLAC LOG & CUE: 236 MB | 24B/88,2kHz FLAC (2.0): 961 MB | Full Artwork: 409 MB | Recovery Info
Label/Cat#: Challenge Classics CC72292 | Country/Year: Europe 2008 | Genre: Classical | Hoster: Filepost / Filefactory

MD5 [X] CUE [X] LOG [X] INFO TEXT [X] ARTWORK [X]

webfind [] selfrip [X]

With kind permission by the administration this is crossposted in music & hi-res. Thanks!


Schubert - Prégardien, Gees - Die schöne Müllerin [Hybrid SACD: PS3 SACD Rip & EAC CD Rip]


Exact Audio Copy V1.0 beta 2 from 29. April 2011

EAC extraction logfile from 26. March 2012, 20:26

Prégardien, Gees / Die schöne Müllerin

Used drive : PIONEER BD-RW BDR-206 Adapter: 2 ID: 3

Read mode : Secure
Utilize accurate stream : Yes
Defeat audio cache : Yes
Make use of C2 pointers : No

Read offset correction : 667
Overread into Lead-In and Lead-Out : No
Fill up missing offset samples with silence : Yes
Delete leading and trailing silent blocks : No
Null samples used in CRC calculations : Yes
Used interface : Native Win32 interface for Win NT & 2000

Used output format : User Defined Encoder
Selected bitrate : 896 kBit/s
Quality : High
Add ID3 tag : No
Command line compressor : C:\Program Files\FLAC\flac.exe
Additional command line options : -5 -T "Artist=%artist%" -T "Title=%title%" -T "Album=%albumtitle%" -T "Date=%year%" -T "Tracknumber=%tracknr%" -T "Genre=%genre%" %source% -o %dest%


TOC of the extracted CD

Track | Start | Length | Start sector | End sector
––––––––––––––––––––––––––––-
1 | 0:00.00 | 2:27.20 | 0 | 11044
2 | 2:27.20 | 2:28.25 | 11045 | 22169
3 | 4:55.45 | 1:32.72 | 22170 | 29141
4 | 6:28.42 | 2:13.34 | 29142 | 39150
5 | 8:42.01 | 2:51.00 | 39151 | 51975
6 | 11:33.01 | 4:20.43 | 51976 | 71518
7 | 15:53.44 | 2:51.20 | 71519 | 84363
8 | 18:44.64 | 4:08.65 | 84364 | 103028
9 | 22:53.54 | 3:26.63 | 103029 | 118541
10 | 26:20.42 | 4:32.02 | 118542 | 138943
11 | 30:52.44 | 2:27.14 | 138944 | 149982
12 | 33:19.58 | 3:54.17 | 149983 | 167549
13 | 37:14.00 | 2:00.21 | 167550 | 176570
14 | 39:14.21 | 1:10.38 | 176571 | 181858
15 | 40:24.59 | 1:46.29 | 181859 | 189837
16 | 42:11.13 | 4:19.22 | 189838 | 209284
17 | 46:30.35 | 2:08.48 | 209285 | 218932
18 | 48:39.08 | 3:23.54 | 218933 | 234211
19 | 52:02.62 | 3:38.16 | 234212 | 250577
20 | 55:41.03 | 5:56.67 | 250578 | 277344


Range status and errors

Selected range

Filename I:\=== VINYL RIPS ===\=== EAC===\X FRESH RIP\Prégardien, Gees - Die schöne Müllerin.wav

Peak level 99.0 %
Extraction speed 7.5 X
Range quality 100.0 %
Test CRC C850D523
Copy CRC C850D523
Copy OK

No errors occurred


AccurateRip summary

Track 1 accurately ripped (confidence 3) [57FC50B7] (AR v2)
Track 2 accurately ripped (confidence 3) [96E63C47] (AR v2)
Track 3 accurately ripped (confidence 3) [0F29A347] (AR v2)
Track 4 accurately ripped (confidence 3) [52FE5E7A] (AR v2)
Track 5 accurately ripped (confidence 3) [D4CCA1D5] (AR v2)
Track 6 accurately ripped (confidence 3) [A11268A5] (AR v2)
Track 7 accurately ripped (confidence 3) [22C2E5F6] (AR v2)
Track 8 accurately ripped (confidence 3) [93991209] (AR v2)
Track 9 accurately ripped (confidence 3) [D952C05A] (AR v2)
Track 10 accurately ripped (confidence 3) [72694860] (AR v2)
Track 11 accurately ripped (confidence 3) [E14691CF] (AR v2)
Track 12 accurately ripped (confidence 3) [FC05CD3E] (AR v2)
Track 13 accurately ripped (confidence 3) [0A9EB096] (AR v2)
Track 14 accurately ripped (confidence 3) [6B2975E6] (AR v2)
Track 15 accurately ripped (confidence 3) [DBB4488A] (AR v2)
Track 16 accurately ripped (confidence 3) [F94E548C] (AR v2)
Track 17 accurately ripped (confidence 3) [3D10F133] (AR v2)
Track 18 accurately ripped (confidence 3) [2DEC42E7] (AR v2)
Track 19 accurately ripped (confidence 3) [8EAD2DB0] (AR v2)
Track 20 accurately ripped (confidence 3) [51AF580A] (AR v2)

All tracks accurately ripped

End of status report

==== Log checksum 455DCF0B9A6C733548A208CCBB66AEBC234AAC37BB3B7EF50E440D8414E3DB30 ====


16908361[0x1020049]: SACD-Ripper Version 0.36
16908361[0x1020049]: config: 00 00 00 0c 00 00 00 00 ff 41 00 04 00 00 00 00
16908361[0x1020049]: config: 00 00 00 00 00 00 00 00 00 00 00 00 00 00 00 00
16908361[0x1020049]: config: 00 00 00 00 00 00 00 00 00 00 00 00 00 00 00 00
16908361[0x1020049]: config: 00 00 00 00 00 00 00 00 00 00 00 00 00 00 00 00
16908361[0x1020049]: device_info: 75 6e 6e 61 6d 65 5c 10 80 00 00 00 00 53 a0 00
16908361[0x1020049]: device_info: 80 00 00 00 10 12 9e 70 80 00 00 00 00 5e 78 00
16908361[0x1020049]: device_info: 00 00 00 00 00 00 00 00 00 00 00 00 7f ff ff ff
16908361[0x1020049]: device_info: 00 00 08 00 00 00 00 01 00 01 01 00 00 00 00 01
16908361[0x1020049]: disc inserted..
16908361[0x1020049]: config: 00 00 00 0c 00 00 00 10 ff 41 01 04 00 00 00 00
16908361[0x1020049]: config: 00 00 00 00 00 00 00 00 00 00 00 00 00 00 00 00
16908361[0x1020049]: config: 00 00 00 00 00 00 00 00 00 00 00 00 00 00 00 00
16908361[0x1020049]: config: 00 00 00 00 00 00 00 00 00 00 00 00 00 00 00 00
16908361[0x1020049]: device_info: 75 6e 6e 61 6d 65 5c 10 80 00 00 00 00 53 a0 00
16908361[0x1020049]: device_info: 80 00 00 00 10 12 9e 70 80 00 00 00 00 5e 78 00
16908361[0x1020049]: device_info: 00 00 00 00 00 00 00 00 00 00 00 00 00 19 73 70
16908361[0x1020049]: device_info: 00 00 08 00 00 00 00 01 00 01 01 00 00 00 00 01
16908361[0x1020049]: Album Title: Die Schone Mullerin
16908361[0x1020049]: Album Artist: Pregardien/Gees
16908361[0x1020049]: Disc Version: 01.20
16908361[0x1020049]: config: 00 00 00 0c 00 00 00 10 ff 41 01 04 00 00 00 00
16908361[0x1020049]: config: 00 00 00 00 00 00 00 00 00 00 00 00 00 00 00 00
16908361[0x1020049]: config: 00 00 00 00 00 00 00 00 00 00 00 00 00 00 00 00
16908361[0x1020049]: config: 00 00 00 00 00 00 00 00 00 00 00 00 00 00 00 00
16908361[0x1020049]: device_info: 75 6e 6e 61 6d 65 5c 10 80 00 00 00 00 53 a0 00
16908361[0x1020049]: device_info: 80 00 00 00 10 12 9e 70 80 00 00 00 00 5e 78 00
16908361[0x1020049]: device_info: 00 00 00 00 00 00 00 00 00 00 00 00 00 19 73 70
16908361[0x1020049]: device_info: 00 00 08 00 00 00 00 01 00 01 01 00 00 00 00 01
16908361[0x1020049]: succeeded. raw_spu number is 0
16908361[0x1020049]: succeeded. entry d0
16908361[0x1020049]: Establishing the interrupt tag on the interrupt PPU thread.
16908361[0x1020049]: ioctl_report_key1[45023901] 0
16908361[0x1020049]: sac_exec_generate_key 0 c9 0
16908361[0x1020049]: ioctl_send_key[2] c9 0
16908361[0x1020049]: ioctl_report_key[2] c8 0
16908361[0x1020049]: sac_exec_validate_key_1[0]
16908361[0x1020049]: sac_exec_generate_key_2[ae] 0
16908361[0x1020049]: ioctl_send_key[3] ae 0
16908361[0x1020049]: ioctl_report_key[3] b0 0
16908361[0x1020049]: sac_exec_validate_key_2[0]
16908361[0x1020049]: ioctl_report_key[4] 30 0
16908361[0x1020049]: sac_exec_validate_key_3[0]
16908361[0x1020049]: ioctl_report_finish [0xff] 0
16908361[0x1020049]: Queuing raw: /dev_usb000/Pregardien Gees - Die Schone Mullerin.iso, start_lsn: 0, length_lsn: 1667952


Pregardien-Gees - [2007] Die Schone Mullerin [STEREO]
======================================================================================
SACD[PS3]ISO to flac 24bit/88.2kHz conversion using SACD_Conversion_script version 0.3

Track list
–––––

Das Wandern 02:29.91
Wohin? 02:27.85
Halt 01:33.96
Danksagung an den Bach 02:12.72
Am Feierabend 02:51.04
Der Neugierige 04:19.24
Ungeduld 02:51.85
Morgengruss 04:09.19
Des Mullers Blumen 03:26.44
Tranenregen 04:32.44
Mein 02:26.72
Pause 03:54.79
Mit dem grunen Lautenbande 01:59.57
Der Jager 01:11.13
Eifersucht und Stolz 01:46.88
Die Liebe Farbe 04:19.36
Die bose Farbe 02:07.71
Trockne Blumen 03:24.15
Der Muller und der Bach 03:38.12
Des Baches Wiegenlied 05:56.88

Technical Details
––––––––-

1) ISO image created using sacd-ripper for PS3

2) Dff files extracted from the ISO using SACD_Extract

3) Dff files analysed using foobar + foo_input_sacd and DR Meter plugins to find peak track(s)

4) Loudest tracks converted using Weiss Saracon 1.61-27 at 24bit/88.2kHz with 0dB gain

5) Non-clipping gain calculated using SoX

6) Edited Master Dff file extracted using SACD_Extract

7) Final pass conversion using Weiss Saracon 1.61-27 at 24bit/88.2kHz with 6.10dB gain as calculated above

7) Final pass PCM file spilt into individual tracks (discarding first 41 samples) using track lengths calculated from cue file generated by SACD_Extract

8) Spikes at begining of first/end of last tracks eliminated by deleting 24 samples and replacing with the adjacent 24 samples using SoX to give the correct track length

9) Finalised tracks converted to flac (level 8) and tagged using tag.exe

10) Dynamic Range measured using Foobar DR Meter plugin

foobar2000 1.1.7 / Dynamic Range Meter 1.1.1
log date: 2012-03-27 18:50:19

––––––––––––––––––––––––––––––––––––––––
Analyzed: Pregardien-Gees / Die Schone Mullerin
––––––––––––––––––––––––––––––––––––––––

DR Peak RMS Duration Track
––––––––––––––––––––––––––––––––––––––––
DR15 -3.09 dB -22.44 dB 2:30 01-Das Wandern
DR14 -7.42 dB -26.21 dB 2:28 02-Wohin?
DR13 -2.77 dB -20.51 dB 1:34 03-Halt
DR13 -8.32 dB -25.98 dB 2:13 04-Danksagung an den Bach
DR15 -0.78 dB -22.00 dB 2:51 05-Am Feierabend
DR15 -8.66 dB -28.35 dB 4:19 06-Der Neugierige
DR15 -0.02 dB -19.32 dB 2:52 07-Ungeduld
DR15 -5.65 dB -26.19 dB 4:09 08-Morgengruss
DR14 -8.10 dB -26.12 dB 3:26 09-Des Mullers Blumen
DR14 -4.82 dB -27.23 dB 4:32 10-Tranenregen
DR13 -0.02 dB -18.88 dB 2:27 11-Mein
DR17 -3.39 dB -25.84 dB 3:55 12-Pause
DR13 -5.82 dB -23.10 dB 2:00 13-Mit dem grunen Lautenbande
DR15 -0.01 dB -19.36 dB 1:11 14-Der Jager
DR15 -0.02 dB -20.22 dB 1:47 15-Eifersucht und Stolz
DR15 -1.21 dB -24.26 dB 4:19 16-Die Liebe Farbe
DR14 -0.02 dB -18.83 dB 2:08 17-Die bose Farbe
DR14 -3.03 dB -23.87 dB 3:24 18-Trockne Blumen
DR14 -7.90 dB -26.53 dB 3:38 19-Der Muller und der Bach
DR14 -7.29 dB -25.50 dB 5:57 20-Des Baches Wiegenlied
––––––––––––––––––––––––––––––––––––––––

Number of tracks: 20
Official DR value: DR14

Samplerate: 88200 Hz
Channels: 2
Bits per sample: 24
Bitrate: 2134 kbps
Codec: FLAC
================================================================================



CD Info:

Franz Schubert / Christoph Prégardien / Michael Gees - Die Schöne Müllerin

Label: Challenge Classics
Catalog#: CC72292
Format: Hybrid-SACD, Album, Stero & Multichannel
Country: Europe
Released: 2008
Genre: Classical

Tracklist:

1 Das Wandern 02:29.91
2 Wohin? 02:27.85
3 Halt 01:33.96
4 Danksagung an den Bach 02:12.72
5 Am Feierabend 02:51.04
6 Der Neugierige 04:19.24
7 Ungeduld 02:51.85
8 Morgengruss 04:09.19
9 Des Mullers Blumen 03:26.44
10 Tranenregen 04:32.44
11 Mein 02:26.72
12 Pause 03:54.79
13 Mit dem grunen Lautenbande 01:59.57
14 Der Jager 01:11.13
15 Eifersucht und Stolz 01:46.88
16 Die Liebe Farbe 04:19.36
17 Die bose Farbe 02:07.71
18 Trockne Blumen 03:24.15
19 Der Muller und der Bach 03:38.12
20 Des Baches Wiegenlied 05:56.88

Notes:

Tenor - Christoph Pregardien
Piano - Michael Gees

recorded 6-8 October 2007 at Galaxy Studios, Mol, Belgium. Contains 60 page booklet with libretto in german, french & english.

Schubert - Prégardien, Gees - Die schöne Müllerin [Hybrid SACD: PS3 SACD Rip & EAC CD Rip]


Review

by Uncle Dave Lewis

German tenor Christoph Prégardien has recorded Schubert's seminal song cycle Die Schöne Mullerin before, with Andreas Staier for Deutsche Harmonia Mundi in 1991. One immediate difference in this recording for Challenge Classics is that Michael Gees serves as accompanist and plays a modern piano rather than a period fortepiano, as did Staier. Moreover, this SACD recording of Die Schöne Mullerin and the early digital DHM are worlds apart; the sound on the DHM is distant, recessed and rather clattery, whereas the Challenge Classics recording is a huge improvement. Prégardien's voice is attractively centered, and Gees' piano is captured in a warm perspective that cloaks and envelops the singer. It's a great sound; as Prégardien's voice soars, the piano rolls through both right and left channels as waves in a babbling brook, echoing the very sentiments expressed in Wilhelm Müller's pre-Romantic texts. Prégardien's interpretation is much the same as it was Staier, though one could argue in the Challenge Classics recording he achieves a greater emotional projection, not to mention a more lightweight delivery in the tenor range; in the DHM recording he had more of a tendency to borrow from the baritone range in order to gain more heft.

That's not to throw the DHM, still available in August 2008, under the bus; it remains a very good performance, particularly in the domain of versions with a period instrument keyboard. However, this version is clearly superlative; Prégardien has grown with this work in the intervening time and it shows. This is a sensitive reading of Die Schöne Mullerin demonstrating complete integration with the material, in addition to embracing a generally more mainstream kind of performance idiom than the earlier recording. Challenge Classics' Die Schöne Mullerin with Christoph Prégardien and Michael Gees is a recording worthy of taking pride of place on the shelf alongside such "classic" versions as those by Richard Crooks, Aksel Schiøtz, and Dietrich Fischer-Dieskau, and is in considerably better recorded sound than any of them. allmusicguide


More of my classical music:

//classical luckburz//

Check my blog for other lossless uploads:

//all luckburz//

Password:

finest-hq-audio

CD Rip links are labeled "CD", ISO links "ISO", Artwork "INFART" & the HiRes Stereo FLACs "FLA". Enjoy!