Subcategories

The Shangri-Las - Leader Of The Pack (1998 compilation)

Posted By: firepower
The Shangri-Las - Leader Of The Pack (1998 compilation)

The Shangri-Las - Leader Of The Pack (1998 compilation)
EAC, WavPack image, CUE+LOG 195mb | MP3 320 cbr (lame 3.97) 100mb | Complete 600dpi jpg artwork
R&B | 1998 Pegasus | 5% recovery record | Source: My mint cd

Along with the Shirelles and the Ronettes, the Shangri-Las were among the greatest girl groups; if judged solely on the basis of attitude, they were the greatest of them all. They combined an innocent adolescent charm with more than a hint of darkness, singing about dead bikers, teenage runaways, and doomed love affairs as well as ebullient high-school crushes. These could be delivered with either infectious, handclapping harmonies or melodramatic, almost operatic recitatives that were contrived but utterly effective. Tying it all together in the studio was Shadow Morton, a mad genius of a producer who may have been second in eccentric imagination only to Phil Spector in the mid-'60s.

Originally the Shangri-Las were comprised of two pairs of sisters from Queens, NY (identical twins Marge and Mary Anne Ganser and siblings Mary and Betty Weiss). They had already recorded a couple of obscure singles when they were hired by George "Shadow" Morton to demo a song he had recently written, "Remember (Walkin' in the Sand)." The haunting ballad, with its doomy "Moonlight Sonata"-like piano riffs, wailing lead vocal, and thunderous background harmonies, seguing into an a cappella chorus backed by nothing except handclaps and seagull cries, made the Top Five in late 1964. It also began their association with Jerry Leiber and Mike Stoller's Red Bird label, which would handle the group for the bulk of their career.
The Shangri-Las - Leader Of The Pack (1998 compilation)

The Shangri-Las - Leader Of The Pack (1998 compilation)

Tracklist:
01 - Leader Of The Pack
02 - Remember (Walking In The Sand)
03 - Maybe
04 - I Can Never Go Home Anymore
05 - Shout
06 - The Train From Kansas City
07 - Give Him A Great Big Kiss
08 - Out In The Streets
09 - He Cried
10 - So Much In Love
11 - Past, Present And Future
12 - Long Live Our Love
13 - Right Away And Not Later
14 - What Is Love_
15 - Heaven Only Knows

Exact Audio Copy V0.99 prebeta 5 from 4. May 2009

EAC extraction logfile from 5. March 2011, 21:00

The Shangri-las / Leader Of The Pack

Used drive : LITE-ON LTR-52327S Adapter: 0 ID: 1

Read mode : Secure
Utilize accurate stream : Yes
Defeat audio cache : Yes
Make use of C2 pointers : No

Read offset correction : 6
Overread into Lead-In and Lead-Out : No
Fill up missing offset samples with silence : Yes
Delete leading and trailing silent blocks : No
Null samples used in CRC calculations : Yes
Used interface : Native Win32 interface for Win NT & 2000

Used output format : User Defined Encoder
Selected bitrate : 768 kBit/s
Quality : High
Add ID3 tag : No
Command line compressor : C:\Program Files\p2p\Exact Audio Copy 0.99pb5\Exact Audio Copy\wapet\wapet.exe
Additional command line options : -6 -V -T "ARTIST=%a" -T "TITLE=%t" -T "ALBUM=%g" -T "DATE=%y" -T "TRACKNUMBER=%n" -T "GENRE=%m" -T "COMMENT=%e" %s -o %d


TOC of the extracted CD

Track | Start | Length | Start sector | End sector
––––––––––––––––––––––––––––-
1 | 0:00.00 | 2:52.35 | 0 | 12934
2 | 2:52.35 | 2:11.45 | 12935 | 22804
3 | 5:04.05 | 2:40.27 | 22805 | 34831
4 | 7:44.32 | 3:12.55 | 34832 | 49286
5 | 10:57.12 | 2:12.73 | 49287 | 59259
6 | 13:10.10 | 3:21.35 | 59260 | 74369
7 | 16:31.45 | 2:14.47 | 74370 | 84466
8 | 18:46.17 | 2:45.28 | 84467 | 96869
9 | 21:31.45 | 3:02.30 | 96870 | 110549
10 | 24:34.00 | 2:13.17 | 110550 | 120541
11 | 26:47.17 | 2:42.58 | 120542 | 132749
12 | 29:30.00 | 2:49.42 | 132750 | 145466
13 | 32:19.42 | 2:37.58 | 145467 | 157299
14 | 34:57.25 | 2:24.30 | 157300 | 168129
15 | 37:21.55 | 2:08.40 | 168130 | 177769


Range status and errors

Selected range

Filename D:\My Rips\The Shangri-las - Leader Of The Pack.wav

Peak level 99.7 %
Range quality 99.9 %
Test CRC 0CD3BAF3
Copy CRC 0CD3BAF3
Copy OK

No errors occurred


AccurateRip summary

Track 1 accurately ripped (confidence 1) [E2DE1B2F]
Track 2 accurately ripped (confidence 1) [B1A81063]
Track 3 accurately ripped (confidence 1) [C489C824]
Track 4 accurately ripped (confidence 1) [F8131C9B]
Track 5 accurately ripped (confidence 1) [B87363EE]
Track 6 accurately ripped (confidence 1) [217A024B]
Track 7 accurately ripped (confidence 1) [44448208]
Track 8 accurately ripped (confidence 1) [ED27DDA6]
Track 9 accurately ripped (confidence 1) [17F9C9E1]
Track 10 accurately ripped (confidence 1) [EAD4EDC3]
Track 11 accurately ripped (confidence 1) [C514C82A]
Track 12 accurately ripped (confidence 1) [0DD4F8E6]
Track 13 accurately ripped (confidence 1) [B08C91A4]
Track 14 accurately ripped (confidence 1) [38B66974]
Track 15 accurately ripped (confidence 1) [BD41926E]

All tracks accurately ripped

End of status report

This issue has only a folded insert instead of a booklet.
All files are fully tagged.
WavPack has cue sheet embedded as well as a separate cue sheet file.

I don't mind if you post any problems you may find in the comments but please send me a pm also.
Links are interchangeable. No Password.
No mirrors and please do not post links in comments.