Tags
Language
Tags

Slava Ganelin & Ned Rothenberg - Falling Into Place (2006) {Auris Media Aum007}

Posted By: ruskaval
Slava Ganelin & Ned Rothenberg - Falling Into Place (2006) {Auris Media Aum007}

Slava Ganelin & Ned Rothenberg - Falling Into Place (2006) {Auris Media Aum007}
EAC rip (secure mode) | FLAC (tracks)+CUE+LOG -> 406 Mb | MP3 @320 -> 188 Mb
Full Artwork @ 600 dpi (jpg) -> 21 Mb | 5% repair rar
© 2006 Auris Media | Aum007
Jazz / Contemporary Jazz / Free Improvisation / Avant-Garde Jazz

New York-based reed master Ned Rothenberg managed to perform twice during his last family trip to Israel two years ago, and in both instances he collaborated for the first time with Israeli musicians. Two duets from Rothenberg concert in Jerusalem with free-improv bassist JC Jones were documented on Jones' second release (Duos II, Kadima Collective, 2005), and now this collaboration with iconoclastic composer Slava Ganelin, Falling into Place, recorded live in concert in Jaffa, has been finally released.

Rothenberg, like Ganelin, uses his arsenal of instruments—bass clarinet, clarinet, alto sax and shakuhachi—as a means to construct epic narratives through a slow and careful process. Both use mesmerizing dynamics between foreground themes, solo playing and background accompaniment, leaving spaces in even the busiest and most heated playing.

Rothenberg demonstrate these abilities on the pensive opening track, "The Foot In It," where he uses his bass clarinet for percussive punctuations and accentuations around his solo playing. Ganelin—who plays the grand piano, synthesizer and percussion—tends to be more dramatic, and his first solo piece, the 34-minute "The Place With The Space," is a well-crafted journey that moves between segments rich with pathos and minimalist, hypnotic lines. Sometimes his expansive piano playing is almost romantic, but more often his textures are dark.

Rothenberg plays another two solo pieces on the clarinet and the alto sax, the almost bluesy "A Blue Dance" and the very dense "Wood In The Metal," where his circular breathing helps him develop ideas and motives. Only then do Ganelin and Rothenberg begin to collaborate through short five pieces. On these beautiful consecutive duets, Ganelin and Rothenberg balance each others' flights into a more disciplined frame, keeping a game-like spirit and enjoying the question and answer exchanges. On "Luminous Staircase" their playing is more contemplative, and on "Grassland," the only piece where Rothenberg plays the shakuhachi (Japanese bamboo flute), they sound like they're creating a futuristic folky tune, incorporating Ganelin's strange synthesizer drone and percussion.

This beautiful recording captures two masters at their best, alone and together, and everything really falls into place.
Slava Ganelin & Ned Rothenberg - Falling Into Place (2006) {Auris Media Aum007}


Personnel:
Slava Ganelin: piano; synthesizer
Ned Rothenberg: bass clarinet, clarinet, alto sax, shakuhachi

Tracklist:
1. The Foot In It 7:03
2. The Place With The Space 34:17
3. A Blue Dance 7:37
4. Wood In The Metal 11:05
5. First Conversation 3:01
6. Slaps In Time 4:43
7. Luminous Staircase 5:18
8. Grassland 4:53
9. Encore 1:52

Exact Audio Copy V1.0 beta 1 from 15. November 2010

EAC extraction logfile from 8. May 2012, 14:13

Slava Ganelin & Ned Rothenberg / Falling Into Place

Used drive : hp DVD A DS8A4LH Adapter: 0 ID: 0

Read mode : Secure
Utilize accurate stream : Yes
Defeat audio cache : Yes
Make use of C2 pointers : No

Read offset correction : 6
Overread into Lead-In and Lead-Out : No
Fill up missing offset samples with silence : Yes
Delete leading and trailing silent blocks : No
Null samples used in CRC calculations : Yes
Used interface : Native Win32 interface for Win NT & 2000
Gap handling : Appended to previous track

Used output format : User Defined Encoder
Selected bitrate : 768 kBit/s
Quality : High
Add ID3 tag : No
Command line compressor : C:\Program Files (x86)\Exact Audio Copy\FLAC\FLAC.EXE
Additional command line options : -8 -V -T "ARTIST=%a" -T "TITLE=%t" -T "ALBUM=%g" -T "DATE=%y" -T "TRACKNUMBER=%n" -T "TOTALTRACKS=%x" -T "GENRE=%m" -T "ALBUMARTIST=%v" -T "ALBUM ARTIST=%v" -T "COMMENT=EAC V1.0 beta 1, Secure Mode, Test & Copy, AccurateRip


TOC of the extracted CD

Track | Start | Length | Start sector | End sector
––––––––––––––––––––––––––––-
1 | 0:00.00 | 7:03.62 | 0 | 31786
2 | 7:03.62 | 34:17.73 | 31787 | 186134
3 | 41:21.60 | 7:37.48 | 186135 | 220457
4 | 48:59.33 | 11:05.47 | 220458 | 270379
5 | 60:05.05 | 3:01.49 | 270380 | 284003
6 | 63:06.54 | 4:43.52 | 284004 | 305280
7 | 67:50.31 | 5:18.13 | 305281 | 329143
8 | 73:08.44 | 4:53.61 | 329144 | 351179
9 | 78:02.30 | 1:52.10 | 351180 | 359589


Track 1

Filename C:\Users\User\my uploads\My next uploads\my_next_uploads\Slava Ganelin & Ned Rothenberg - Falling Into Place (2006) [FLAC]\01 - The Foot In It.wav

Pre-gap length 0:00:02.00

Peak level 98.1 %
Extraction speed 3.2 X
Track quality 100.0 %
Test CRC D8A58DD0
Copy CRC D8A58DD0
Accurately ripped (confidence 1) [D5A3BC1A]
Copy OK

Track 2

Filename C:\Users\User\my uploads\My next uploads\my_next_uploads\Slava Ganelin & Ned Rothenberg - Falling Into Place (2006) [FLAC]\02 - The Place With The Space.wav

Peak level 100.0 %
Extraction speed 4.7 X
Track quality 100.0 %
Test CRC 32B29492
Copy CRC 32B29492
Accurately ripped (confidence 1) [8C6BCF63]
Copy OK

Track 3

Filename C:\Users\User\my uploads\My next uploads\my_next_uploads\Slava Ganelin & Ned Rothenberg - Falling Into Place (2006) [FLAC]\03 - A Blue Dance.wav

Peak level 80.9 %
Extraction speed 5.4 X
Track quality 100.0 %
Test CRC 73174C29
Copy CRC 73174C29
Accurately ripped (confidence 1) [81137867]
Copy OK

Track 4

Filename C:\Users\User\my uploads\My next uploads\my_next_uploads\Slava Ganelin & Ned Rothenberg - Falling Into Place (2006) [FLAC]\04 - Wood In The Metal.wav

Peak level 98.1 %
Extraction speed 5.9 X
Track quality 100.0 %
Test CRC F824EB6F
Copy CRC F824EB6F
Accurately ripped (confidence 1) [20A4209A]
Copy OK

Track 5

Filename C:\Users\User\my uploads\My next uploads\my_next_uploads\Slava Ganelin & Ned Rothenberg - Falling Into Place (2006) [FLAC]\05 - First Conversation.wav

Peak level 99.3 %
Extraction speed 4.1 X
Track quality 99.9 %
Test CRC 2CF7C976
Copy CRC 2CF7C976
Accurately ripped (confidence 1) [270F59C6]
Copy OK

Track 6

Filename C:\Users\User\my uploads\My next uploads\my_next_uploads\Slava Ganelin & Ned Rothenberg - Falling Into Place (2006) [FLAC]\06 - Slaps In Time.wav

Peak level 98.4 %
Extraction speed 5.9 X
Track quality 100.0 %
Test CRC A48B26DD
Copy CRC A48B26DD
Accurately ripped (confidence 1) [EF5C529A]
Copy OK

Track 7

Filename C:\Users\User\my uploads\My next uploads\my_next_uploads\Slava Ganelin & Ned Rothenberg - Falling Into Place (2006) [FLAC]\07 - Luminous Staircase.wav

Peak level 98.1 %
Extraction speed 6.1 X
Track quality 100.0 %
Test CRC E5059E46
Copy CRC E5059E46
Accurately ripped (confidence 1) [DCB58AC4]
Copy OK

Track 8

Filename C:\Users\User\my uploads\My next uploads\my_next_uploads\Slava Ganelin & Ned Rothenberg - Falling Into Place (2006) [FLAC]\08 - Grassland.wav

Peak level 97.7 %
Extraction speed 6.2 X
Track quality 100.0 %
Test CRC C9955381
Copy CRC C9955381
Accurately ripped (confidence 1) [7B0C17EE]
Copy OK

Track 9

Filename C:\Users\User\my uploads\My next uploads\my_next_uploads\Slava Ganelin & Ned Rothenberg - Falling Into Place (2006) [FLAC]\09 - Encore.wav

Peak level 98.2 %
Extraction speed 5.1 X
Track quality 100.0 %
Test CRC F654BAB5
Copy CRC F654BAB5
Accurately ripped (confidence 1) [E61811E4]
Copy OK


All tracks accurately ripped

No errors occurred

End of status report

==== Log checksum 81DF3422DAC95A3F7C2759B2B91B91A67D6225FFCA023F1ECD5A049E53CA315B ====


Slava Ganelin & Ned Rothenberg - Falling Into Place (2006) {Auris Media Aum007}

Slava Ganelin & Ned Rothenberg - Falling Into Place (2006) {Auris Media Aum007}



===