Subcategories

SOiL - Picture Perfect (2009)

Posted By: Thranduil
SOiL - Picture Perfect (2009)

SOiL - Picture Perfect (2009)
FLAC Lossless, Cue, EAC Log File | Playtime: 00:52:02 | 384 MB
Genre: Alternative Metal | Label: Bieler Bros Records | Release Date: October 20, 2009

SOIL - Chicago-based alternative metal ensemble Soil formed in 1997. They released their debut EP, El Chupacabra!, in 1998, followed by the full-length Throttle Junkies in 1999. Their sophomore release (Scars) found success both nationally and internationally through two strong singles, "Unreal" and "Halo." It was followed in 2001 by an eponymous EP, and later in 2004 with "re.de.fine".
Exact Audio Copy V0.99 prebeta 4 from 23. January 2008

EAC extraction logfile from 19. November 2009, 22:27

SOiL / Picture Perfect

Used drive : PIONEER DVD-RW DVR-217 Adapter: 5 ID: 0

Read mode : Secure
Utilize accurate stream : Yes
Defeat audio cache : Yes
Make use of C2 pointers : No

Read offset correction : 96
Overread into Lead-In and Lead-Out : No
Fill up missing offset samples with silence : Yes
Delete leading and trailing silent blocks : No
Null samples used in CRC calculations : Yes
Used interface : Native Win32 interface for Win NT & 2000
Gap handling : Appended to previous track

Used output format : User Defined Encoder
Selected bitrate : 128 kBit/s
Quality : High
Add ID3 tag : No
Command line compressor : C:\Program Files\FLAC\flac.exe
Additional command line options : -V -8 -T "artist=%a" -T "title=%t" -T "album=%g" -T "date=%y" -T "tracknumber=%n" -T "genre=%m" %s


TOC of the extracted CD

Track | Start | Length | Start sector | End sector
––––––––––––––––––––––––––––-
1 | 0:00.00 | 3:13.56 | 0 | 14530
2 | 3:13.56 | 3:40.59 | 14531 | 31089
3 | 6:54.40 | 3:30.27 | 31090 | 46866
4 | 10:24.67 | 4:06.50 | 46867 | 65366
5 | 14:31.42 | 3:38.44 | 65367 | 81760
6 | 18:10.11 | 3:30.15 | 81761 | 97525
7 | 21:40.26 | 3:15.39 | 97526 | 112189
8 | 24:55.65 | 4:16.52 | 112190 | 131441
9 | 29:12.42 | 3:40.22 | 131442 | 147963
10 | 32:52.64 | 4:30.64 | 147964 | 168277
11 | 37:23.53 | 3:40.15 | 168278 | 184792
12 | 41:03.68 | 3:52.04 | 184793 | 202196
13 | 44:55.72 | 3:46.29 | 202197 | 219175
14 | 48:42.26 | 3:20.03 | 219176 | 234178


Track 1

Filename C:\01 - Tear It Down.wav

Pre-gap length 0:00:02.00

Peak level 100.0 %
Track quality 100.0 %
Test CRC 12948E9A
Copy CRC 12948E9A
Track not present in AccurateRip database
Copy OK

Track 2

Filename C:\02 - The Lesser Man.wav

Pre-gap length 0:00:00.78

Peak level 100.0 %
Track quality 100.0 %
Test CRC E977B52F
Copy CRC E977B52F
Track not present in AccurateRip database
Copy OK

Track 3

Filename C:\03 - Like It Is.wav

Pre-gap length 0:00:01.49

Peak level 100.0 %
Track quality 100.0 %
Test CRC 32FF9B32
Copy CRC 32FF9B32
Track not present in AccurateRip database
Copy OK

Track 4

Filename C:\04 - Picture Perfect.wav

Pre-gap length 0:00:01.20

Peak level 100.0 %
Track quality 100.0 %
Test CRC C6FEF877
Copy CRC C6FEF877
Track not present in AccurateRip database
Copy OK

Track 5

Filename C:\05 - Surrounded.wav

Pre-gap length 0:00:01.93

Peak level 100.0 %
Track quality 100.0 %
Test CRC 3A2BB4A8
Copy CRC 3A2BB4A8
Track not present in AccurateRip database
Copy OK

Track 6

Filename C:\06 - Wasted.wav

Pre-gap length 0:00:01.56

Peak level 100.0 %
Track quality 99.9 %
Test CRC C7FAACFC
Copy CRC C7FAACFC
Track not present in AccurateRip database
Copy OK

Track 7

Filename C:\07 - Every Moment.wav

Pre-gap length 0:00:02.26

Peak level 100.0 %
Track quality 100.0 %
Test CRC 3B44E50D
Copy CRC 3B44E50D
Track not present in AccurateRip database
Copy OK

Track 8

Filename C:\08 - Anymore.wav

Pre-gap length 0:00:02.32

Peak level 100.0 %
Track quality 99.9 %
Test CRC 9E28D64D
Copy CRC 9E28D64D
Track not present in AccurateRip database
Copy OK

Track 9

Filename C:\09 - Falter.wav

Pre-gap length 0:00:02.06

Peak level 100.0 %
Track quality 100.0 %
Test CRC E82BDB33
Copy CRC E82BDB33
Track not present in AccurateRip database
Copy OK

Track 10

Filename C:\10 - Too Far Away.wav

Pre-gap length 0:00:01.93

Peak level 100.0 %
Track quality 100.0 %
Test CRC 4E1163CB
Copy CRC 4E1163CB
Track not present in AccurateRip database
Copy OK

Track 11

Filename C:\11 - Calling Out.wav

Pre-gap length 0:00:01.58

Peak level 100.0 %
Track quality 100.0 %
Test CRC 3BDA7201
Copy CRC 3BDA7201
Track not present in AccurateRip database
Copy OK

Track 12

Filename C:\12 - Temptation.wav

Pre-gap length 0:00:01.58

Peak level 100.0 %
Track quality 100.0 %
Test CRC 769845D1
Copy CRC 769845D1
Track not present in AccurateRip database
Copy OK

Track 13

Filename C:\13 - Last Wish.wav

Pre-gap length 0:00:01.65

Peak level 100.0 %
Track quality 100.0 %
Test CRC 908EBE05
Copy CRC 908EBE05
Track not present in AccurateRip database
Copy OK

Track 14

Filename C:\14 - Chosen One.wav

Pre-gap length 0:00:01.26

Peak level 100.0 %
Track quality 100.0 %
Test CRC 0744D5A8
Copy CRC 0744D5A8
Track not present in AccurateRip database
Copy OK


None of the tracks are present in the AccurateRip database

No errors occurred

End of status report


Tracklist
1. Tear It Down
2. The Lesser Man
3. Like It Is
4. Picture Perfect
5. Surrounded
6. Wasted
7. Every Moment
8. Anymore
9. Falter
10. Too Far Away
11. Calling Out
12. Temptation
13. Last Wish
14. Chosen One