Subcategories

Karlheinz Stockhausen - Rotary-Bläserquintett & Other Works (2015) {Stockhausen-Verlag No. 105}

Posted By: ruskaval
Karlheinz Stockhausen - Rotary-Bläserquintett & Other Works (2015) {Stockhausen-Verlag No. 105}

Karlheinz Stockhausen - Rotary-Bläserquintett & Other Works (2015) {Stockhausen-Verlag No. 105}
EAC rip (secure mode) | FLAC (tracks)+CUE+LOG -> 264 Mb | MP3 @320 -> 146 Mb
Full Artwork @ 300 dpi (png) -> 44 Mb | 5% repair rar
© 2015 Stockhausen-Verlag | Stockhausen 105
Classical / Avant-Garde / Experimental / 20th Century

Since 1991, a complete edition of all recordings in which Karlheinz Stockhausen has personally participated is being released on compact discs. Each CD in this series is identified by Stockhausen's signature followed by an encircled number. The numbers indicate the general historical order of the works. Stockhausen realised the electronic music and participated in these recordings as conductor, performer, sound projectionist, and musical director. He personally mixed down the recordings, mastered them for CDs, wrote the texts and drew the covers.
Karlheinz Stockhausen - Rotary-Bläserquintett & Other Works (2015) {Stockhausen-Verlag No. 105}

Karlheinz Stockhausen - Rotary-Bläserquintett & Other Works (2015) {Stockhausen-Verlag No. 105}


Works on This Recording

105

Chamber Works (Recorded 2011-15)

IN FREUNDSCHAFT (IN FRIENDSHIP, 1977), version for oboe, feat. Claire Sirjacobs, rec. 2015.
LINKER AUGENTANZ (LEFT-EYE-DANCE, from SAMSTAG aus LICHT, Scene 3) for saxophones, a percussionist, a synthesizer player (1983/90), feat. ensemble.konsax.wein, rec. 2015.
TAURUS (from TIERKREIS) for bassoon (1974/2007), feat. Edurne Santos, rec. 2011.
TAURUS-QUINTETT (from TIERKREIS) for tuba, trumpet, bassoon, horn, trombone (1974/2007), feat. Ensemble musikFabrik, rec. 2015.
KAMEL-TANZ (CAMEL-DANCE, from MICHAELION of MITTWOCH aus LICHT) for bass (Michael Leibendgut), trombone (Stephen Menotti), synthesizer (Antonio Pérez Abellán) (1997), rec. 2013.
ROTARY-Bläserquintett (ROTARY Woodwind Quintet (1997), derived from MICHAELION of MITTWOCH aus LICHT) feat. Quintette Aquilon, rec. 2014.

Exact Audio Copy V1.1 from 23. June 2015

EAC extraction logfile from 21. January 2016, 18:47

Karlheinz Stockhausen / Rotary-Bläserquintett & Other Works

Used drive : slimtype eTDU108 1 Adapter: 1 ID: 0

Read mode : Secure
Utilize accurate stream : Yes
Defeat audio cache : Yes
Make use of C2 pointers : No

Read offset correction : 6
Overread into Lead-In and Lead-Out : No
Fill up missing offset samples with silence : Yes
Delete leading and trailing silent blocks : No
Null samples used in CRC calculations : Yes
Used interface : Native Win32 interface for Win NT & 2000
Gap handling : Appended to previous track

Used output format : User Defined Encoder
Selected bitrate : 128 kBit/s
Quality : High
Add ID3 tag : No
Command line compressor : C:\Users\Justin\Documents\Utilities\Audio\FLAC\flac.exe
Additional command line options : -8 -V -T "ARTIST=%artist%" -T "TITLE=%title%" -T "ALBUM=%albumtitle%" -T "DATE=%year%" -T "TRACKNUMBER=%tracknr%" -T "GENRE=%genre%" -T "PERFORMER=%albuminterpret%" -T "COMPOSER=%composer%" %haslyrics%–tag-from-file=LYRICS="%lyricsfile%"%haslyrics% -T "ALBUMARTIST=%albumartist%" -T "DISCNUMBER=%cdnumber%" -T "TOTALDISCS=%totalcds%" -T "TOTALTRACKS=%numtracks%" -T "COMMENT=%comment%" %source% -o %dest%


TOC of the extracted CD

Track | Start | Length | Start sector | End sector
––––––––––––––––––––––––––––-
1 | 0:00.00 | 16:00.10 | 0 | 72009
2 | 16:00.10 | 18:29.72 | 72010 | 155256
3 | 34:30.07 | 4:00.26 | 155257 | 173282
4 | 38:30.33 | 4:22.36 | 173283 | 192968
5 | 42:52.69 | 8:22.33 | 192969 | 230651
6 | 51:15.27 | 10:14.54 | 230652 | 276755


Track 1

Filename J:\105 - Rotary-Bläserquintett & Other Works\01 - In Freundscahft für Oboe.wav

Pre-gap length 0:00:02.00

Peak level 100.0 %
Extraction speed 3.3 X
Track quality 99.9 %
Test CRC C3BF7000
Copy CRC C3BF7000
Track not present in AccurateRip database
Copy OK

Track 2

Filename J:\105 - Rotary-Bläserquintett & Other Works\02 - Linker Augentanz.wav

Peak level 81.5 %
Extraction speed 4.5 X
Track quality 100.0 %
Test CRC AF8A2656
Copy CRC AF8A2656
Track not present in AccurateRip database
Copy OK

Track 3

Filename J:\105 - Rotary-Bläserquintett & Other Works\03 - Taurus für Fagott.wav

Peak level 78.3 %
Extraction speed 3.6 X
Track quality 99.9 %
Test CRC 0D3F1289
Copy CRC 0D3F1289
Track not present in AccurateRip database
Copy OK

Track 4

Filename J:\105 - Rotary-Bläserquintett & Other Works\04 - Taurus-Quintett.wav

Peak level 100.0 %
Extraction speed 4.7 X
Track quality 100.0 %
Test CRC 00730FBA
Copy CRC 00730FBA
Track not present in AccurateRip database
Copy OK

Track 5

Filename J:\105 - Rotary-Bläserquintett & Other Works\05 - Kamel-Tanz.wav

Peak level 98.1 %
Extraction speed 5.3 X
Track quality 100.0 %
Test CRC D658F4E7
Copy CRC D658F4E7
Track not present in AccurateRip database
Copy OK

Track 6

Filename J:\105 - Rotary-Bläserquintett & Other Works\06 - Rotary-Bläserquintett.wav

Peak level 87.2 %
Extraction speed 5.6 X
Track quality 100.0 %
Test CRC 5385C910
Copy CRC 5385C910
Track not present in AccurateRip database
Copy OK


None of the tracks are present in the AccurateRip database

No errors occurred

End of status report

–– CUETools DB Plugin V2.1.6

[CTDB TOCID: iwtktcuGIjLEhj2bVOT.zA3iRq8-] disk not present in database
Submit result: iwtktcuGIjLEhj2bVOT.zA3iRq8- has been uploaded


==== Log checksum F25DFC28E7868732816337D9EBD0C089E05B98444EC43D7A292DC17A89FD174E ====


Karlheinz Stockhausen - Rotary-Bläserquintett & Other Works (2015) {Stockhausen-Verlag No. 105}

Karlheinz Stockhausen - Rotary-Bläserquintett & Other Works (2015) {Stockhausen-Verlag No. 105}


see more Karlheinz Stockhausen…


===