Tags
Language
Tags

Sun Ra & His Arkestra - Live At Montreux (1976) {2CD Set P-Vine Japan Mini LP PCD-22032~3 rel 2003}

Posted By: ruskaval
Sun Ra & His Arkestra - Live At Montreux (1976) {2CD Set P-Vine Japan Mini LP PCD-22032~3 rel 2003}

Sun Ra & His Arkestra - Live At Montreux (1976) {2CD Set P-Vine Japan Mini LP PCD-22032~3 rel 2003}
EAC rip (secure mode) | FLAC (tracks)+CUE+LOG -> 459 Mb | MP3 @320 -> 192 Mb
Full Artwork @ 300 dpi (jpg) -> 20 Mb | 5% repair rar
© 1976, 2003 Inner City Records / P-Vine Japan | PCD-22032~3
Jazz / Avant-Garde Jazz / Experimental Big Band / Jazz Funk / Progressive Jazz

One of Sun Ra's best non-Saturn live sets of the 70s – a nice little record that shows the group mixing it up with equal parts avant garde and straight ahead jazz, all handled in that ever-growing large group style that made them a real force to be reckoned with in a concert setting! The album was recorded during the 1976 Montreux Jazz Festival, and has a bit more focus and polish than some of the other Arkestra live material from the time – a mature, coherent sound that almost points the way towards some of their work to come in the 80s – when Ra and the group were finally reaching the wider audience they deserved. The set's a double-length one, and features players who include John Gilmore on tenor, Marshall Allen and Danny Davis on alto and flute, Pat Patrick on baritone, Ahmed Abdullah on trumpet, Craig Harris on trombone, and James Jackson on Ancient Egyptian Infinity drum – which is always a treat. Ra plays solar organ and moog, as well as piano.
Sun Ra & His Arkestra - Live At Montreux (1976) {2CD Set P-Vine Japan Mini LP PCD-22032~3 rel 2003}

The excellent Live at Montreux set from 1976 was released on vinyl by both Saturn and Inner City before disappearing from print for many years. In 2003, the set was reissued by both Universe/Akarma and P-Vine. A full 20-member Arkestra (plus dancers) turns in a typically freewheeling set. From "Take the 'A' Train" (featuring a killer solo from Marshall Allen), to the gospel-influenced "El Is a Sound of Joy," to the almost exotica "Lights on a Satellite," to the free and raucous "Gods of the Thunder Realm," and on to "We Travel the Spaceways," the Arkestra covers as much musical territory in this set as anyone would expect from a live Sun Ra show. This is considered to be another classic in a vast discography. (Completists take note: the Universe edition inexplicably fades out the last four minutes of "On Sound Infinity Spheres," which are present on the P-Vine edition.)
Sun Ra & His Arkestra - Live At Montreux (1976) {2CD Set P-Vine Japan Mini LP PCD-22032~3 rel 2003}


jazzmusicarchives.com INFO

Recorded live at the Montreux Jazz Festival, 7/9/76.
Comes in gatefold mini LP replica with OBI & Japanese insert.
24 bit digitally remastered


Personnel
Danny Davis: Flute, Sax (Alto)
Marshall Allen: Flute, Sax (Alto)
John Gilmore: Sax (Tenor)
Chris Capers: Trumpet
Larry Bright: Drums
Stanley Morgan: Conga
Pat Patrick: Flute, Sax (Baritone)
Ahmed Abdullah: Trumpet
June Tyson: Dancer, Vocals
James "Ham" Jackson: Bassoon, Egyptian Drum
Elo Omo: Clarinet (Bass)
Sun Ra: Moog Synthesizer, Organ, Producer, Piano
Vincent Chancey: French Horn
Clifford Jarvis: Drums
Al Evans: Trumpet
Tony Bunn: Bass (Electric)
Hayes Burnett: Double Bass

Track Listing
CD1

01 - The World Is Waiting For The Sunrise
02 - Of The Other Tomorrow
03 - From Out Where Others Dwell
04 - On Sound Infinity Spheres
05 - The House Of Eternal Being
06 - Gods Of The Thunder Rain
07 - Lights On A Satellite

Sun Ra & His Arkestra - Live At Montreux (1976) {2CD Set P-Vine Japan Mini LP PCD-22032~3 rel 2003}


CD2
01 - Interlude for Take The A Train
02 - Take The A Train
03 - Prelude
04 - El Is The Sound Of Joy
05 - Encore 1
06 - Encore 2
07 - We Travel The Spaceways

Sun Ra & His Arkestra - Live At Montreux (1976) {2CD Set P-Vine Japan Mini LP PCD-22032~3 rel 2003}


EAC extraction logfile from 22. May 2008, 17:37 for CD
SUN RA & his arkestra / Live at Montreux

Used drive : SONY DVD-ROM DDU1615 Adapter: 0 ID: 0
Read mode : Secure with NO C2, accurate stream, disable cache
Read offset correction : 6
Overread into Lead-In and Lead-Out : No

Used output format : C:\Program Files\FLAC\flac.exe (User Defined Encoder)
128 kBit/s
Additional command line options : -V -8 -T "artist=%a" -T "title=%t" -T "album=%g" -T "date=%y" -T "tracknumber=%n" -T "genre=%m" %s

Other options :
Fill up missing offset samples with silence : Yes
Delete leading and trailing silent blocks : No
Installed external ASPI interface


Track 1
Filename D:\DOWNLOADS\__UPLOADS\SUN RA & his arkestra - Live at Montreux (1976) [FLAC]\01 - The World Is Waiting For The Sunrise.wav

Pre-gap length 0:00:02.00

Peak level 99.6 %
Track quality 100.0 %
Test CRC C8F3F69C
Copy CRC C8F3F69C
Copy OK

Track 2
Filename D:\DOWNLOADS\__UPLOADS\SUN RA & his arkestra - Live at Montreux (1976) [FLAC]\02 - Of The Other Tomorrow.wav

Peak level 99.9 %
Track quality 100.0 %
Test CRC 2B343804
Copy CRC 2B343804
Copy OK

Track 3
Filename D:\DOWNLOADS\__UPLOADS\SUN RA & his arkestra - Live at Montreux (1976) [FLAC]\03 - From Out Where Others Dwell.wav

Peak level 99.7 %
Track quality 99.9 %
Test CRC 3C30595E
Copy CRC 3C30595E
Copy OK

Track 4
Filename D:\DOWNLOADS\__UPLOADS\SUN RA & his arkestra - Live at Montreux (1976) [FLAC]\04 - On Sound Infinity Spheres.wav

Peak level 99.6 %
Track quality 100.0 %
Test CRC 499C7776
Copy CRC 499C7776
Copy OK

Track 5
Filename D:\DOWNLOADS\__UPLOADS\SUN RA & his arkestra - Live at Montreux (1976) [FLAC]\05 - The House Of Eternal Being.wav

Peak level 99.6 %
Track quality 99.9 %
Test CRC 72200831
Copy CRC 72200831
Copy OK

Track 6
Filename D:\DOWNLOADS\__UPLOADS\SUN RA & his arkestra - Live at Montreux (1976) [FLAC]\06 - Gods Of The Thunder Rain.wav

Peak level 99.6 %
Track quality 99.8 %
Test CRC 27AA4577
Copy CRC 27AA4577
Copy OK

Track 7
Filename D:\DOWNLOADS\__UPLOADS\SUN RA & his arkestra - Live at Montreux (1976) [FLAC]\07 - Lights On A Satellite.wav

Peak level 99.6 %
Track quality 99.7 %
Test CRC 34B91DDC
Copy CRC 34B91DDC
Copy OK

No errors occured


End of status report
–––––––––––––––––––––––––––––––––
EAC extraction logfile from 22. May 2008, 16:25 for CD
SUN RA & his arkestra / Live at Montreux Disc 2

Used drive : SONY DVD-ROM DDU1615 Adapter: 0 ID: 0
Read mode : Secure with NO C2, accurate stream, disable cache
Read offset correction : 6
Overread into Lead-In and Lead-Out : No

Used output format : C:\Program Files\FLAC\flac.exe (User Defined Encoder)
128 kBit/s
Additional command line options : -V -8 -T "artist=%a" -T "title=%t" -T "album=%g" -T "date=%y" -T "tracknumber=%n" -T "genre=%m" %s

Other options :
Fill up missing offset samples with silence : Yes
Delete leading and trailing silent blocks : No
Installed external ASPI interface


Track 1
Filename D:\DOWNLOADS\__UPLOADS\SUN RA & his arkestra - Live at Montreux Disc 2 (1976) [FLAC]\01 - Interlude for Take The A Train.wav

Pre-gap length 0:00:02.00

Peak level 87.1 %
Track quality 100.0 %
Test CRC 55EBEC72
Copy CRC 55EBEC72
Copy OK

Track 2
Filename D:\DOWNLOADS\__UPLOADS\SUN RA & his arkestra - Live at Montreux Disc 2 (1976) [FLAC]\02 - Take The A Train.wav

Peak level 99.9 %
Track quality 99.9 %
Test CRC C30CBCC2
Copy CRC C30CBCC2
Copy OK

Track 3
Filename D:\DOWNLOADS\__UPLOADS\SUN RA & his arkestra - Live at Montreux Disc 2 (1976) [FLAC]\03 - Prelude.wav

Pre-gap length 0:00:00.80

Peak level 99.8 %
Track quality 99.9 %
Test CRC D41CBFBE
Copy CRC D41CBFBE
Copy OK

Track 4
Filename D:\DOWNLOADS\__UPLOADS\SUN RA & his arkestra - Live at Montreux Disc 2 (1976) [FLAC]\04 - El Is The Sound Of Joy.wav

Peak level 99.9 %
Track quality 100.0 %
Test CRC 9514F9DC
Copy CRC 9514F9DC
Copy OK

Track 5
Filename D:\DOWNLOADS\__UPLOADS\SUN RA & his arkestra - Live at Montreux Disc 2 (1976) [FLAC]\05 - Encore 1.wav

Peak level 95.3 %
Track quality 100.0 %
Test CRC 80DEBB27
Copy CRC 80DEBB27
Copy OK

Track 6
Filename D:\DOWNLOADS\__UPLOADS\SUN RA & his arkestra - Live at Montreux Disc 2 (1976) [FLAC]\06 - Encore 2.wav

Peak level 99.9 %
Track quality 100.0 %
Test CRC 6521ACFD
Copy CRC 6521ACFD
Copy OK

Track 7
Filename D:\DOWNLOADS\__UPLOADS\SUN RA & his arkestra - Live at Montreux Disc 2 (1976) [FLAC]\07 - We Travel The Spaceways.wav

Peak level 99.9 %
Track quality 100.0 %
Test CRC F9BACF02
Copy CRC F9BACF02
Copy OK

No errors occured


End of status report



Sun Ra & His Arkestra - Live At Montreux (1976) {2CD Set P-Vine Japan Mini LP PCD-22032~3 rel 2003}


see more Sun Ra…


===