Subcategories

Tanita Tikaram - The Sweet Keeper (1990)

Posted By: stfine
Tanita Tikaram - The Sweet Keeper (1990)

Tanita Tikaram - The Sweet Keeper (1990)
Pop Rock | FLAC+CUE, LOG | covers | 250 MB

Tanita Tikaram made a splash on both sides of the Atlantic at a mere 19 years of age with her dramatic, singer/songwriter-influenced lyrics. The offspring of Malaysian and Fijian parents, Tikaram moved to England at age 12 and began writing songs as a teenager. She played her first gig at 17 in London after a favorable response to her demo tape from a club she had sent it to. After appearing on television, Tikaram was signed to Warner and released Ancient Heart, co-produced by Rod Argent and Peter Van Hooke, in 1988. Both "Twist in My Sobriety" and "Good Tradition" were hits in Europe, and Tikaram toured the world. With the follow-up album, 1990's "The Sweet Keeper", Tikaram began to settle into the status of a cult act.

Tracklist:
01. Once & Not Speak (4:46)
02. Thursday's Child (3:56)
03. It All Came Back Today (6:03)
04. We Almost Got It Together (4:04)
05. Consider The Rain (5:17)
06. Sunset's Arrived (5:08)
07. Little Sister Leaving Town (3:59)
08. I Owe All To You (4:31)
09. Love Story (3:19)
10. Harm in your hands (6:28)

Exact Audio Copy V0.99 prebeta 4 from 23. January 2008

EAC extraction logfile from 7. February 2009, 9:58

Tanita Tikaram / The Sweet Keeper

Used drive : HL-DT-STDVDRAM_GSA-T20N Adapter: 0 ID: 0

Read mode : Secure
Utilize accurate stream : Yes
Defeat audio cache : Yes
Make use of C2 pointers : No

Read offset correction : 667
Overread into Lead-In and Lead-Out : No
Fill up missing offset samples with silence : Yes
Delete leading and trailing silent blocks : No
Null samples used in CRC calculations : Yes
Used interface : Native Win32 interface for Win NT & 2000

Used output format : User Defined Encoder
Selected bitrate : 768 kBit/s
Quality : High
Add ID3 tag : No
Command line compressor : C:\Program Files\Exact Audio Copy\FLAC\FLAC.EXE
Additional command line options : -6 -V -T "ARTIST=%a" -T "TITLE=%t" -T "ALBUM=%g" -T "DATE=%y" -T "TRACKNUMBER=%n" -T "GENRE=%m" -T "COMMENT=%e" %s -o %d


TOC of the extracted CD

Track | Start | Length | Start sector | End sector
––––––––––––––––––––––––––––-
1 | 0:00.00 | 4:46.07 | 0 | 21456
2 | 4:46.07 | 3:56.03 | 21457 | 39159
3 | 8:42.10 | 6:03.65 | 39160 | 66449
4 | 14:46.00 | 4:04.17 | 66450 | 84766
5 | 18:50.17 | 5:17.08 | 84767 | 108549
6 | 24:07.25 | 5:08.42 | 108550 | 131691
7 | 29:15.67 | 3:59.10 | 131692 | 149626
8 | 33:15.02 | 4:31.50 | 149627 | 170001
9 | 37:46.52 | 3:19.38 | 170002 | 184964
10 | 41:06.15 | 6:28.65 | 184965 | 214129


Range status and errors

Selected range

Filename C:\Torrent\Own shares\Tanita Tikaram - The Sweet Keeper.wav

Peak level 93.3 %
Range quality 100.0 %
Copy CRC B663DFF2
Copy OK

No errors occurred


AccurateRip summary

Track 1 accurately ripped (confidence 1) [34CA2B33]
Track 2 accurately ripped (confidence 1) [D98CF3F7]
Track 3 accurately ripped (confidence 1) [832B4E62]
Track 4 accurately ripped (confidence 1) [024E4A4B]
Track 5 accurately ripped (confidence 1) [4C4EC4B6]
Track 6 accurately ripped (confidence 1) [6C8E67E1]
Track 7 accurately ripped (confidence 1) [C6B483ED]
Track 8 accurately ripped (confidence 1) [0A13F8A2]
Track 9 accurately ripped (confidence 1) [8B1F8F45]
Track 10 accurately ripped (confidence 1) [04EA8362]

All tracks accurately ripped

End of status report

Tanita Tikaram - The Sweet Keeper (1990)


Preview songs on Amazon