Tags
Language
Tags

Ten Years After - Naturally Live (2019) {Fast Western Records BUR340069}

Posted By: ruskaval
Ten Years After - Naturally Live (2019) {Fast Western Records BUR340069}

Ten Years After - Naturally Live (2019) {Fast Western Records BUR340069}
EAC rip (secure mode) | FLAC (tracks)+CUE+LOG -> 506 Mb | MP3 @320 -> 171 Mb
Full Artwork @ 300 dpi (jpg) -> 16 Mb | 5% repair rar
© 2019 Fast Western Records / Butler Records | BUR340069
Rock / Blues Rock / Blues / Hard Rock

'Naturally Live' was recorded on March 24, 2018 at the HsD Museumkeller in Erfurt (Germany) during the tour that followed the release of their most recent studio album 'A Sting In The Tale'. As well as original members Ric Lee and Chick Churchill, the band features Bass Icon Colin Hodgkinson and multi-award winning Guitarist Vocalist Marcus Bonfanti. This line-up was also responsible for 'A Sting In The Tale' that was released 50 years after the release of their eponymous debut album in 1967.
Ten Years After - Naturally Live (2019) {Fast Western Records BUR340069}

Ten Years After - Naturally Live (2019) {Fast Western Records BUR340069}


Tracklist:
1. Land Of The Vandals (Live) ( 3:46)
2. One Of These Days (Live) ( 5:08)
3. Hear Me Calling (Live) ( 6:28)
4. I'd Love To Change The World (Live) ( 6:37)
5. Silverspoon Lady (Live) ( 4:15)
6. Last Night Of The Bottle (Live) ( 5:50)
7. Portable People (Live) ( 3:01)
8. Don't Want You Woman (Live) ( 4:03)
9. Losing The Dogs (Live) ( 3:36)
10. 50,000 Miles Beneath My Brain (Live) ( 7:39)
11. Good Morning Little Schoolgirl (Live) ( 7:52)
12. I'm Going Home (Live) (10:36)
13. Ric Lee Introducing Tya (Live) ( 2:29)

Exact Audio Copy V1.3 from 2. September 2016

EAC extraction logfile from 23. September 2019, 10:12

Ten Years After / Naturally Live

Used drive : PLEXTOR PX-891SAF Adapter: 1 ID: 0

Read mode : Secure
Utilize accurate stream : Yes
Defeat audio cache : Yes
Make use of C2 pointers : No

Read offset correction : 6
Overread into Lead-In and Lead-Out : No
Fill up missing offset samples with silence : Yes
Delete leading and trailing silent blocks : No
Null samples used in CRC calculations : Yes
Used interface : Native Win32 interface for Win NT & 2000
Gap handling : Appended to previous track

Used output format : User Defined Encoder
Selected bitrate : 1024 kBit/s
Quality : High
Add ID3 tag : No
Command line compressor : C:\Program Files (x86)\Exact Audio Copy\Flac\flac.exe
Additional command line options : -8 -V -T "ARTIST=%artist%" -T "TITLE=%title%" -T "ALBUM=%albumtitle%" -T "DATE=%year%" -T "TRACKNUMBER=%tracknr%" -T "GENRE=%genre%" -T "PERFORMER=%albuminterpret%" -T "COMPOSER=%composer%" %haslyrics%–tag-from-file=LYRICS="%lyricsfile%"%haslyrics% -T "ALBUMARTIST=%albumartist%" -T "DISCNUMBER=%cdnumber%" -T "TOTALDISCS=%totalcds%" -T "TOTALTRACKS=%numtracks%" -T "COMMENT=%comment%" %source% -o %dest%


TOC of the extracted CD

Track | Start | Length | Start sector | End sector
––––––––––––––––––––––––––––-
1 | 0:00.00 | 3:46.06 | 0 | 16955
2 | 3:46.06 | 5:08.07 | 16956 | 40062
3 | 8:54.13 | 6:28.07 | 40063 | 69169
4 | 15:22.20 | 6:36.70 | 69170 | 98939
5 | 21:59.15 | 4:15.10 | 98940 | 118074
6 | 26:14.25 | 5:50.52 | 118075 | 144376
7 | 32:05.02 | 3:01.11 | 144377 | 157962
8 | 35:06.13 | 4:03.01 | 157963 | 176188
9 | 39:09.14 | 3:35.73 | 176189 | 192386
10 | 42:45.12 | 7:39.09 | 192387 | 226820
11 | 50:24.21 | 7:52.30 | 226821 | 262250
12 | 58:16.51 | 10:36.64 | 262251 | 310014
13 | 68:53.40 | 2:29.68 | 310015 | 321257


Track 1

Filename D:\#cdr\#wav+flac\Ten Years After - Naturally Live\01. Ten Years After - Land Of The Vandals.wav

Pre-gap length 0:00:02.00

Peak level 98.5 %
Extraction speed 4.4 X
Track quality 99.9 %
Test CRC 402E77AD
Copy CRC 402E77AD
Track not present in AccurateRip database
Copy OK

Track 2

Filename D:\#cdr\#wav+flac\Ten Years After - Naturally Live\02. Ten Years After - One Of These Days.wav

Peak level 98.6 %
Extraction speed 5.3 X
Track quality 99.9 %
Test CRC A0550793
Copy CRC A0550793
Track not present in AccurateRip database
Copy OK

Track 3

Filename D:\#cdr\#wav+flac\Ten Years After - Naturally Live\03. Ten Years After - Hear Me Calling.wav

Peak level 98.6 %
Extraction speed 6.1 X
Track quality 99.9 %
Test CRC 57953CB1
Copy CRC 57953CB1
Track not present in AccurateRip database
Copy OK

Track 4

Filename D:\#cdr\#wav+flac\Ten Years After - Naturally Live\04. Ten Years After - I'd Love To Change The World.wav

Peak level 99.1 %
Extraction speed 7.8 X
Track quality 100.0 %
Test CRC E76B2410
Copy CRC E76B2410
Track not present in AccurateRip database
Copy OK

Track 5

Filename D:\#cdr\#wav+flac\Ten Years After - Naturally Live\05. Ten Years After - Silverspoon Lady.wav

Peak level 99.1 %
Extraction speed 7.9 X
Track quality 100.0 %
Test CRC EAD87823
Copy CRC EAD87823
Track not present in AccurateRip database
Copy OK

Track 6

Filename D:\#cdr\#wav+flac\Ten Years After - Naturally Live\06. Ten Years After - Last Night Of The Bottle.wav

Peak level 98.5 %
Extraction speed 8.7 X
Track quality 100.0 %
Test CRC 87207708
Copy CRC 87207708
Track not present in AccurateRip database
Copy OK

Track 7

Filename D:\#cdr\#wav+flac\Ten Years After - Naturally Live\07. Ten Years After - Portable People.wav

Peak level 98.6 %
Extraction speed 7.9 X
Track quality 100.0 %
Test CRC F7E6F015
Copy CRC F7E6F015
Track not present in AccurateRip database
Copy OK

Track 8

Filename D:\#cdr\#wav+flac\Ten Years After - Naturally Live\08. Ten Years After - Don't Want You Woman.wav

Peak level 98.5 %
Extraction speed 7.1 X
Track quality 99.9 %
Test CRC BF18B75B
Copy CRC BF18B75B
Track not present in AccurateRip database
Copy OK

Track 9

Filename D:\#cdr\#wav+flac\Ten Years After - Naturally Live\09. Ten Years After - Losing The Dogs.wav

Peak level 98.7 %
Extraction speed 9.1 X
Track quality 100.0 %
Test CRC 512B8F56
Copy CRC 512B8F56
Track not present in AccurateRip database
Copy OK

Track 10

Filename D:\#cdr\#wav+flac\Ten Years After - Naturally Live\10. Ten Years After - 50000 Miles Beneath My Brain.wav

Peak level 98.6 %
Extraction speed 9.1 X
Track quality 99.9 %
Test CRC A91D838D
Copy CRC A91D838D
Track not present in AccurateRip database
Copy OK

Track 11

Filename D:\#cdr\#wav+flac\Ten Years After - Naturally Live\11. Ten Years After - Good Morning Little Schoolgirl.wav

Peak level 98.6 %
Extraction speed 9.6 X
Track quality 99.9 %
Test CRC 6999D8FA
Copy CRC 6999D8FA
Track not present in AccurateRip database
Copy OK

Track 12

Filename D:\#cdr\#wav+flac\Ten Years After - Naturally Live\12. Ten Years After - I'm Going Home.wav

Peak level 98.8 %
Extraction speed 11.8 X
Track quality 100.0 %
Test CRC 901A3D13
Copy CRC 901A3D13
Track not present in AccurateRip database
Copy OK

Track 13

Filename D:\#cdr\#wav+flac\Ten Years After - Naturally Live\13. Ten Years After - Ric Lee Introducing Tya.wav

Peak level 98.4 %
Extraction speed 10.2 X
Track quality 100.0 %
Test CRC D0AD9F21
Copy CRC D0AD9F21
Track not present in AccurateRip database
Copy OK


None of the tracks are present in the AccurateRip database

No errors occurred

End of status report

–– CUETools DB Plugin V2.1.6

[CTDB TOCID: vTlBBSJ_f4WLUbCskH.p01KYOYo-] found
Submit result: vTlBBSJ_f4WLUbCskH.p01KYOYo- has been confirmed
Track | CTDB Status
1 | (1/1) Accurately ripped
2 | (1/1) Accurately ripped
3 | (1/1) Accurately ripped
4 | (1/1) Accurately ripped
5 | (1/1) Accurately ripped
6 | (1/1) Accurately ripped
7 | (1/1) Accurately ripped
8 | (1/1) Accurately ripped
9 | (1/1) Accurately ripped
10 | (1/1) Accurately ripped
11 | (1/1) Accurately ripped
12 | (1/1) Accurately ripped
13 | (1/1) Accurately ripped


==== Log checksum 46134C98B9F8318E64AE5BBA49A3774099F37B735FADBF258C15CBC0595B5C0E ====

––––––––––––––––––––––––––––––

Exact Audio Copy V1.3 from 2. September 2016

EAC extraction logfile from 23. September 2019, 10:12

Ten Years After / Naturally Live

Used drive : PLEXTOR PX-891SAF Adapter: 1 ID: 0

Read mode : Secure
Utilize accurate stream : Yes
Defeat audio cache : Yes
Make use of C2 pointers : No

Read offset correction : 6
Overread into Lead-In and Lead-Out : No
Fill up missing offset samples with silence : Yes
Delete leading and trailing silent blocks : No
Null samples used in CRC calculations : Yes
Used interface : Native Win32 interface for Win NT & 2000
Gap handling : Appended to previous track

Used output format : User Defined Encoder
Selected bitrate : 1024 kBit/s
Quality : High
Add ID3 tag : No
Command line compressor : C:\Program Files (x86)\Exact Audio Copy\Flac\flac.exe
Additional command line options : -8 -V -T "ARTIST=%artist%" -T "TITLE=%title%" -T "ALBUM=%albumtitle%" -T "DATE=%year%" -T "TRACKNUMBER=%tracknr%" -T "GENRE=%genre%" -T "PERFORMER=%albuminterpret%" -T "COMPOSER=%composer%" %haslyrics%–tag-from-file=LYRICS="%lyricsfile%"%haslyrics% -T "ALBUMARTIST=%albumartist%" -T "DISCNUMBER=%cdnumber%" -T "TOTALDISCS=%totalcds%" -T "TOTALTRACKS=%numtracks%" -T "COMMENT=%comment%" %source% -o %dest%


TOC of the extracted CD

Track | Start | Length | Start sector | End sector
––––––––––––––––––––––––––––-
1 | 0:00.00 | 3:46.06 | 0 | 16955
2 | 3:46.06 | 5:08.07 | 16956 | 40062
3 | 8:54.13 | 6:28.07 | 40063 | 69169
4 | 15:22.20 | 6:36.70 | 69170 | 98939
5 | 21:59.15 | 4:15.10 | 98940 | 118074
6 | 26:14.25 | 5:50.52 | 118075 | 144376
7 | 32:05.02 | 3:01.11 | 144377 | 157962
8 | 35:06.13 | 4:03.01 | 157963 | 176188
9 | 39:09.14 | 3:35.73 | 176189 | 192386
10 | 42:45.12 | 7:39.09 | 192387 | 226820
11 | 50:24.21 | 7:52.30 | 226821 | 262250
12 | 58:16.51 | 10:36.64 | 262251 | 310014
13 | 68:53.40 | 2:29.68 | 310015 | 321257


Track 1

Filename D:\#cdr\#wav+flac\Ten Years After - Naturally Live\01. Ten Years After - Land Of The Vandals.wav

Pre-gap length 0:00:02.00

Peak level 98.5 %
Extraction speed 4.4 X
Track quality 99.9 %
Test CRC 402E77AD
Copy CRC 402E77AD
Track not present in AccurateRip database
Copy OK

Track 2

Filename D:\#cdr\#wav+flac\Ten Years After - Naturally Live\02. Ten Years After - One Of These Days.wav

Peak level 98.6 %
Extraction speed 5.3 X
Track quality 99.9 %
Test CRC A0550793
Copy CRC A0550793
Track not present in AccurateRip database
Copy OK

Track 3

Filename D:\#cdr\#wav+flac\Ten Years After - Naturally Live\03. Ten Years After - Hear Me Calling.wav

Peak level 98.6 %
Extraction speed 6.1 X
Track quality 99.9 %
Test CRC 57953CB1
Copy CRC 57953CB1
Track not present in AccurateRip database
Copy OK

Track 4

Filename D:\#cdr\#wav+flac\Ten Years After - Naturally Live\04. Ten Years After - I'd Love To Change The World.wav

Peak level 99.1 %
Extraction speed 7.8 X
Track quality 100.0 %
Test CRC E76B2410
Copy CRC E76B2410
Track not present in AccurateRip database
Copy OK

Track 5

Filename D:\#cdr\#wav+flac\Ten Years After - Naturally Live\05. Ten Years After - Silverspoon Lady.wav

Peak level 99.1 %
Extraction speed 7.9 X
Track quality 100.0 %
Test CRC EAD87823
Copy CRC EAD87823
Track not present in AccurateRip database
Copy OK

Track 6

Filename D:\#cdr\#wav+flac\Ten Years After - Naturally Live\06. Ten Years After - Last Night Of The Bottle.wav

Peak level 98.5 %
Extraction speed 8.7 X
Track quality 100.0 %
Test CRC 87207708
Copy CRC 87207708
Track not present in AccurateRip database
Copy OK

Track 7

Filename D:\#cdr\#wav+flac\Ten Years After - Naturally Live\07. Ten Years After - Portable People.wav

Peak level 98.6 %
Extraction speed 7.9 X
Track quality 100.0 %
Test CRC F7E6F015
Copy CRC F7E6F015
Track not present in AccurateRip database
Copy OK

Track 8

Filename D:\#cdr\#wav+flac\Ten Years After - Naturally Live\08. Ten Years After - Don't Want You Woman.wav

Peak level 98.5 %
Extraction speed 7.1 X
Track quality 99.9 %
Test CRC BF18B75B
Copy CRC BF18B75B
Track not present in AccurateRip database
Copy OK

Track 9

Filename D:\#cdr\#wav+flac\Ten Years After - Naturally Live\09. Ten Years After - Losing The Dogs.wav

Peak level 98.7 %
Extraction speed 9.1 X
Track quality 100.0 %
Test CRC 512B8F56
Copy CRC 512B8F56
Track not present in AccurateRip database
Copy OK

Track 10

Filename D:\#cdr\#wav+flac\Ten Years After - Naturally Live\10. Ten Years After - 50000 Miles Beneath My Brain.wav

Peak level 98.6 %
Extraction speed 9.1 X
Track quality 99.9 %
Test CRC A91D838D
Copy CRC A91D838D
Track not present in AccurateRip database
Copy OK

Track 11

Filename D:\#cdr\#wav+flac\Ten Years After - Naturally Live\11. Ten Years After - Good Morning Little Schoolgirl.wav

Peak level 98.6 %
Extraction speed 9.6 X
Track quality 99.9 %
Test CRC 6999D8FA
Copy CRC 6999D8FA
Track not present in AccurateRip database
Copy OK

Track 12

Filename D:\#cdr\#wav+flac\Ten Years After - Naturally Live\12. Ten Years After - I'm Going Home.wav

Peak level 98.8 %
Extraction speed 11.8 X
Track quality 100.0 %
Test CRC 901A3D13
Copy CRC 901A3D13
Track not present in AccurateRip database
Copy OK

Track 13

Filename D:\#cdr\#wav+flac\Ten Years After - Naturally Live\13. Ten Years After - Ric Lee Introducing Tya.wav

Peak level 98.4 %
Extraction speed 10.2 X
Track quality 100.0 %
Test CRC D0AD9F21
Copy CRC D0AD9F21
Track not present in AccurateRip database
Copy OK


None of the tracks are present in the AccurateRip database

No errors occurred

End of status report

–– CUETools DB Plugin V2.1.6

[CTDB TOCID: vTlBBSJ_f4WLUbCskH.p01KYOYo-] found
Submit result: vTlBBSJ_f4WLUbCskH.p01KYOYo- has been confirmed
Track | CTDB Status
1 | (1/1) Accurately ripped
2 | (1/1) Accurately ripped
3 | (1/1) Accurately ripped
4 | (1/1) Accurately ripped
5 | (1/1) Accurately ripped
6 | (1/1) Accurately ripped
7 | (1/1) Accurately ripped
8 | (1/1) Accurately ripped
9 | (1/1) Accurately ripped
10 | (1/1) Accurately ripped
11 | (1/1) Accurately ripped
12 | (1/1) Accurately ripped
13 | (1/1) Accurately ripped


==== Log checksum 46134C98B9F8318E64AE5BBA49A3774099F37B735FADBF258C15CBC0595B5C0E ====


Ten Years After - Naturally Live (2019) {Fast Western Records BUR340069}



===