Tags
Language
Tags

The In-Crowd - His Majesty Is Coming (1978) {2CD Set, Remastered & Expanded, Trojan Records TJDDD257 rel 2005}

Posted By: ruskaval
The In-Crowd - His Majesty Is Coming (1978) {2CD Set, Remastered & Expanded, Trojan Records TJDDD257 rel 2005}

The In-Crowd - His Majesty Is Coming (1978) {2CD Set, Remastered & Expanded, Trojan Records TJDDD257 rel 2005}
EAC rip (secure mode) | FLAC (tracks)+CUE+LOG -> 990 Mb | MP3 @320 -> 347 Mb
Full Artwork @ 300 dpi (jpg) -> 66 Mb | 5% repair rar
© 1978, 2005 Creole Records / Trojan Records | TJDDD257
Reggae / Roots Reggae / Rocksteady

Originally issued by Creole Records in 1978; the In Crowd's best-selling 'His Majesty Is Coming' album finally receives its due respect with this long-overdue reissue. Augmented by a number of the group's non-album recordings from the period; plus Phil Callender's most popular late seventies solo material; this is in essence a 'best of'; which is truly an essential collection for any self-respecting fan of Roots Reggae.
The In-Crowd - His Majesty Is Coming (1978) {2CD Set, Remastered & Expanded, Trojan Records TJDDD257 rel 2005}

The In Crowd, like make most true Jamaican bands (as compared to vocal groups), had both a day and a night job. While the sun shined they worked as sessionmen (notably for Glen Brown), in the evening they took to the stage. A little more unusually though, they had a songwriter in their midst, Fil Callendar, who also doubled as their producer. Heavily influenced by the lighter side of the American R&B scene – the Stylistics, Chi-Lites, et al, the Crowd created reggae with a decided urban flair, which proved popular on both sides of the Atlantic. "His Majesty Is Coming" landed in the U.K. reggae Top 10 in late 1976, and remained there until "We Play Reggae" pushed it aside the following June, which in turn eventually gave way to the equally successful "Back a Yard." Invariably, all three appeared on the band's debut album, titled after the first hit, with "Born in Ethiopia," a further Jamaican smash single tossed in for good measure. The band's sublime, sweet harmonies, bubbly rhythms, and arrangements edged with funk, blues, or urban flavors went down easily. Their conscious lyrics added weight, with numbers like "Beg You a Ten Cent," "Slave Ship," "You Facey Whitey," and "Power of the Spirit" providing real bite. This album was the band's crowning achievement, although a series of further strong singles from the band and a solo Callendar followed. This two-CD reissue includes virtually all of them, adding a further 24 tracks to the original album's 11. Several of the songs appear in their splendid, extended "discomix" form, a couple with DJ versions attached. Callendar's "Sweet Man," a major British reggae hit in 1980, his "Rub a Dub Time," and "Life" are among the highlights, as is the Crowd's "Marcus Garvey's Back in Town," "Add a Little Light," "Getting Cozy," and "Riding High," all of which hit big in Jamaica. Only the omission of "Milk and Honey" and "Island Music," the latter another Brit hit, stop this from being the ultimate In Crowd compilation.
The In-Crowd - His Majesty Is Coming (1978) {2CD Set, Remastered & Expanded, Trojan Records TJDDD257 rel 2005}


Tracklisting:

Disc One


01 - His Majesty Is Coming
02 - Beg You A Ten Cent
03 - More Employment
04 - Back A Yard
05 - Let's Go To The Party
06 - We Play Reggae
07 - A Little Bit Of Reggae
08 - Slave Ship
09 - You Facey Whitey
10 - Born In Ethiopia
11 - Power Of The Spirit
12 - Daughter Child
13 - Reggae Groove
14 - Life (12' Version) (By Fil Callender)
15 - Riding High (12' Version)
16 - No Money

The In-Crowd - His Majesty Is Coming (1978) {2CD Set, Remastered & Expanded, Trojan Records TJDDD257 rel 2005}


Disc Two

01 - Baby My Love (Feat. Jah Stitch)
02 - Love Harmony (Feat. Barry Bailey)
03 - Marcus Garvey's Back In Town (12'' Version)
04 - Dedicated To Jah
05 - Man From New Guinea
06 - Add A Little Light
07 - Introducing Little Dread
08 - Sweet Man (By Fil Callender)
09 - Getting Cozy (Extended Mix)
10 - Gamesta
11 - Rasta Man No Evil
12 - Everybody Wants To Be Loved
13 - In My Arms
14 - Rub A Dub Time (12' Version)
15 - Give Us More Time

The In-Crowd - His Majesty Is Coming (1978) {2CD Set, Remastered & Expanded, Trojan Records TJDDD257 rel 2005}


Exact Audio Copy V1.0 beta 3 from 29. August 2011

EAC extraction logfile from 9. May 2015, 23:05

The In Crowd / His Majesty Is Coming CD1

Used drive : TSSTcorpCDDVDW SN-208DN Adapter: 0 ID: 0

Read mode : Secure
Utilize accurate stream : Yes
Defeat audio cache : Yes
Make use of C2 pointers : No

Read offset correction : 6
Overread into Lead-In and Lead-Out : No
Fill up missing offset samples with silence : Yes
Delete leading and trailing silent blocks : No
Null samples used in CRC calculations : Yes
Used interface : Native Win32 interface for Win NT & 2000
Gap handling : Appended to previous track

Used output format : User Defined Encoder
Selected bitrate : 128 kBit/s
Quality : High
Add ID3 tag : No
Command line compressor : C:\Program Files (x86)\Exact Audio Copy\Flac\flac.exe
Additional command line options : -8 -V -T "ARTIST=%artist%" -T "TITLE=%title%" -T "ALBUM=%albumtitle%" -T "DATE=%year%" -T "TRACKNUMBER=%tracknr%" -T "TOTALTRACKS=%numtracks%" -T "GENRE=%genre%" -T "ALBUMARTIST=%albumartist%" -T "ALBUM ARTIST=%albumartist%" -T "COMMENT=EAC Secure Mode, Test & Copy, AccurateRip, FLAC -8" %source%


TOC of the extracted CD

Track | Start | Length | Start sector | End sector
––––––––––––––––––––––––––––-
1 | 0:00.00 | 3:15.21 | 0 | 14645
2 | 3:15.21 | 3:51.31 | 14646 | 32001
3 | 7:06.52 | 4:24.47 | 32002 | 51848
4 | 11:31.24 | 4:26.64 | 51849 | 71862
5 | 15:58.13 | 3:48.04 | 71863 | 88966
6 | 19:46.17 | 3:46.34 | 88967 | 105950
7 | 23:32.51 | 4:02.29 | 105951 | 124129
8 | 27:35.05 | 3:38.69 | 124130 | 140548
9 | 31:13.74 | 3:33.26 | 140549 | 156549
10 | 34:47.25 | 3:20.37 | 156550 | 171586
11 | 38:07.62 | 5:40.38 | 171587 | 197124
12 | 43:48.25 | 3:58.26 | 197125 | 215000
13 | 47:46.51 | 5:10.11 | 215001 | 238261
14 | 52:56.62 | 5:36.56 | 238262 | 263517
15 | 58:33.43 | 8:45.56 | 263518 | 302948
16 | 67:19.24 | 4:40.43 | 302949 | 323991


Track 1

Filename C:\AddisistheGodFlac\01 - His Majesty Is Coming.wav

Pre-gap length 0:00:02.00

Peak level 99.4 %
Extraction speed 2.9 X
Track quality 100.0 %
Test CRC EA8519B2
Copy CRC EA8519B2
Accurately ripped (confidence 1) [71EFA04F] (AR v2)
Copy OK

Track 2

Filename C:\AddisistheGodFlac\02 - Beg You A Ten Cent.wav

Peak level 99.4 %
Extraction speed 2.6 X
Track quality 99.9 %
Test CRC 9F66B143
Copy CRC 9F66B143
Accurately ripped (confidence 1) [54DF3646] (AR v2)
Copy OK

Track 3

Filename C:\AddisistheGodFlac\03 - More Employment.wav

Peak level 99.7 %
Extraction speed 2.9 X
Track quality 99.9 %
Test CRC 7008DA2D
Copy CRC 7008DA2D
Accurately ripped (confidence 1) [E82C192A] (AR v2)
Copy OK

Track 4

Filename C:\AddisistheGodFlac\04 - Back A Yard.wav

Peak level 99.7 %
Extraction speed 3.7 X
Track quality 100.0 %
Test CRC CCD153A7
Copy CRC CCD153A7
Accurately ripped (confidence 1) [34CFD804] (AR v2)
Copy OK

Track 5

Filename C:\AddisistheGodFlac\05 - Let's Go To The Party.wav

Peak level 99.4 %
Extraction speed 3.1 X
Track quality 99.9 %
Test CRC 2951487D
Copy CRC 2951487D
Accurately ripped (confidence 1) [7C35F7E9] (AR v2)
Copy OK

Track 6

Filename C:\AddisistheGodFlac\06 - We Play Reggae.wav

Peak level 98.8 %
Extraction speed 4.0 X
Track quality 100.0 %
Test CRC FFBDA8D2
Copy CRC FFBDA8D2
Accurately ripped (confidence 1) [AA3F8F38] (AR v2)
Copy OK

Track 7

Filename C:\AddisistheGodFlac\07 - A Little Bit Of Reggae.wav

Peak level 92.2 %
Extraction speed 4.3 X
Track quality 100.0 %
Test CRC A1B08EA0
Copy CRC A1B08EA0
Accurately ripped (confidence 1) [6B626BEF] (AR v2)
Copy OK

Track 8

Filename C:\AddisistheGodFlac\08 - Slave Ship.wav

Peak level 92.2 %
Extraction speed 4.4 X
Track quality 100.0 %
Test CRC B32D0D2D
Copy CRC B32D0D2D
Accurately ripped (confidence 1) [C3FDB5D0] (AR v2)
Copy OK

Track 9

Filename C:\AddisistheGodFlac\09 - You Facey Whitey.wav

Peak level 98.8 %
Extraction speed 4.5 X
Track quality 100.0 %
Test CRC 73C61AE1
Copy CRC 73C61AE1
Accurately ripped (confidence 1) [F816D3F9] (AR v2)
Copy OK

Track 10

Filename C:\AddisistheGodFlac\10 - Born In Ethiopia.wav

Peak level 98.8 %
Extraction speed 3.6 X
Track quality 99.9 %
Test CRC D8622AF7
Copy CRC D8622AF7
Accurately ripped (confidence 1) [5C653EC2] (AR v2)
Copy OK

Track 11

Filename C:\AddisistheGodFlac\11 - Power Of The Spirit.wav

Peak level 98.3 %
Extraction speed 5.1 X
Track quality 100.0 %
Test CRC CA10A8E2
Copy CRC CA10A8E2
Accurately ripped (confidence 1) [7AD33C22] (AR v2)
Copy OK

Track 12

Filename C:\AddisistheGodFlac\12 - Daughter Child.wav

Peak level 98.8 %
Extraction speed 4.1 X
Track quality 99.9 %
Test CRC CFDE00AB
Copy CRC CFDE00AB
Accurately ripped (confidence 1) [0951DA68] (AR v2)
Copy OK

Track 13

Filename C:\AddisistheGodFlac\13 - Reggae Groove.wav

Peak level 99.7 %
Extraction speed 5.4 X
Track quality 100.0 %
Test CRC 7378B2B3
Copy CRC 7378B2B3
Accurately ripped (confidence 1) [3119D4E7] (AR v2)
Copy OK

Track 14

Filename C:\AddisistheGodFlac\14 - Life (12' Version) (By Fil Callender).wav

Peak level 99.7 %
Extraction speed 5.6 X
Track quality 100.0 %
Test CRC 473A97FA
Copy CRC 473A97FA
Accurately ripped (confidence 1) [0AF7D38C] (AR v2)
Copy OK

Track 15

Filename C:\AddisistheGodFlac\15 - Riding High (12' Version).wav

Peak level 98.8 %
Extraction speed 6.1 X
Track quality 100.0 %
Test CRC 13FE2C45
Copy CRC 13FE2C45
Accurately ripped (confidence 1) [6DC2A05A] (AR v2)
Copy OK

Track 16

Filename C:\AddisistheGodFlac\16 - No Money.wav

Peak level 99.7 %
Extraction speed 5.9 X
Track quality 100.0 %
Test CRC EB41F015
Copy CRC EB41F015
Accurately ripped (confidence 1) [30D13283] (AR v2)
Copy OK


All tracks accurately ripped

No errors occurred

End of status report

==== Log checksum FA60A460EEF6F074BF937833C22DE1E95CE8DBFB30E9BF41368942D86B78A6EB ====
Exact Audio Copy V1.0 beta 3 from 29. August 2011

EAC extraction logfile from 10. May 2015, 0:28

The In Crowd / His Majesty Is Coming CD2

Used drive : TSSTcorpCDDVDW SN-208DN Adapter: 0 ID: 0

Read mode : Secure
Utilize accurate stream : Yes
Defeat audio cache : Yes
Make use of C2 pointers : No

Read offset correction : 6
Overread into Lead-In and Lead-Out : No
Fill up missing offset samples with silence : Yes
Delete leading and trailing silent blocks : No
Null samples used in CRC calculations : Yes
Used interface : Native Win32 interface for Win NT & 2000
Gap handling : Appended to previous track

Used output format : User Defined Encoder
Selected bitrate : 128 kBit/s
Quality : High
Add ID3 tag : No
Command line compressor : C:\Program Files (x86)\Exact Audio Copy\Flac\flac.exe
Additional command line options : -8 -V -T "ARTIST=%artist%" -T "TITLE=%title%" -T "ALBUM=%albumtitle%" -T "DATE=%year%" -T "TRACKNUMBER=%tracknr%" -T "TOTALTRACKS=%numtracks%" -T "GENRE=%genre%" -T "ALBUMARTIST=%albumartist%" -T "ALBUM ARTIST=%albumartist%" -T "COMMENT=EAC Secure Mode, Test & Copy, AccurateRip, FLAC -8" %source%


TOC of the extracted CD

Track | Start | Length | Start sector | End sector
––––––––––––––––––––––––––––-
1 | 0:00.00 | 7:56.71 | 0 | 35770
2 | 7:56.71 | 4:08.72 | 35771 | 54442
3 | 12:05.68 | 6:12.30 | 54443 | 82372
4 | 18:18.23 | 4:33.01 | 82373 | 102848
5 | 22:51.24 | 4:02.05 | 102849 | 121003
6 | 26:53.29 | 4:04.24 | 121004 | 139327
7 | 30:57.53 | 3:33.66 | 139328 | 155368
8 | 34:31.44 | 3:55.16 | 155369 | 173009
9 | 38:26.60 | 6:02.41 | 173010 | 200200
10 | 44:29.26 | 3:49.69 | 200201 | 217444
11 | 48:19.20 | 5:38.17 | 217445 | 242811
12 | 53:57.37 | 3:52.72 | 242812 | 260283
13 | 57:50.34 | 3:25.65 | 260284 | 275723
14 | 61:16.24 | 5:53.29 | 275724 | 302227
15 | 67:09.53 | 5:57.19 | 302228 | 329021


Track 1

Filename C:\AddisistheGodFlac\01 - Baby My Love (Feat. Jah Stitch).wav

Pre-gap length 0:00:02.00

Peak level 86.1 %
Extraction speed 2.8 X
Track quality 100.0 %
Test CRC 09F64F23
Copy CRC 09F64F23
Accurately ripped (confidence 1) [38392A0A] (AR v2)
Copy OK

Track 2

Filename C:\AddisistheGodFlac\02 - Love Harmony (Feat. Barry Bailey).wav

Peak level 98.8 %
Extraction speed 2.4 X
Track quality 99.9 %
Test CRC 6E4FFAC1
Copy CRC 6E4FFAC1
Accurately ripped (confidence 1) [4A91AE9E] (AR v2)
Copy OK

Track 3

Filename C:\AddisistheGodFlac\03 - Marcus Garvey's Back In Town (12'' Version).wav

Peak level 99.7 %
Extraction speed 3.4 X
Track quality 100.0 %
Test CRC 0BB76D38
Copy CRC 0BB76D38
Accurately ripped (confidence 1) [DEDCF02E] (AR v2)
Copy OK

Track 4

Filename C:\AddisistheGodFlac\04 - Dedicated To Jah.wav

Peak level 98.8 %
Extraction speed 3.5 X
Track quality 100.0 %
Test CRC 75E954B5
Copy CRC 75E954B5
Accurately ripped (confidence 1) [4C5FA70F] (AR v2)
Copy OK

Track 5

Filename C:\AddisistheGodFlac\05 - Man From New Guinea.wav

Peak level 86.9 %
Extraction speed 3.7 X
Track quality 100.0 %
Test CRC 66AF830E
Copy CRC 66AF830E
Accurately ripped (confidence 1) [1C4231CD] (AR v2)
Copy OK

Track 6

Filename C:\AddisistheGodFlac\06 - Add A Little Light.wav

Peak level 93.1 %
Extraction speed 3.0 X
Track quality 99.9 %
Test CRC F6D025CD
Copy CRC F6D025CD
Accurately ripped (confidence 1) [B7C64D1B] (AR v2)
Copy OK

Track 7

Filename C:\AddisistheGodFlac\07 - Introducing Little Dread.wav

Peak level 98.8 %
Extraction speed 3.9 X
Track quality 100.0 %
Test CRC CB4B7C43
Copy CRC CB4B7C43
Accurately ripped (confidence 1) [B6EFA73D] (AR v2)
Copy OK

Track 8

Filename C:\AddisistheGodFlac\08 - Sweet Man (By Fil Callender).wav

Peak level 99.7 %
Extraction speed 4.0 X
Track quality 100.0 %
Test CRC BD7A94F5
Copy CRC BD7A94F5
Accurately ripped (confidence 1) [23113FE9] (AR v2)
Copy OK

Track 9

Filename C:\AddisistheGodFlac\09 - Getting Cozy (Extended Mix).wav

Peak level 98.8 %
Extraction speed 3.8 X
Track quality 99.9 %
Test CRC 4E2ED65C
Copy CRC 4E2ED65C
Accurately ripped (confidence 1) [9F02D29F] (AR v2)
Copy OK

Track 10

Filename C:\AddisistheGodFlac\10 - Gamesta.wav

Peak level 98.8 %
Extraction speed 4.4 X
Track quality 100.0 %
Test CRC 586E3A11
Copy CRC 586E3A11
Accurately ripped (confidence 1) [D60B1A2F] (AR v2)
Copy OK

Track 11

Filename C:\AddisistheGodFlac\11 - Rasta Man No Evil.wav

Peak level 98.8 %
Extraction speed 4.8 X
Track quality 100.0 %
Test CRC 44A698C0
Copy CRC 44A698C0
Accurately ripped (confidence 1) [8B9071C7] (AR v2)
Copy OK

Track 12

Filename C:\AddisistheGodFlac\12 - Everybody Wants To Be Loved.wav

Peak level 93.1 %
Extraction speed 4.6 X
Track quality 100.0 %
Test CRC 4C4792C0
Copy CRC 4C4792C0
Accurately ripped (confidence 1) [DC89451E] (AR v2)
Copy OK

Track 13

Filename C:\AddisistheGodFlac\13 - In My Arms.wav

Peak level 92.2 %
Extraction speed 4.7 X
Track quality 100.0 %
Test CRC C359A646
Copy CRC C359A646
Accurately ripped (confidence 1) [A3CCEE73] (AR v2)
Copy OK

Track 14

Filename C:\AddisistheGodFlac\14 - Rub A Dub Time (12' Version).wav

Peak level 99.7 %
Extraction speed 5.1 X
Track quality 100.0 %
Test CRC FAFC6AC3
Copy CRC FAFC6AC3
Accurately ripped (confidence 1) [7AD08D4F] (AR v2)
Copy OK

Track 15

Filename C:\AddisistheGodFlac\15 - Give Us More Time.wav

Peak level 98.8 %
Extraction speed 4.3 X
Track quality 99.9 %
Test CRC 008790E9
Copy CRC 008790E9
Accurately ripped (confidence 1) [23B7B68A] (AR v2)
Copy OK


All tracks accurately ripped

No errors occurred

End of status report

==== Log checksum AC326A9588A178B4AEB554ECECA6582C0D5E417D7F24F33DFFE8EDCA0ED1E1F6 ====


The In-Crowd - His Majesty Is Coming (1978) {2CD Set, Remastered & Expanded, Trojan Records TJDDD257 rel 2005}



===