Tags
Language
Tags
June 2024
Su Mo Tu We Th Fr Sa
26 27 28 29 30 31 1
2 3 4 5 6 7 8
9 10 11 12 13 14 15
16 17 18 19 20 21 22
23 24 25 26 27 28 29
30 1 2 3 4 5 6

Glenn Gould - The Sound of Glenn Gould (2015) {Sony Classical 88875069952 - Remastered Edition}

Posted By: ruskaval
Glenn Gould - The Sound of Glenn Gould (2015) {Sony Classical 88875069952 - Remastered Edition}

Glenn Gould - The Sound of Glenn Gould (2015) {Sony Classical 88875069952 - Remastered Edition}
EAC rip (secure mode) | FLAC (tracks)+CUE+LOG -> 333 Mb | MP3 @320 -> 177 Mb
Full Artwork @ 300 dpi (png) -> 158 Mb | 5% repair rar
© 2015 Sony Classical | 88875069952 | Remastered Edition
Classical / Baroque / Romantic / Piano

In 1956 Glenn Gould’s first Columbia Masterworks release, Bach’s Goldberg Variations, took the music world by storm and immediately established the 23-year-old Canadian pianist as one of the most brilliant, original, charismatic and provocative classical performers of his time. Sixty years later, Gould’s prolific recorded output remains a stimulating presence, thanks to Sony Classical’s newly remastered collection of his complete authorized recordings in an 81-CD limited edition. The Sound of Glenn Gould presents highlights from this definitive presentation of the legendary pianist’s discography.
Glenn Gould - The Sound of Glenn Gould (2015) {Sony Classical 88875069952 - Remastered Edition}


tracklist:
01 - Bach - Goldberg Variations, BWV 988 - Aria
02 - Bach - Goldberg Variations, BWV 988 - Variatio 1 a 1 Clav.
03 - Bach - Goldberg Variations, BWV 988 - Variatio 2 a 1 Clav.
04 - Bach - Goldberg Variations, BWV 988 - Variatio 3 a 1 Clav. Canone all'Unisuono
05 - Brahms - Intermezzo in A major, op.118 no.2 - Andante teneramente
06 - Bach - Concerto for Keyboard and Orchestra No. 5 in F minor BWV 1056 - II. Largo
07 - Beethoven - Sonata No. 14 in C-sharp minor, op.27 no.2 'Moonlight' - I. Adagio sostenuto
08 - Bach - Concerto for Keyboard and Orchestra No. 2 in E major BWV 1053 - II. Siciliano
09 - Mozart - Piano Sonata No. 11 in A major K. 331 - III. Alla Turca - Allegretto
10 - Beethoven - Concerto for Piano and Orchestra No. 4 in G major op.58 - III. Rondo. Vivace
11 - Haydn - Piano Sonata in D major Hob. XVI.51 - I. Andante
12 - Bach - Concerto for Keyboard and Orchestra No. 3 in D major BWV 1054 - I. Allegro
13 - Sibelius - Sonatine for Piano in F-sharp minor op.67 no.1 - III. Allegro moderato
14 - Bach - 2-Part Invention No. 8 in F major BWV 779
15 - Beethoven - Piano Sonata No. 17 in D Minor op.31 no.2 'The Tempest' - III. Allegretto
16 - Bach - Italian Concerto in F major BWV 971 - I. Allegro
17 - Strauss - 5 Piano Pieces op.3 - I. Andante
18 - Beethovern - Piano Sonata No. 8 in C minor op.13 'Pathetique' - II. Adagio cantabile
19 - Bach - Little Prelude in C major BWV 933
20 - Bach - Goldberg Variations, BWV 988 - Variatio 30 a 1 Clav. Quodlibet
21 - Bach - Goldberg Variations, BWV 988 - Aria da capo

Exact Audio Copy V1.1 from 23. June 2015

EAC extraction logfile from 25. May 2016, 5:03

Glenn Gould / The Sound of Glenn Gould

Used drive : ASUS DRW-24B1ST i Adapter: 1 ID: 0

Read mode : Secure
Utilize accurate stream : Yes
Defeat audio cache : Yes
Make use of C2 pointers : No

Read offset correction : 6
Overread into Lead-In and Lead-Out : No
Fill up missing offset samples with silence : Yes
Delete leading and trailing silent blocks : No
Null samples used in CRC calculations : Yes
Used interface : Native Win32 interface for Win NT & 2000
Gap handling : Appended to previous track

Used output format : User Defined Encoder
Selected bitrate : 128 kBit/s
Quality : High
Add ID3 tag : No
Command line compressor : C:\Program Files (x86)\Exact Audio Copy\Flac\flac.exe
Additional command line options : -8 -V -T "ARTIST=%artist%" -T "TITLE=%title%" -T "ALBUM=%albumtitle%" -T "DATE=%year%" -T "TRACKNUMBER=%tracknr%" -T "TOTALTRACKS=%numtracks%" -T "GENRE=%genre%" -T "ALBUMARTIST=%albumartist%" -T "ALBUM ARTIST=%albumartist%" -T "COMMENT=EAC Secure Mode, Test & Copy, AccurateRip, FLAC -8" %source%


TOC of the extracted CD

Track | Start | Length | Start sector | End sector
––––––––––––––––––––––––––––-
1 | 0:00.00 | 1:52.34 | 0 | 8433
2 | 1:52.34 | 0:45.02 | 8434 | 11810
3 | 2:37.36 | 0:37.46 | 11811 | 14631
4 | 3:15.07 | 0:57.52 | 14632 | 18958
5 | 4:12.59 | 5:49.22 | 18959 | 45155
6 | 10:02.06 | 2:59.36 | 45156 | 58616
7 | 13:01.42 | 4:14.08 | 58617 | 77674
8 | 17:15.50 | 4:39.24 | 77675 | 98623
9 | 21:54.74 | 4:05.52 | 98624 | 117050
10 | 26:00.51 | 10:49.39 | 117051 | 165764
11 | 36:50.15 | 3:28.50 | 165765 | 181414
12 | 40:18.65 | 7:47.52 | 181415 | 216491
13 | 48:06.42 | 1:39.56 | 216492 | 223972
14 | 49:46.23 | 1:06.33 | 223973 | 228955
15 | 50:52.56 | 4:35.51 | 228956 | 249631
16 | 55:28.32 | 4:08.19 | 249632 | 268250
17 | 59:36.51 | 5:46.23 | 268251 | 294223
18 | 65:22.74 | 4:45.36 | 294224 | 315634
19 | 70:08.35 | 1:21.61 | 315635 | 321770
20 | 71:30.21 | 1:30.15 | 321771 | 328535
21 | 73:00.36 | 3:45.12 | 328536 | 345422


Track 1

Filename D:\_Post\Gould\01 - Bach - Goldberg Variations, BWV 988 - Aria.wav

Pre-gap length 0:00:02.00

Peak level 47.5 %
Extraction speed 4.6 X
Track quality 100.0 %
Test CRC 0EB4F223
Copy CRC 0EB4F223
Accurately ripped (confidence 1) [3494BE79] (AR v2)
Copy OK

Track 2

Filename D:\_Post\Gould\02 - Bach - Goldberg Variations, BWV 988 - Variatio 1 a 1 Clav..wav

Peak level 52.1 %
Extraction speed 3.6 X
Track quality 100.0 %
Test CRC 6CFCDBFE
Copy CRC 6CFCDBFE
Accurately ripped (confidence 1) [5184672E] (AR v2)
Copy OK

Track 3

Filename D:\_Post\Gould\03 - Bach - Goldberg Variations, BWV 988 - Variatio 2 a 1 Clav..wav

Peak level 57.8 %
Extraction speed 3.3 X
Track quality 100.0 %
Test CRC A68DD870
Copy CRC A68DD870
Accurately ripped (confidence 1) [9A5A4E63] (AR v2)
Copy OK

Track 4

Filename D:\_Post\Gould\04 - Bach - Goldberg Variations, BWV 988 - Variatio 3 a 1 Clav. Canone all'Unisuono.wav

Peak level 56.9 %
Extraction speed 4.0 X
Track quality 100.0 %
Test CRC 813D00A3
Copy CRC 813D00A3
Accurately ripped (confidence 1) [32BD42B0] (AR v2)
Copy OK

Track 5

Filename D:\_Post\Gould\05 - Brahms - Intermezzo in A major, op.118 no.2 - Andante teneramente.wav

Pre-gap length 0:00:03.00

Peak level 58.4 %
Extraction speed 6.4 X
Track quality 100.0 %
Test CRC 407C9119
Copy CRC 407C9119
Accurately ripped (confidence 1) [43403FAD] (AR v2)
Copy OK

Track 6

Filename D:\_Post\Gould\06 - Bach - Concerto for Keyboard and Orchestra No. 5 in F minor BWV 1056 - II. Largo.wav

Pre-gap length 0:00:03.00

Peak level 25.1 %
Extraction speed 6.3 X
Track quality 100.0 %
Test CRC 99915F49
Copy CRC 99915F49
Accurately ripped (confidence 1) [502A7FF0] (AR v2)
Copy OK

Track 7

Filename D:\_Post\Gould\07 - Beethoven - Sonata No. 14 in C-sharp minor, op.27 no.2 'Moonlight' - I. Adagio sostenuto.wav

Pre-gap length 0:00:03.00

Peak level 73.0 %
Extraction speed 7.0 X
Track quality 100.0 %
Test CRC AD3F133C
Copy CRC AD3F133C
Accurately ripped (confidence 1) [766D56ED] (AR v2)
Copy OK

Track 8

Filename D:\_Post\Gould\08 - Bach - Concerto for Keyboard and Orchestra No. 2 in E major BWV 1053 - II. Siciliano.wav

Pre-gap length 0:00:03.00

Peak level 81.4 %
Extraction speed 7.6 X
Track quality 100.0 %
Test CRC 64A069F0
Copy CRC 64A069F0
Accurately ripped (confidence 1) [8A65DAA5] (AR v2)
Copy OK

Track 9

Filename D:\_Post\Gould\09 - Mozart - Piano Sonata No. 11 in A major K. 331 - III. Alla Turca - Allegretto.wav

Pre-gap length 0:00:03.00

Peak level 92.3 %
Extraction speed 6.6 X
Track quality 99.9 %
Test CRC 06613D36
Copy CRC 06613D36
Accurately ripped (confidence 1) [5AF3A451] (AR v2)
Copy OK

Track 10

Filename D:\_Post\Gould\10 - Beethoven - Concerto for Piano and Orchestra No. 4 in G major op.58 - III. Rondo. Vivace.wav

Pre-gap length 0:00:03.00

Peak level 99.5 %
Extraction speed 8.8 X
Track quality 100.0 %
Test CRC 9E830DA6
Copy CRC 9E830DA6
Accurately ripped (confidence 1) [DFE1DEB7] (AR v2)
Copy OK

Track 11

Filename D:\_Post\Gould\11 - Haydn - Piano Sonata in D major Hob. XVI.51 - I. Andante.wav

Pre-gap length 0:00:03.00

Peak level 65.7 %
Extraction speed 7.9 X
Track quality 100.0 %
Test CRC 7DC9DA4C
Copy CRC 7DC9DA4C
Accurately ripped (confidence 1) [F237B772] (AR v2)
Copy OK

Track 12

Filename D:\_Post\Gould\12 - Bach - Concerto for Keyboard and Orchestra No. 3 in D major BWV 1054 - I. Allegro.wav

Pre-gap length 0:00:03.00

Peak level 92.9 %
Extraction speed 9.5 X
Track quality 100.0 %
Test CRC 05AC81A3
Copy CRC 05AC81A3
Accurately ripped (confidence 1) [2F5F3C92] (AR v2)
Copy OK

Track 13

Filename D:\_Post\Gould\13 - Sibelius - Sonatine for Piano in F-sharp minor op.67 no.1 - III. Allegro moderato.wav

Pre-gap length 0:00:03.00

Peak level 72.4 %
Extraction speed 7.5 X
Track quality 100.0 %
Test CRC 50B2AF2F
Copy CRC 50B2AF2F
Accurately ripped (confidence 1) [27C6F30F] (AR v2)
Copy OK

Track 14

Filename D:\_Post\Gould\14 - Bach - 2-Part Invention No. 8 in F major BWV 779.wav

Pre-gap length 0:00:03.00

Peak level 65.3 %
Extraction speed 6.9 X
Track quality 100.0 %
Test CRC 6E944E9C
Copy CRC 6E944E9C
Accurately ripped (confidence 1) [8354D1D9] (AR v2)
Copy OK

Track 15

Filename D:\_Post\Gould\15 - Beethoven - Piano Sonata No. 17 in D Minor op.31 no.2 'The Tempest' - III. Allegretto.wav

Pre-gap length 0:00:03.00

Peak level 67.5 %
Extraction speed 9.9 X
Track quality 100.0 %
Test CRC 4E7DC1B8
Copy CRC 4E7DC1B8
Accurately ripped (confidence 1) [8532DF3F] (AR v2)
Copy OK

Track 16

Filename D:\_Post\Gould\16 - Bach - Italian Concerto in F major BWV 971 - I. Allegro.wav

Pre-gap length 0:00:03.00

Peak level 69.8 %
Extraction speed 9.9 X
Track quality 100.0 %
Test CRC 44C517D8
Copy CRC 44C517D8
Accurately ripped (confidence 1) [E9BA76AC] (AR v2)
Copy OK

Track 17

Filename D:\_Post\Gould\17 - Strauss - 5 Piano Pieces op.3 - I. Andante.wav

Pre-gap length 0:00:03.00

Peak level 77.6 %
Extraction speed 10.4 X
Track quality 100.0 %
Test CRC EA638A16
Copy CRC EA638A16
Accurately ripped (confidence 1) [19CA06D7] (AR v2)
Copy OK

Track 18

Filename D:\_Post\Gould\18 - Beethovern - Piano Sonata No. 8 in C minor op.13 'Pathetique' - II. Adagio cantabile.wav

Pre-gap length 0:00:03.00

Peak level 56.6 %
Extraction speed 10.6 X
Track quality 100.0 %
Test CRC 2FAB9C9F
Copy CRC 2FAB9C9F
Accurately ripped (confidence 1) [1F3F805C] (AR v2)
Copy OK

Track 19

Filename D:\_Post\Gould\19 - Bach - Little Prelude in C major BWV 933.wav

Pre-gap length 0:00:03.00

Peak level 73.7 %
Extraction speed 8.4 X
Track quality 100.0 %
Test CRC 32961A13
Copy CRC 32961A13
Accurately ripped (confidence 1) [7960AAD3] (AR v2)
Copy OK

Track 20

Filename D:\_Post\Gould\20 - Bach - Goldberg Variations, BWV 988 - Variatio 30 a 1 Clav. Quodlibet.wav

Pre-gap length 0:00:03.00

Peak level 77.8 %
Extraction speed 9.2 X
Track quality 100.0 %
Test CRC 3E4C7BC1
Copy CRC 3E4C7BC1
Accurately ripped (confidence 1) [30F0E8F2] (AR v2)
Copy OK

Track 21

Filename D:\_Post\Gould\21 - Bach - Goldberg Variations, BWV 988 - Aria da capo.wav

Peak level 27.2 %
Extraction speed 10.3 X
Track quality 100.0 %
Test CRC F1D10042
Copy CRC F1D10042
Accurately ripped (confidence 1) [5E1F8C6B] (AR v2)
Copy OK


All tracks accurately ripped

No errors occurred

End of status report

–– CUETools DB Plugin V2.1.6

[CTDB TOCID: JfQFAJNg.yIPPIPAc2trffhUQos-] found
Submit result: JfQFAJNg.yIPPIPAc2trffhUQos- has been confirmed
Track | CTDB Status
1 | (19/19) Accurately ripped
2 | (19/19) Accurately ripped
3 | (19/19) Accurately ripped
4 | (19/19) Accurately ripped
5 | (19/19) Accurately ripped
6 | (19/19) Accurately ripped
7 | (19/19) Accurately ripped
8 | (19/19) Accurately ripped
9 | (19/19) Accurately ripped
10 | (19/19) Accurately ripped
11 | (19/19) Accurately ripped
12 | (18/19) Accurately ripped
13 | (19/19) Accurately ripped
14 | (19/19) Accurately ripped
15 | (19/19) Accurately ripped
16 | (19/19) Accurately ripped
17 | (19/19) Accurately ripped
18 | (19/19) Accurately ripped
19 | (19/19) Accurately ripped
20 | (19/19) Accurately ripped
21 | (19/19) Accurately ripped


==== Log checksum 92034FFC205234023181AA313334DF8FD805ED3A3F595EF920FA9C1C74853CA7 ====


Glenn Gould - The Sound of Glenn Gould (2015) {Sony Classical 88875069952 - Remastered Edition}



===