Subcategories

Toots Thielemans - Two Generations (1974) {2015 Japan Timeless Jazz Master Collection Complete Series CDSOL-6409}

Posted By: ruskaval
Toots Thielemans - Two Generations (1974) {2015 Japan Timeless Jazz Master Collection Complete Series CDSOL-6409}

Toots Thielemans - Two Generations (1974) {2015 Japan Timeless Jazz Master Collection Complete Series}
EAC rip (secure mode) | FLAC (tracks)+CUE+LOG -> 291 Mb | MP3 @320 -> 109 Mb
Full Artwork @ 600 dpi (png) -> 227 Mb | 5% repair rar
© 1974, 2015 Limetree / Timeless Records / Solid Records Japan / Ultra-Vibe | CDSOL-6409
Jazz / Bop / Fusion / Contemporary Jazz / Jazz Blues / Harmonica / Guitar

Reissue with the latest remastering and the original cover artwork. Comes with a description written in Japanese. Jazz sessions with Toots Thielemans are always a treat, and this album's no exception – one that features Toots' guitar and harmonica in the company of some great younger players from the 70s European scene! The set was produced by Chris Hinze, who also plays flute on the record – and other group members include Philip Catherine on guitar, Joachim Kuhn on keyboards, and the mighty rhythm team of John Lee on bass and Gerry Brown on drums – all musicians who lay back beautifully here, and really stick to the spacier side of their talents! Given that Toots is on harmonica on most numbers, the sound is wonderfully gentle – hardly the heavy fusion workout you might expect from the lineup, although there's a few subtle doses of funk that are much appreciated.
Toots Thielemans - Two Generations (1974) {2015 Japan Timeless Jazz Master Collection Complete Series CDSOL-6409}


Personnel:
Toots Thielemans - harmonica and electric guitar
Philip Catherine - electric guitar
Chris Hinze - flute
Joachim Kühn - piano and electric piano
John Lee - bass and Fender bass
Gerry Brown - drums and percussion

Recorded and Mixed at Dureco Studio, Weesp, Holland, April, 1974

tracklist:
01 - Bluesette
02 - Bé Bé Créole
03 - Monologue
04 - Two Generations
05 - Why Did I Choose You
06 - Uncle Charlie
07 - Friday Night
08 - T.T.
09 - Inner Journey
10 - L'Éternel Mari

Exact Audio Copy V1.1 from 23. June 2015

EAC extraction logfile from 22. November 2016, 20:53

Toots Thielemans - Philip Catherine and Friends / Two Generations

Used drive : HL-DT-STDVDRAM GP50NW41 Adapter: 1 ID: 0

Read mode : Secure
Utilize accurate stream : Yes
Defeat audio cache : Yes
Make use of C2 pointers : No

Read offset correction : 6
Overread into Lead-In and Lead-Out : No
Fill up missing offset samples with silence : Yes
Delete leading and trailing silent blocks : No
Null samples used in CRC calculations : Yes
Used interface : Native Win32 interface for Win NT & 2000
Gap handling : Appended to previous track

Used output format : User Defined Encoder
Selected bitrate : 1024 kBit/s
Quality : High
Add ID3 tag : No
Command line compressor : C:\Program Files (x86)\FLAC Frontend\tools\flac.exe
Additional command line options : -8 -V -T "ARTIST=%artist%" -T "TITLE=%title%" -T "ALBUM=%albumtitle%" -T "DATE=%year%" -T "TRACKNUMBER=%tracknr%" -T "TOTALTRACKS=%numtracks%" -T "GENRE=%genre%" -T "ALBUMARTIST=%albumartist%" -T "ALBUM ARTIST=%albumartist%" -T "COMMENT=EAC Secure Mode, Test & Copy, AccurateRip, FLAC -8" %source%


TOC of the extracted CD

Track | Start | Length | Start sector | End sector
––––––––––––––––––––––––––––-
1 | 0:00.00 | 3:18.53 | 0 | 14902
2 | 3:18.53 | 4:57.38 | 14903 | 37215
3 | 8:16.16 | 4:11.42 | 37216 | 56082
4 | 12:27.58 | 4:14.07 | 56083 | 75139
5 | 16:41.65 | 3:51.69 | 75140 | 92533
6 | 20:33.59 | 6:43.65 | 92534 | 122823
7 | 27:17.49 | 3:49.37 | 122824 | 140035
8 | 31:07.11 | 6:12.56 | 140036 | 167991
9 | 37:19.67 | 3:46.02 | 167992 | 184943
10 | 41:05.69 | 5:31.45 | 184944 | 209813


Track 1

Filename D:\_EAC\Toots Thielemans - Two Generations (1974) [FLAC] {CDSOL-6409}\01 - Bluesette.wav

Pre-gap length 0:00:02.00

Peak level 81.9 %
Extraction speed 1.1 X
Track quality 100.0 %
Test CRC 6F71DEF7
Copy CRC 6F71DEF7
Accurately ripped (confidence 2) [C9383EBE] (AR v2)
Copy OK

Track 2

Filename D:\_EAC\Toots Thielemans - Two Generations (1974) [FLAC] {CDSOL-6409}\02 - Be Be Creole.wav

Pre-gap length 0:00:02.48

Peak level 100.0 %
Extraction speed 1.3 X
Track quality 100.0 %
Test CRC 4D9F9DB2
Copy CRC 4D9F9DB2
Accurately ripped (confidence 2) [BD51A959] (AR v2)
Copy OK

Track 3

Filename D:\_EAC\Toots Thielemans - Two Generations (1974) [FLAC] {CDSOL-6409}\03 - Monologue.wav

Pre-gap length 0:00:03.00

Peak level 100.0 %
Extraction speed 1.4 X
Track quality 100.0 %
Test CRC CF57084F
Copy CRC CF57084F
Accurately ripped (confidence 2) [0F43182A] (AR v2)
Copy OK

Track 4

Filename D:\_EAC\Toots Thielemans - Two Generations (1974) [FLAC] {CDSOL-6409}\04 - Two Generations.wav

Pre-gap length 0:00:03.30

Peak level 100.0 %
Extraction speed 1.5 X
Track quality 100.0 %
Test CRC F49E0736
Copy CRC F49E0736
Accurately ripped (confidence 2) [E23819EB] (AR v2)
Copy OK

Track 5

Filename D:\_EAC\Toots Thielemans - Two Generations (1974) [FLAC] {CDSOL-6409}\05 - Why Did I Choose You.wav

Pre-gap length 0:00:02.24

Peak level 94.6 %
Extraction speed 1.6 X
Track quality 100.0 %
Test CRC 1E83664C
Copy CRC 1E83664C
Accurately ripped (confidence 2) [4D020B32] (AR v2)
Copy OK

Track 6

Filename D:\_EAC\Toots Thielemans - Two Generations (1974) [FLAC] {CDSOL-6409}\06 - Uncle Charlie.wav

Peak level 100.0 %
Extraction speed 1.8 X
Track quality 100.0 %
Test CRC 20315056
Copy CRC 20315056
Accurately ripped (confidence 2) [86435CC9] (AR v2)
Copy OK

Track 7

Filename D:\_EAC\Toots Thielemans - Two Generations (1974) [FLAC] {CDSOL-6409}\07 - Friday Night.wav

Pre-gap length 0:00:03.01

Peak level 97.9 %
Extraction speed 1.8 X
Track quality 100.0 %
Test CRC 314D0328
Copy CRC 314D0328
Accurately ripped (confidence 2) [C41FDEA3] (AR v2)
Copy OK

Track 8

Filename D:\_EAC\Toots Thielemans - Two Generations (1974) [FLAC] {CDSOL-6409}\08 - T.T..wav

Pre-gap length 0:00:03.03

Peak level 100.0 %
Extraction speed 2.0 X
Track quality 100.0 %
Test CRC 9C0F1867
Copy CRC 9C0F1867
Accurately ripped (confidence 2) [6B551C07] (AR v2)
Copy OK

Track 9

Filename D:\_EAC\Toots Thielemans - Two Generations (1974) [FLAC] {CDSOL-6409}\09 - Inner Journey.wav

Pre-gap length 0:00:01.47

Peak level 100.0 %
Extraction speed 2.0 X
Track quality 100.0 %
Test CRC BF7B8FBF
Copy CRC BF7B8FBF
Accurately ripped (confidence 2) [F91B8550] (AR v2)
Copy OK

Track 10

Filename D:\_EAC\Toots Thielemans - Two Generations (1974) [FLAC] {CDSOL-6409}\10 - L'eternal Mari.wav

Pre-gap length 0:00:02.12

Peak level 100.0 %
Extraction speed 2.2 X
Track quality 100.0 %
Test CRC 377C3CCF
Copy CRC 377C3CCF
Accurately ripped (confidence 2) [E0A834E3] (AR v2)
Copy OK


All tracks accurately ripped

No errors occurred

End of status report

==== Log checksum D0FDECD9244A00ACD103ABE4B89044DD42F68BF23B00200C254D331D480A08C6 ====


Toots Thielemans - Two Generations (1974) {2015 Japan Timeless Jazz Master Collection Complete Series CDSOL-6409}

Toots Thielemans - Two Generations (1974) {2015 Japan Timeless Jazz Master Collection Complete Series CDSOL-6409}


see more Japan Timeless Jazz Master Collection…


===