Subcategories
Tags
Language
Tags

Toyohiko Satoh - Lute Music from the Netherlands (1991) {Radio Nederland BFO A-16}

Posted By: ruskaval
Toyohiko Satoh - Lute Music from the Netherlands (1991) {Radio Nederland BFO A-16}

Toyohiko Satoh - Lute Music from the Netherlands (1991) {Radio Nederland BFO A-16}
XLD rip (secure mode) | FLAC (tracks)+CUE+LOG -> 261 Mb | MP3 @320 -> 134 Mb
Full Artwork @ 300 dpi (jpg) -> 17 Mb | 5% repair rar
© 1991 Radio Nederland | BFO A-16
Classical / Renaissance / Dutch / Lute

The Japanese lutenist Toyohiko Satoh (佐藤豊彦) is one of the most influential lute players of the last century. Born in 1943, he is now looking back on a career of over 40 years of lute playing, including 35 years teaching as a professor for lute at the Royal Conservatory of Den Haag, the Netherlands. Besides being a performer, he is also composing music for chamber ensembles and solo lute, as well as researching and writing about music.
Toyohiko Satoh - Lute Music from the Netherlands (1991) {Radio Nederland BFO A-16}


Musicians
Toyohiko Satoh - lute

eight-course Renaissance lute built by Richard Berg, 1987, Ottawa, Canada, based on a model by Wendelin Venere, Venice, ca. 1600
ten-course Renaissance lute built by Kazuo Sato, Saarland, Germany, based on a model by Hans Frei, Bologna, 16th century

Recorded: 27-28 November 1990, Netherlands Reformed Church, Bennebroek


Works on This Recording

Emanuel Adriaensen

01 Allemande Prince [From "Pratum Musicum", 1685]
02 Anchor che col partir [From "Pratum Musicum", 1685]

Jan Pieterszoon Sweelinck
03 Courante [From the "Edward Herbert Lute book"]
04 Psalm 23 [From the "Thysius Lute book"]
05 Volte [From the "Edward Herbert Lute book"]

Joachim van den Hove
06 Praeludium [From "Delitiae musicae", 1612]
07 Allemande Monsieur [From "Florida", 1601]
08 Pavane [From "Florida", 1601]
09 Susanneken [From "Florida", 1601]
10 Chanson Flameng [From "Delitiae musicae", 1612]
11 Orlando Chanson Englese [From "Florida", 1601]

Gregor Huwet
12 Fantasia [From "Varietie of lute lessons", 1610]

Adrianus Valerius
13 Engels Malsims [From "Nederlandtsche Gedenck-clanck", 1626]
14 Mrs. Mary Hofmans Almand [From "Nederlandtsche Gedenck-clanck", 1626]

Nicolas Vallet
15 Prélude [From "Le secret des muses", 1615]
16 Fantaisie La Mendiante [From "Le secret des muses", 1615]
17 Carillon de village [From "La seconde partie", 1616]
18 Pazzemezzo d'Italie & Gaillarde [From "La seconde partie", 1616]
19 Soet Robbert [From "Le secret des muses", 1615]
20 Onder de linde groene [From "Le secret des muses", 1615]
21 Les pantalons [From "Le secret des muses", 1615]

X Lossless Decoder version 20130720 (144.0)

XLD extraction logfile from 2013-10-18 13:20:06 +0200

Toyohiko Satoh / Lute Music from the Netherlands - Toyohiko Satoh [NM Classics]

Used drive : TSSTcorp CDDVDW SE-S084D (revision TS01)
Media type : Pressed CD

Ripper mode : XLD Secure Ripper
Disable audio cache : OK for the drive with a cache less than 1375KiB
Make use of C2 pointers : NO
Read offset correction : 6
Max retry count : 5
Gap status : Analyzed, Appended (except HTOA)

TOC of the extracted CD
Track | Start | Length | Start sector | End sector
––––––––––––––––––––––––––––-
1 | 00:00:00 | 02:32:60 | 0 | 11459
2 | 02:32:60 | 04:22:38 | 11460 | 31147
3 | 06:55:23 | 02:05:62 | 31148 | 40584
4 | 09:01:10 | 02:44:43 | 40585 | 52927
5 | 11:45:53 | 02:54:07 | 52928 | 65984
6 | 14:39:60 | 02:42:65 | 65985 | 78199
7 | 17:22:50 | 01:40:03 | 78200 | 85702
8 | 19:02:53 | 02:42:12 | 85703 | 97864
9 | 21:44:65 | 01:06:58 | 97865 | 102872
10 | 22:51:48 | 02:02:40 | 102873 | 112062
11 | 24:54:13 | 02:10:27 | 112063 | 121839
12 | 27:04:40 | 05:19:15 | 121840 | 145779
13 | 32:23:55 | 01:58:33 | 145780 | 154662
14 | 34:22:13 | 01:39:35 | 154663 | 162122
15 | 36:01:48 | 01:19:45 | 162123 | 168092
16 | 37:21:18 | 04:25:05 | 168093 | 187972
17 | 41:46:23 | 02:02:40 | 187973 | 197162
18 | 43:48:63 | 03:01:25 | 197163 | 210762
19 | 46:50:13 | 03:18:67 | 210763 | 225679
20 | 50:09:05 | 03:53:13 | 225680 | 243167
21 | 54:02:18 | 04:05:50 | 243168 | 261592

AccurateRip Summary (DiscID: 002a1411-028220a4-010d9f15)
Track 01 : OK (v1, confidence 1/1)
Track 02 : OK (v1, confidence 1/1)
Track 03 : OK (v1, confidence 1/1)
Track 04 : OK (v1, confidence 1/1)
Track 05 : OK (v1, confidence 1/1)
Track 06 : OK (v1, confidence 1/1)
Track 07 : OK (v1, confidence 1/1)
Track 08 : OK (v1, confidence 1/1)
Track 09 : OK (v1, confidence 1/1)
Track 10 : OK (v1, confidence 1/1)
Track 11 : OK (v1, confidence 1/1)
Track 12 : OK (v1, confidence 1/1)
Track 13 : OK (v1, confidence 1/1)
Track 14 : OK (v1, confidence 1/1)
Track 15 : OK (v1, confidence 1/1)
Track 16 : OK (v1, confidence 1/1)
Track 17 : OK (v1, confidence 1/1)
Track 18 : OK (v1, confidence 1/1)
Track 19 : OK (v1, confidence 1/1)
Track 20 : OK (v1, confidence 1/1)
Track 21 : OK (v1, confidence 1/1)
->All tracks accurately ripped.

All Tracks
Album gain : 0.36 dB
Peak : 1.000000
Statistics
Read error : 0
Jitter error (maybe fixed) : 0
Retry sector count : 0
Damaged sector count : 0

Track 01
Filename : /Volumes/HGST Touro Desk 4TB 1/CD rips/Lute Music from the Netherlands - Toyohiko Satoh [NM Classics]/01 Toyohiko Satoh - Allemande Prince [From "Pratum Musicum", 1685].flac
Pre-gap length : 00:02:00

Track gain : 0.19 dB
Peak : 0.834869
CRC32 hash (test run) : D87A2FB1
CRC32 hash : D87A2FB1
CRC32 hash (skip zero) : 185C2FE7
AccurateRip v1 signature : 10BB689C
AccurateRip v2 signature : 27723BC5
->Accurately ripped (v1, confidence 1/1)
Statistics
Read error : 0
Jitter error (maybe fixed) : 0
Retry sector count : 0
Damaged sector count : 0

Track 02
Filename : /Volumes/HGST Touro Desk 4TB 1/CD rips/Lute Music from the Netherlands - Toyohiko Satoh [NM Classics]/02 Toyohiko Satoh - Anchor che col partir [From "Pratum Musicum", 1685].flac
Pre-gap length : 00:04:67

Track gain : 1.32 dB
Peak : 0.680267
CRC32 hash (test run) : F9C4CCEA
CRC32 hash : F9C4CCEA
CRC32 hash (skip zero) : 76126A8F
AccurateRip v1 signature : 026CFA8F
AccurateRip v2 signature : D097260D
->Accurately ripped (v1, confidence 1/1)
Statistics
Read error : 0
Jitter error (maybe fixed) : 0
Retry sector count : 0
Damaged sector count : 0

Track 03
Filename : /Volumes/HGST Touro Desk 4TB 1/CD rips/Lute Music from the Netherlands - Toyohiko Satoh [NM Classics]/03 Toyohiko Satoh - Courante [From the "Edward Herbert Lute book"].flac
Pre-gap length : 00:03:50

Track gain : 0.92 dB
Peak : 0.767426
CRC32 hash (test run) : 9F8845AC
CRC32 hash : 9F8845AC
CRC32 hash (skip zero) : 6FC8A3BE
AccurateRip v1 signature : CB973BAD
AccurateRip v2 signature : FEC277E9
->Accurately ripped (v1, confidence 1/1)
Statistics
Read error : 0
Jitter error (maybe fixed) : 0
Retry sector count : 0
Damaged sector count : 0

Track 04
Filename : /Volumes/HGST Touro Desk 4TB 1/CD rips/Lute Music from the Netherlands - Toyohiko Satoh [NM Classics]/04 Toyohiko Satoh - Psalm 23 [From the "Thysius Lute book"].flac

Track gain : 2.21 dB
Peak : 0.642334
CRC32 hash (test run) : 07E0C1C6
CRC32 hash : 07E0C1C6
CRC32 hash (skip zero) : 9DB6D567
AccurateRip v1 signature : F28B2103
AccurateRip v2 signature : 91707973
->Accurately ripped (v1, confidence 1/1)
Statistics
Read error : 0
Jitter error (maybe fixed) : 0
Retry sector count : 0
Damaged sector count : 0

Track 05
Filename : /Volumes/HGST Touro Desk 4TB 1/CD rips/Lute Music from the Netherlands - Toyohiko Satoh [NM Classics]/05 Toyohiko Satoh - Volte [From the "Edward Herbert Lute book"].flac
Pre-gap length : 00:01:63

Track gain : 1.11 dB
Peak : 0.660034
CRC32 hash (test run) : 9A8DD224
CRC32 hash : 9A8DD224
CRC32 hash (skip zero) : A9B6E6B3
AccurateRip v1 signature : D0F4206B
AccurateRip v2 signature : 4E6805E6
->Accurately ripped (v1, confidence 1/1)
Statistics
Read error : 0
Jitter error (maybe fixed) : 0
Retry sector count : 0
Damaged sector count : 0

Track 06
Filename : /Volumes/HGST Touro Desk 4TB 1/CD rips/Lute Music from the Netherlands - Toyohiko Satoh [NM Classics]/06 Toyohiko Satoh - Praeludium [From "Delitiae musicae", 1612].flac
Pre-gap length : 00:06:47

Track gain : -0.15 dB
Peak : 0.780640
CRC32 hash (test run) : 090A9277
CRC32 hash : 090A9277
CRC32 hash (skip zero) : 7FC34914
AccurateRip v1 signature : 029C1865
AccurateRip v2 signature : AA007C40
->Accurately ripped (v1, confidence 1/1)
Statistics
Read error : 0
Jitter error (maybe fixed) : 0
Retry sector count : 0
Damaged sector count : 0

Track 07
Filename : /Volumes/HGST Touro Desk 4TB 1/CD rips/Lute Music from the Netherlands - Toyohiko Satoh [NM Classics]/07 Toyohiko Satoh - Allemande Monsieur [From "Florida", 1601].flac

Track gain : -0.32 dB
Peak : 0.686768
CRC32 hash (test run) : 6D175410
CRC32 hash : 6D175410
CRC32 hash (skip zero) : C07A5D7D
AccurateRip v1 signature : 4A221A08
AccurateRip v2 signature : 98A6FD16
->Accurately ripped (v1, confidence 1/1)
Statistics
Read error : 0
Jitter error (maybe fixed) : 0
Retry sector count : 0
Damaged sector count : 0

Track 08
Filename : /Volumes/HGST Touro Desk 4TB 1/CD rips/Lute Music from the Netherlands - Toyohiko Satoh [NM Classics]/08 Toyohiko Satoh - Pavane [From "Florida", 1601].flac
Pre-gap length : 00:01:45

Track gain : -0.35 dB
Peak : 0.711029
CRC32 hash (test run) : 4A2E29A8
CRC32 hash : 4A2E29A8
CRC32 hash (skip zero) : 0F47C765
AccurateRip v1 signature : 79F6F623
AccurateRip v2 signature : 5355BB9C
->Accurately ripped (v1, confidence 1/1)
Statistics
Read error : 0
Jitter error (maybe fixed) : 0
Retry sector count : 0
Damaged sector count : 0

Track 09
Filename : /Volumes/HGST Touro Desk 4TB 1/CD rips/Lute Music from the Netherlands - Toyohiko Satoh [NM Classics]/09 Toyohiko Satoh - Susanneken [From "Florida", 1601].flac
Pre-gap length : 00:01:27

Track gain : 0.04 dB
Peak : 0.705719
CRC32 hash (test run) : C096BB3E
CRC32 hash : C096BB3E
CRC32 hash (skip zero) : DFC4619C
AccurateRip v1 signature : E5D6916C
AccurateRip v2 signature : C2E7E2EC
->Accurately ripped (v1, confidence 1/1)
Statistics
Read error : 0
Jitter error (maybe fixed) : 0
Retry sector count : 0
Damaged sector count : 0

Track 10
Filename : /Volumes/HGST Touro Desk 4TB 1/CD rips/Lute Music from the Netherlands - Toyohiko Satoh [NM Classics]/10 Toyohiko Satoh - Chanson Flameng [From "Delitiae musicae", 1612].flac
Pre-gap length : 00:01:25

Track gain : 0.97 dB
Peak : 0.873199
CRC32 hash (test run) : 9EADF064
CRC32 hash : 9EADF064
CRC32 hash (skip zero) : 6E76B33C
AccurateRip v1 signature : 4ECA7A72
AccurateRip v2 signature : E2BC0C08
->Accurately ripped (v1, confidence 1/1)
Statistics
Read error : 0
Jitter error (maybe fixed) : 0
Retry sector count : 0
Damaged sector count : 0

Track 11
Filename : /Volumes/HGST Touro Desk 4TB 1/CD rips/Lute Music from the Netherlands - Toyohiko Satoh [NM Classics]/11 Toyohiko Satoh - Orlando Chanson Englese [From "Florida", 1601].flac
Pre-gap length : 00:00:15

Track gain : 1.36 dB
Peak : 0.810242
CRC32 hash (test run) : CE90C50E
CRC32 hash : CE90C50E
CRC32 hash (skip zero) : 44CE552E
AccurateRip v1 signature : 937D58D2
AccurateRip v2 signature : 300806C5
->Accurately ripped (v1, confidence 1/1)
Statistics
Read error : 0
Jitter error (maybe fixed) : 0
Retry sector count : 0
Damaged sector count : 0

Track 12
Filename : /Volumes/HGST Touro Desk 4TB 1/CD rips/Lute Music from the Netherlands - Toyohiko Satoh [NM Classics]/12 Toyohiko Satoh - Fantasia [From "Varietie of lute lessons", 1610].flac
Pre-gap length : 00:05:37

Track gain : -0.18 dB
Peak : 0.713348
CRC32 hash (test run) : 61396304
CRC32 hash : 61396304
CRC32 hash (skip zero) : 47AD7BAE
AccurateRip v1 signature : 447FEC1B
AccurateRip v2 signature : 60CEA655
->Accurately ripped (v1, confidence 1/1)
Statistics
Read error : 0
Jitter error (maybe fixed) : 0
Retry sector count : 0
Damaged sector count : 0

Track 13
Filename : /Volumes/HGST Touro Desk 4TB 1/CD rips/Lute Music from the Netherlands - Toyohiko Satoh [NM Classics]/13 Toyohiko Satoh - Engels Malsims [From "Nederlandtsche Gedenck-clanck", 1626].flac
Pre-gap length : 00:08:05

Track gain : 1.44 dB
Peak : 0.737549
CRC32 hash (test run) : 06320DF7
CRC32 hash : 06320DF7
CRC32 hash (skip zero) : A185809A
AccurateRip v1 signature : 4C00E30A
AccurateRip v2 signature : 59EB1326
->Accurately ripped (v1, confidence 1/1)
Statistics
Read error : 0
Jitter error (maybe fixed) : 0
Retry sector count : 0
Damaged sector count : 0

Track 14
Filename : /Volumes/HGST Touro Desk 4TB 1/CD rips/Lute Music from the Netherlands - Toyohiko Satoh [NM Classics]/14 Toyohiko Satoh - Mrs. Mary Hofmans Almand [From "Nederlandtsche Gedenck-clanck", 1626].flac
Pre-gap length : 00:01:20

Track gain : -0.71 dB
Peak : 0.911591
CRC32 hash (test run) : 3CD599A8
CRC32 hash : 3CD599A8
CRC32 hash (skip zero) : 03462371
AccurateRip v1 signature : 7FA7EAA7
AccurateRip v2 signature : 44AAF676
->Accurately ripped (v1, confidence 1/1)
Statistics
Read error : 0
Jitter error (maybe fixed) : 0
Retry sector count : 0
Damaged sector count : 0

Track 15
Filename : /Volumes/HGST Touro Desk 4TB 1/CD rips/Lute Music from the Netherlands - Toyohiko Satoh [NM Classics]/15 Toyohiko Satoh - Prélude [From "Le secret des muses, 1615].flac
Pre-gap length : 00:00:60

Track gain : 1.43 dB
Peak : 0.967163
CRC32 hash (test run) : 5BF70DBF
CRC32 hash : 5BF70DBF
CRC32 hash (skip zero) : 48CC8D83
AccurateRip v1 signature : EFD35AFF
AccurateRip v2 signature : 9D899E88
->Accurately ripped (v1, confidence 1/1)
Statistics
Read error : 0
Jitter error (maybe fixed) : 0
Retry sector count : 0
Damaged sector count : 0

Track 16
Filename : /Volumes/HGST Touro Desk 4TB 1/CD rips/Lute Music from the Netherlands - Toyohiko Satoh [NM Classics]/16 Toyohiko Satoh - Fantaisie La Mendiante [From "Le secret des muses, 1615].flac
Pre-gap length : 00:01:60

Track gain : -0.83 dB
Peak : 0.927094
CRC32 hash (test run) : 615485EE
CRC32 hash : 615485EE
CRC32 hash (skip zero) : 114BB11F
AccurateRip v1 signature : DFA4D3BB
AccurateRip v2 signature : 117DC8A7
->Accurately ripped (v1, confidence 1/1)
Statistics
Read error : 0
Jitter error (maybe fixed) : 0
Retry sector count : 0
Damaged sector count : 0

Track 17
Filename : /Volumes/HGST Touro Desk 4TB 1/CD rips/Lute Music from the Netherlands - Toyohiko Satoh [NM Classics]/17 Toyohiko Satoh - Carillon de village [From "La seconde partie", 1616].flac

Track gain : -1.37 dB
Peak : 0.822113
CRC32 hash (test run) : 33D14E76
CRC32 hash : 33D14E76
CRC32 hash (skip zero) : A767076E
AccurateRip v1 signature : 9A4797EE
AccurateRip v2 signature : F32B8491
->Accurately ripped (v1, confidence 1/1)
Statistics
Read error : 0
Jitter error (maybe fixed) : 0
Retry sector count : 0
Damaged sector count : 0

Track 18
Filename : /Volumes/HGST Touro Desk 4TB 1/CD rips/Lute Music from the Netherlands - Toyohiko Satoh [NM Classics]/18 Toyohiko Satoh - Pazzemezzo d'Italie & Gaillarde [From "La seconde partie", 1616].flac
Pre-gap length : 00:01:18

Track gain : 1.37 dB
Peak : 0.650665
CRC32 hash (test run) : 2AABCBC4
CRC32 hash : 2AABCBC4
CRC32 hash (skip zero) : 5B1656D6
AccurateRip v1 signature : 5FD95045
AccurateRip v2 signature : 5656C1AE
->Accurately ripped (v1, confidence 1/1)
Statistics
Read error : 0
Jitter error (maybe fixed) : 0
Retry sector count : 0
Damaged sector count : 0

Track 19
Filename : /Volumes/HGST Touro Desk 4TB 1/CD rips/Lute Music from the Netherlands - Toyohiko Satoh [NM Classics]/19 Toyohiko Satoh - Soet Robbert [From "Le secret des muses, 1615].flac
Pre-gap length : 00:00:20

Track gain : 1.83 dB
Peak : 0.601257
CRC32 hash (test run) : DC7CA89C
CRC32 hash : DC7CA89C
CRC32 hash (skip zero) : AA94243A
AccurateRip v1 signature : BB3101A9
AccurateRip v2 signature : A2BB2659
->Accurately ripped (v1, confidence 1/1)
Statistics
Read error : 0
Jitter error (maybe fixed) : 0
Retry sector count : 0
Damaged sector count : 0

Track 20
Filename : /Volumes/HGST Touro Desk 4TB 1/CD rips/Lute Music from the Netherlands - Toyohiko Satoh [NM Classics]/20 Toyohiko Satoh - Onder de linde groene [From "Le secret des muses, 1615].flac
Pre-gap length : 00:00:32

Track gain : 0.14 dB
Peak : 0.871704
CRC32 hash (test run) : 190DAF2F
CRC32 hash : 190DAF2F
CRC32 hash (skip zero) : C63FDD4B
AccurateRip v1 signature : 15FA93A7
AccurateRip v2 signature : 0A19E9C8
->Accurately ripped (v1, confidence 1/1)
Statistics
Read error : 0
Jitter error (maybe fixed) : 0
Retry sector count : 0
Damaged sector count : 0

Track 21
Filename : /Volumes/HGST Touro Desk 4TB 1/CD rips/Lute Music from the Netherlands - Toyohiko Satoh [NM Classics]/21 Toyohiko Satoh - Les pantalons [From "Le secret des muses, 1615].flac

Track gain : 1.88 dB
Peak : 1.000000
CRC32 hash (test run) : 311C60B2
CRC32 hash : 311C60B2
CRC32 hash (skip zero) : AEEB57DD
AccurateRip v1 signature : 4E114A10
AccurateRip v2 signature : 7A36367B
->Accurately ripped (v1, confidence 1/1)
Statistics
Read error : 0
Jitter error (maybe fixed) : 0
Retry sector count : 0
Damaged sector count : 0

No errors occurred

End of status report

––-BEGIN XLD SIGNATURE––-
1rxKLYdxv2J7uvgkICako.N.sf.lUGRdx4Hr4peOwYt_ZvVUTVHdve080XtvmPr7vPuTG2WdhvzCLwd7wHNioZuN03eLQxvBI6JQx.G
––-END XLD SIGNATURE––-


Toyohiko Satoh - Lute Music from the Netherlands (1991) {Radio Nederland BFO A-16}

Toyohiko Satoh - Lute Music from the Netherlands (1991) {Radio Nederland BFO A-16}



===