Subcategories

Unterwegs - CordArte

Posted By: zamorna
Unterwegs - CordArte

Unterwegs - CordArte
Rosenmüller, Merula, Castello, Rogniono, Pandolfi Mealli,
Schmelzer, Krieger, Erlebach, Buxtehude, Becker

Classical, Baroque | 1 CD | EAC | FLAC, CUE, LOG | scans | RS | 506 MB
Recorded: 22, 23 Oct. 2004, Evang. Church, Köln-Rondorf, Germany
Released: Nov. 2005 | Label: Musicom CD 010513 | TT: 77:26


CordArte (Daniel Deuter, Margret Baumgartl - violin, Heike Johanna
Lindner - viola da gamba, cello, Markus Märkl - harpsichord)

Da die Sonaten auf dieser CD durchweg im "Stile moderno" komponiert sind, strotzen sie nur von fantasievollen und teils gewagten Affekten, was Tempo und Harmonik betrifft. Das Ensemble CordArte macht seinem Namen alle Ehre, denn bei dieser CD handelt es sich um wirkliche Saitenkunst. Das Trio ist einzigartig zusammen gespielt, immer ist die Durchsichtigkeit der Stimmen gewährleistet und doch verschmelzen sie zu einem einzigen (Wohl)-Klang. Farbreichtum und die fachgerechten Verzierungspraktiken sind hier eine Selbstverständlichkeit." (Melanie Kraus, TOCCATA - Alte Musik Aktuell No. 2/2007)

Tracklist:

01. Johann Rosenmüller (1619-1684)
from "Sonate à 2-5 stromenti de Arco & Altri", Nürnberg 1682
Sonata C major, Nürnberg 1682
for 2 Violins, Cello and B.c.
Presto-Adagio-Grave-Presto-Adagio-Presto

02. Tarquinio Merula (d. after 1652)
from "Il libro primo de motetti e sonate op 6", Venezia 1624
Sonata seconda a due, Violino o Cornetto e Basso, Venezia 1624
for Violin, Viola da gamba and B.c.

03. Dario Castello (~ 1600)
from "Il libro secondo de sonate concertate in stil moderno", Venezia 1629
Sonata quarta a due, Violino e Violetta, Venezia 1629
for Violin, Viola da gamba and B.c.

04. Richardo Rogniono (d. before 1620)
from "Passagi per potersi essercitare, 1592"
Diminutionen über "Anchor che co'l partire" per la viola bastarda
for Viola da gamba and harpsichord

05. Giovanni Antonio Pandolfi-Mealli (b. before 1660)
from "op. 4", Innsbruck 1660
Sonata seconda "La Cesta"
for Violin and B.c.

06. Johann Heinrich Schmelzer (1623-1680)
from: "Duodena selectarum sonatorum", Nürnberg 1659
Trio Sonata VIII
for Violin, Viola da gamba and B.c.

07. Anonymus (17th. cent.)
Sonata con duobus Violinis d minor, 1670 (Kremsier)
for 2 Violins and B.c.

08. Johann Krieger (1651-1735)
Toccata, Fantasia and Passagaglia in d

09. Johann Philipp Krieger (1649–1725)
from "XII Suonata à doi, Violino e viola da gamba
op. 2", Nürnberg 1693
Sonata sesta a minor
for Violin, Viola da gamba and B.c.
Largo-Adagio-Vivace-Adagio-Presto-Ciaconna-Allegro

10. Philipp Heinrich Erlebach (c. 1657–1714)
from "VI Sonate a Violino e Viola da gamba col suo Basso continuo", Nürnberg 1694
Sonata seconda e minor
Adagio-Allegro-Adagio-Allemande-Courante-Sarabande. Variatio-Gigue

11. Dietrich Becker (1623-1679)
from: "Erster Theil Zwey-stimmiger Sonaten und Suiten", Hamburg 1674:
Trio Sonata D major
for Violin, Viola da gamba and B.c.
Adagio-Lento-Adagio-(ohne Bezeichnung)-Adagio

12. Dietrich Buxtehude (1637-1707)
from: "Suonate à doi, violino e viola da gamba, con cembalo opera prima",
Hamburg 1696
Trio Sonata VI d minor
for Violin, Viola da gamba and B.c.
Grave-Allegro-Vivace-Adagio-Poco Presto


Exact Audio Copy V0.99 prebeta 5 from 4. May 2009

EAC extraction logfile from 31. December 2009, 19:37

Unknown Artist / Cordarte: Unterwegs

Used drive : HL-DT-STDVDRAM GSA-T50N Adapter: 0 ID: 1

Read mode : Secure
Utilize accurate stream : Yes
Defeat audio cache : Yes
Make use of C2 pointers : No

Read offset correction : 667
Overread into Lead-In and Lead-Out : No
Fill up missing offset samples with silence : Yes
Delete leading and trailing silent blocks : No
Null samples used in CRC calculations : Yes
Used interface : Native Win32 interface for Win NT & 2000

Used output format : User Defined Encoder
Selected bitrate : 1024 kBit/s
Quality : High
Add ID3 tag : No
Command line compressor : C:\Program Files\Exact Audio Copy\FLAC\FLAC.EXE
Additional command line options : -6 -V -T "ARTIST=%a" -T "TITLE=%t" -T "ALBUM=%g" -T "DATE=%y" -T "TRACKNUMBER=%n" -T

"GENRE=%m" -T "COMMENT=%e" %s -o %d


TOC of the extracted CD

Track | Start | Length | Start sector | End sector
––––––––––––––––––––––––––––-
1 | 0:00.00 | 5:29.23 | 0 | 24697
2 | 5:29.23 | 4:04.70 | 24698 | 43067
3 | 9:34.18 | 4:32.48 | 43068 | 63515
4 | 14:06.66 | 5:54.39 | 63516 | 90104
5 | 20:01.30 | 6:39.69 | 90105 | 120098
6 | 26:41.24 | 4:55.22 | 120099 | 142245
7 | 31:36.46 | 5:11.25 | 142246 | 165595
8 | 36:47.71 | 7:11.21 | 165596 | 197941
9 | 43:59.17 | 7:44.36 | 197942 | 232777
10 | 51:43.53 | 9:56.10 | 232778 | 277487
11 | 61:39.63 | 7:08.23 | 277488 | 309610
12 | 68:48.11 | 8:35.68 | 309611 | 348303


Range status and errors

Selected range

Filename C:\Cordarte - Unterwegs.wav

Peak level 96.5 %
Range quality 99.9 %
Test CRC AD1C4C4A
Copy CRC 91FE362D
Copy OK

No errors occurred


AccurateRip summary

Track 1 not present in database
Track 2 not present in database
Track 3 not present in database
Track 4 not present in database
Track 5 not present in database
Track 6 not present in database
Track 7 not present in database
Track 8 not present in database
Track 9 not present in database
Track 10 not present in database
Track 11 not present in database
Track 12 not present in database

None of the tracks are present in the AccurateRip database

End of status report



Rapidshare Links