Subcategories
Please register here if you want to download anything!

If domain in your address bar is different from the list below
PLEASE LEAVE THAT SITE IMMEDIATELY
❗IT'S A DANGEROUS FAKE❗



Spicy Magazines for Men! ;-)

VA - Maxi Dance Hits 94 (1994)

Posted By: barker
VA - Maxi Dance Hits 94 (1994)

VA - Maxi Dance Hits 94 (1994)
EAC Rip | FLAC (image & cue & log) - 979 MB | Scans | 02:21:14
Genre: Eurodance, Pop | Label: BMG 74321 23671 2

Maxi Dance Hits 94 is a wonderful compilation of some of the best dance music, hits and otherwise. Each one is a full on bang piece and you may listen to 2 1/2 hours of some of the best joints of the decade of decadance.



Tracklist:

СD 1

01. Mo-Do - Eins, Zwei, Polizei (3:15)
02. Snap feat Summer - Welcome To Tomorrow (Are You Ready) (4:15)
03. Dr. Alban - Let The Beat Go On (5:29)
04. Marusha - It Takes Me Away (5:03)
05. K2 - Der Berg Ruft (4:58)
06. Corona - The Rhythm Of The Night (4:23)
07. Culture Beat - Anything (3:56)
08. Perplexer - Acid Folk (5:32)
09. Magic Affair - In The Middle Of The Night (4:09)
10. Westbam - Celebration Generation (4:33)
11. Maxx - You Can Get It (3:28)
12. B.G. The Prince Of Rap - The Colour Of My Dreams (3:55)
13. The Prodigy - No Good (Start The Dance) (3:59)
14. Jam & Spoon feat Plavka - Right In The Night (Fall In Love With Music) (3:39)
15. Masterboy - I Got To Give It Up (3:35)
16. DJ BoBo - Let The Dream Come True (4:01)
17. Ace Of Base - Don't Turn Around (3:48)

Exact Audio Copy V1.3 from 2. September 2016

Отчёт EAC об извлечении, выполненном 10. августа 2019, 12:29

Various Artist / Maxi Dance Hits 94 - CD1

Дисковод: Optiarc DVD RW AD-7280S Adapter: 1 ID: 0

Режим чтения : Достоверность
Использование точного потока : Да
Отключение кэша аудио : Да
Использование указателей C2 : Нет

Коррекция смещения при чтении : 48
Способность читать области Lead-in и Lead-out : Нет
Заполнение пропущенных сэмплов тишиной : Да
Удаление блоков с тишиной в начале и конце : Нет
При вычислениях CRC использовались нулевые сэмплы : Да
Интерфейс : Встроенный Win32-интерфейс для Win NT/2000

Выходной формат : Пользовательский кодировщик
Выбранный битрейт : 1024 kBit/s
Качество : Высокий
Добавление ID3-тега : Нет
Утилита сжатия : C:\Program Files\Exact Audio Copy\Flac\flac.exe
Дополнительные параметры : -V -8 -T "Date=%year%" -T "Genre=%genre%" %source%

TOC извлечённого CD

Трек | Старт | Длительность | Начальный сектор | Конечный сектор
––––––––––––––––––––––––––––––––––-
1 | 0:00.32 | 3:14.55 | 32 | 14636
2 | 3:15.12 | 4:15.45 | 14637 | 33806
3 | 7:30.57 | 5:29.20 | 33807 | 58501
4 | 13:00.02 | 5:03.00 | 58502 | 81226
5 | 18:03.02 | 4:57.50 | 81227 | 103551
6 | 23:00.52 | 4:22.58 | 103552 | 123259
7 | 27:23.35 | 3:56.47 | 123260 | 141006
8 | 31:20.07 | 5:32.03 | 141007 | 165909
9 | 36:52.10 | 4:09.40 | 165910 | 184624
10 | 41:01.50 | 4:32.70 | 184625 | 205094
11 | 45:34.45 | 3:28.00 | 205095 | 220694
12 | 49:02.45 | 3:55.07 | 220695 | 238326
13 | 52:57.52 | 3:59.05 | 238327 | 256256
14 | 56:56.57 | 3:39.03 | 256257 | 272684
15 | 60:35.60 | 3:35.17 | 272685 | 288826
16 | 64:11.02 | 4:00.73 | 288827 | 306899
17 | 68:12.00 | 3:48.32 | 306900 | 324031

Характеристики диапазона извлечения и сообщения об ошибках

Выбранный диапазон

Имя файла D:\Various Artist - Maxi Dance Hits 94 - CD1.wav

Пиковый уровень 100.0 %
Скорость извлечения 4.5 X
Качество диапазона 100.0 %
CRC теста 58A6F07F
CRC копии 58A6F07F
Копирование… OK

Ошибок не произошло

Конец отчёта

==== Контрольная сумма отчёта 7087731F1823D3DF6F044F9ADCBE62F7E6012EACD1EA00894AE955E361F4A843 ====


СD 2

01. Whigfield - Saturday Night (4:07)
02. Take That - Everything Changes (3:33)
03. Prince Ital Joe feat Marky Mark - Happy People (3:58)
04. Salt 'N' Pepa feat En Vogue - Whatta Man (4:28)
05. M-People - Moving On Up (3:34)
06. La Bouche - Sweet Dreams (4:01)
07. Reel 2 Real feat The Mad Stuntman - I Like To Move It (3:50)
08. The Grid - Swamp Thing (3:59)
09. Tag Team - Whoomp (There It Is) (4:32)
10. Pharao - I Show You Secrets (4:14)
11. Loft - Wake The World (3:57)
12. M.C. Sar & The Real McCoy - Run Away (4:30)
13. Worlds Apart - Could It Be I'm Falling In Love (5:38)
14. Haddaway - Rock My Heart (4:09)
15. Twenty 4 Seven - Slave To The Music (4:05)
16. Dr. Alban - Look Who's Talking (3:31)
17. Doop - Doop (3:07)

Exact Audio Copy V1.3 from 2. September 2016

Отчёт EAC об извлечении, выполненном 10. августа 2019, 13:17

Various Artist / Maxi Dance Hits 94 - CD2

Дисковод: Optiarc DVD RW AD-7280S Adapter: 1 ID: 0

Режим чтения : Достоверность
Использование точного потока : Да
Отключение кэша аудио : Да
Использование указателей C2 : Нет

Коррекция смещения при чтении : 48
Способность читать области Lead-in и Lead-out : Нет
Заполнение пропущенных сэмплов тишиной : Да
Удаление блоков с тишиной в начале и конце : Нет
При вычислениях CRC использовались нулевые сэмплы : Да
Интерфейс : Встроенный Win32-интерфейс для Win NT/2000

Выходной формат : Пользовательский кодировщик
Выбранный битрейт : 1024 kBit/s
Качество : Высокий
Добавление ID3-тега : Нет
Утилита сжатия : C:\Program Files\Exact Audio Copy\Flac\flac.exe
Дополнительные параметры : -V -8 -T "Date=%year%" -T "Genre=%genre%" %source%

TOC извлечённого CD

Трек | Старт | Длительность | Начальный сектор | Конечный сектор
––––––––––––––––––––––––––––––––––-
1 | 0:00.32 | 4:07.25 | 32 | 18581
2 | 4:07.57 | 3:32.58 | 18582 | 34539
3 | 7:40.40 | 3:58.30 | 34540 | 52419
4 | 11:38.70 | 4:28.12 | 52420 | 72531
5 | 16:07.07 | 3:34.13 | 72532 | 88594
6 | 19:41.20 | 4:01.00 | 88595 | 106669
7 | 23:42.20 | 3:50.35 | 106670 | 123954
8 | 27:32.55 | 3:58.65 | 123955 | 141869
9 | 31:31.45 | 4:31.62 | 141870 | 162256
10 | 36:03.32 | 4:13.50 | 162257 | 181281
11 | 40:17.07 | 3:57.30 | 181282 | 199086
12 | 44:14.37 | 4:29.58 | 199087 | 219319
13 | 48:44.20 | 5:37.57 | 219320 | 244651
14 | 54:22.02 | 4:09.43 | 244652 | 263369
15 | 58:31.45 | 4:05.05 | 263370 | 281749
16 | 62:36.50 | 3:30.65 | 281750 | 297564
17 | 66:07.40 | 3:07.05 | 297565 | 311594

Характеристики диапазона извлечения и сообщения об ошибках

Выбранный диапазон

Имя файла D:\Various Artist - Maxi Dance Hits 94 - CD2.wav

Пиковый уровень 100.0 %
Скорость извлечения 4.5 X
Качество диапазона 100.0 %
CRC теста E07602F3
CRC копии E07602F3
Копирование… OK

Ошибок не произошло

Конец отчёта

==== Контрольная сумма отчёта 0F963CB9B649898AE4059987BC2AF7B99327B093006E187F5353D83840A2D938 ====


Thanks to original releaser!