Subcategories

VA - From Motown With Love (2015) {U.M.T.V}

Posted By: shamanicus
VA - From Motown With Love (2015) {U.M.T.V}

VA - From Motown With Love (2015)
EAC Rip | FLAC with CUE and log | 434 mb | MP3 CBR 320kbps | RAR | 195 mb
R&B, Soul, Pop | Label: Universal Music TV

"From Motown With Love (2015)" is the Motown compilation by various artists. This was released by Universal Music TV Campaign Division.

Tracklist:
CD1:
01. Lionel Richie – Truly
02. Stevie Wonder – My Cherie Amour
03. Four Tops – Reach Out, I’ll Be There
04. Jimmy Ruffin – What Becomes of the Broken Hearted
05. Diana Ross – Touch Me in the Morning
06. Smokey Robinson – Being with You
07. Marvin Gaye – Too Busy Thinking about My Baby
08. The Commodores – Still
09. Martha Reeves & The Vandellas – I’m Ready For Love
10. The Isley Brothers – I Guess I’ll Always Love You
11. The Supremes – Baby Love
12. Gladys Knight & The Pips – The Look Of Love
13. Jackson 5 – The Love You Save
14. The Marvelettes – When You’re Young And In Love
15. Smokey Robinson – The Tracks Of My Tears
16. The Contours – Do You Love Me
17. Boyz II Men – I’ll Make Love To You
18. The Elgins – Heaven Must Have Sent You
19. Frank Wilson – Do I Love You (Indeed I Do)
20. The Supremes – Stop! In The Name Of Love
21. The Temptations – My Girl
22. Shanice – I Love Your Smile
23. Mary Wells – My Guy
24. The Miracles – You Really Got A Hold On Me
25. Jr. Walker & The All Stars – What Does It Take (To Win Your Love)

Exact Audio Copy V1.1 from 23. June 2015

EAC extraction logfile from 14. December 2015, 5:56

VA / From Motown With Love [Disc 1]

Used drive : HL-DT-STBD-RE GGW-H20L Adapter: 1 ID: 0

Read mode : Secure
Utilize accurate stream : Yes
Defeat audio cache : Yes
Make use of C2 pointers : No

Read offset correction : 667
Overread into Lead-In and Lead-Out : No
Fill up missing offset samples with silence : Yes
Delete leading and trailing silent blocks : No
Null samples used in CRC calculations : Yes
Used interface : Native Win32 interface for Win NT & 2000
Gap handling : Appended to previous track

Used output format : User Defined Encoder
Selected bitrate : 1024 kBit/s
Quality : High
Add ID3 tag : No
Command line compressor : C:\Program Files (x86)\Exact Audio Copy\Flac\flac.exe
Additional command line options : -8 -V -T "ARTIST=%artist%" -T "TITLE=%title%" -T "ALBUM=%albumtitle%" -T "DATE=%year%" -T "TRACKNUMBER=%tracknr%" -T "GENRE=%genre%" -T "PERFORMER=%albuminterpret%" -T "COMPOSER=%composer%" %haslyrics%–tag-from-file=LYRICS="%lyricsfile%"%haslyrics% -T "ALBUMARTIST=%albumartist%" -T "ALBUM ARTIST=%albumartist%" -T "DISCNUMBER=%cdnumber%" -T "TOTALDISCS=%totalcds%" -T "TOTALTRACKS=%numtracks%" -T "COMMENT=EAC V1.1, Secure Mode, Test & Copy, AccurateRip, FLAC - 8 - oneanight (oan)" %source%


TOC of the extracted CD

Track | Start | Length | Start sector | End sector
––––––––––––––––––––––––––––-
1 | 0:00.00 | 3:20.68 | 0 | 15067
2 | 3:20.68 | 2:51.40 | 15068 | 27932
3 | 6:12.33 | 3:00.36 | 27933 | 41468
4 | 9:12.69 | 2:54.36 | 41469 | 54554
5 | 12:07.30 | 3:56.14 | 54555 | 72268
6 | 16:03.44 | 3:55.09 | 72269 | 89902
7 | 19:58.53 | 2:54.07 | 89903 | 102959
8 | 22:52.60 | 3:42.74 | 102960 | 119683
9 | 26:35.59 | 2:53.56 | 119684 | 132714
10 | 29:29.40 | 2:46.60 | 132715 | 145224
11 | 32:16.25 | 2:33.64 | 145225 | 156763
12 | 34:50.14 | 3:57.16 | 156764 | 174554
13 | 38:47.30 | 2:59.40 | 174555 | 188019
14 | 41:46.70 | 2:37.28 | 188020 | 199822
15 | 44:24.23 | 2:54.47 | 199823 | 212919
16 | 47:18.70 | 2:52.11 | 212920 | 225830
17 | 50:11.06 | 3:56.46 | 225831 | 243576
18 | 54:07.52 | 3:07.09 | 243577 | 257610
19 | 57:14.61 | 2:27.20 | 257611 | 268655
20 | 59:42.06 | 2:51.69 | 268656 | 281549
21 | 62:34.00 | 2:40.67 | 281550 | 293616
22 | 65:14.67 | 3:50.54 | 293617 | 310920
23 | 69:05.46 | 2:48.70 | 310921 | 323590
24 | 71:54.41 | 2:57.43 | 323591 | 336908
25 | 74:52.09 | 2:29.55 | 336909 | 348138


Track 1

Filename C:\oneanight\01 - Lionel Richie - Truly.wav

Pre-gap length 0:00:02.00

Peak level 70.7 %
Extraction speed 4.4 X
Track quality 100.0 %
Test CRC A226187D
Copy CRC A226187D
Accurately ripped (confidence 3) [C1F10565] (AR v2)
Copy OK

Track 2

Filename C:\oneanight\02 - Stevie Wonder - My Cherie Amour.wav

Peak level 78.0 %
Extraction speed 4.4 X
Track quality 100.0 %
Test CRC 1AD57899
Copy CRC 1AD57899
Accurately ripped (confidence 3) [A09A2486] (AR v2)
Copy OK

Track 3

Filename C:\oneanight\03 - Four Tops - Reach Out, I'll Be There.wav

Peak level 68.7 %
Extraction speed 4.7 X
Track quality 100.0 %
Test CRC 4736C3EE
Copy CRC 4736C3EE
Accurately ripped (confidence 2) [2BA85259] (AR v2)
Copy OK

Track 4

Filename C:\oneanight\04 - Jimmy Ruffin - What Becomes of the Broken Hearted.wav

Pre-gap length 0:00:00.78

Peak level 98.3 %
Extraction speed 4.9 X
Track quality 100.0 %
Test CRC 1314F569
Copy CRC 1314F569
Accurately ripped (confidence 2) [C1E98B29] (AR v2)
Copy OK

Track 5

Filename C:\oneanight\05 - Diana Ross - Touch Me in the Morning.wav

Pre-gap length 0:00:00.08

Peak level 69.2 %
Extraction speed 5.7 X
Track quality 100.0 %
Test CRC CC28DD02
Copy CRC CC28DD02
Accurately ripped (confidence 2) [404B78D1] (AR v2)
Copy OK

Track 6

Filename C:\oneanight\06 - Smokey Robinson - Being with You.wav

Peak level 78.5 %
Extraction speed 6.0 X
Track quality 100.0 %
Test CRC 854179D8
Copy CRC 854179D8
Accurately ripped (confidence 2) [B825EA31] (AR v2)
Copy OK

Track 7

Filename C:\oneanight\07 - Marvin Gaye - Too Busy Thinking about My Baby.wav

Peak level 78.4 %
Extraction speed 6.0 X
Track quality 100.0 %
Test CRC BB393A9A
Copy CRC BB393A9A
Accurately ripped (confidence 2) [1FA810A6] (AR v2)
Copy OK

Track 8

Filename C:\oneanight\08 - The Commodores - Still.wav

Pre-gap length 0:00:00.70

Peak level 79.4 %
Extraction speed 6.3 X
Track quality 100.0 %
Test CRC E9F8A108
Copy CRC E9F8A108
Accurately ripped (confidence 2) [A76A3141] (AR v2)
Copy OK

Track 9

Filename C:\oneanight\09 - Martha Reeves & The Vandellas - I'm Ready For Love.wav

Pre-gap length 0:00:00.13

Peak level 65.0 %
Extraction speed 6.4 X
Track quality 100.0 %
Test CRC F50C3AFF
Copy CRC F50C3AFF
Accurately ripped (confidence 2) [E91C2028] (AR v2)
Copy OK

Track 10

Filename C:\oneanight\10 - The Isley Brothers - I Guess I'll Always Love You.wav

Pre-gap length 0:00:00.28

Peak level 77.8 %
Extraction speed 6.6 X
Track quality 100.0 %
Test CRC 10316907
Copy CRC 10316907
Accurately ripped (confidence 2) [85F0A91A] (AR v2)
Copy OK

Track 11

Filename C:\oneanight\11 - The Supremes - Baby Love.wav

Peak level 86.3 %
Extraction speed 6.6 X
Track quality 100.0 %
Test CRC 05844BFA
Copy CRC 05844BFA
Accurately ripped (confidence 2) [C5953524] (AR v2)
Copy OK

Track 12

Filename C:\oneanight\12 - Gladys Knight & The Pips - The Look Of Love.wav

Peak level 89.1 %
Extraction speed 7.4 X
Track quality 100.0 %
Test CRC 3F6C6436
Copy CRC 3F6C6436
Accurately ripped (confidence 2) [9824B9F3] (AR v2)
Copy OK

Track 13

Filename C:\oneanight\13 - Jackson 5 - The Love You Save.wav

Pre-gap length 0:00:00.74

Peak level 85.5 %
Extraction speed 7.0 X
Track quality 100.0 %
Test CRC 4A9DC858
Copy CRC 4A9DC858
Accurately ripped (confidence 2) [5638FE13] (AR v2)
Copy OK

Track 14

Filename C:\oneanight\14 - The Marvelettes - When You're Young And In Love.wav

Pre-gap length 0:00:00.05

Peak level 75.7 %
Extraction speed 5.3 X
Track quality 99.9 %
Test CRC FAFB0559
Copy CRC FAFB0559
Accurately ripped (confidence 2) [B14C6F08] (AR v2)
Copy OK

Track 15

Filename C:\oneanight\15 - Smokey Robinson - The Tracks Of My Tears.wav

Pre-gap length 0:00:00.52

Peak level 77.2 %
Extraction speed 5.7 X
Track quality 99.9 %
Test CRC 36242F9D
Copy CRC 36242F9D
Accurately ripped (confidence 2) [BF279FD3] (AR v2)
Copy OK

Track 16

Filename C:\oneanight\16 - The Contours - Do You Love Me.wav

Pre-gap length 0:00:00.10

Peak level 53.0 %
Extraction speed 7.5 X
Track quality 100.0 %
Test CRC B122A49D
Copy CRC B122A49D
Accurately ripped (confidence 2) [097FADCF] (AR v2)
Copy OK

Track 17

Filename C:\oneanight\17 - Boyz II Men - I'll Make Love To You.wav

Peak level 67.4 %
Extraction speed 7.9 X
Track quality 100.0 %
Test CRC BF1DFA9F
Copy CRC BF1DFA9F
Accurately ripped (confidence 2) [F79EF465] (AR v2)
Copy OK

Track 18

Filename C:\oneanight\18 - The Elgins - Heaven Must Have Sent You.wav

Peak level 66.9 %
Extraction speed 7.8 X
Track quality 100.0 %
Test CRC FBA62EAA
Copy CRC FBA62EAA
Accurately ripped (confidence 2) [A16FBB8F] (AR v2)
Copy OK

Track 19

Filename C:\oneanight\19 - Frank Wilson - Do I Love You (Indeed I Do).wav

Peak level 72.3 %
Extraction speed 7.4 X
Track quality 100.0 %
Test CRC 8EA93EDA
Copy CRC 8EA93EDA
Accurately ripped (confidence 2) [98BAFB3D] (AR v2)
Copy OK

Track 20

Filename C:\oneanight\20 - The Supremes - Stop! In The Name Of Love.wav

Pre-gap length 0:00:01.02

Peak level 78.1 %
Extraction speed 7.9 X
Track quality 100.0 %
Test CRC 41B41105
Copy CRC 41B41105
Accurately ripped (confidence 2) [0D5EE042] (AR v2)
Copy OK

Track 21

Filename C:\oneanight\21 - The Temptations - My Girl.wav

Pre-gap length 0:00:00.77

Peak level 98.0 %
Extraction speed 7.9 X
Track quality 100.0 %
Test CRC DAC26400
Copy CRC DAC26400
Accurately ripped (confidence 2) [FE9EA625] (AR v2)
Copy OK

Track 22

Filename C:\oneanight\22 - Shanice - I Love Your Smile.wav

Peak level 74.1 %
Extraction speed 7.1 X
Track quality 99.9 %
Test CRC B55E58BD
Copy CRC B55E58BD
Accurately ripped (confidence 2) [54662C83] (AR v2)
Copy OK

Track 23

Filename C:\oneanight\23 - Mary Wells - My Guy.wav

Pre-gap length 0:00:02.78

Peak level 98.1 %
Extraction speed 8.3 X
Track quality 100.0 %
Test CRC 22259007
Copy CRC 22259007
Accurately ripped (confidence 2) [7834E381] (AR v2)
Copy OK

Track 24

Filename C:\oneanight\24 - The Miracles - You Really Got A Hold On Me.wav

Peak level 100.0 %
Extraction speed 8.4 X
Track quality 100.0 %
Test CRC 8922FC2A
Copy CRC 8922FC2A
Accurately ripped (confidence 2) [B02E9C40] (AR v2)
Copy OK

Track 25

Filename C:\oneanight\25 - Jr. Walker & The All Stars - What Does It Take (To Win Your Love).wav

Peak level 83.8 %
Extraction speed 6.7 X
Track quality 99.9 %
Test CRC 74E696D8
Copy CRC 74E696D8
Accurately ripped (confidence 2) [CF08E24E] (AR v2)
Copy OK


All tracks accurately ripped

No errors occurred

End of status report

–– CUETools DB Plugin V2.1.6

[CTDB TOCID: NJz7LYjhYDwioI4RumN5unrH_cA-] found
Submit result: already submitted
Track | CTDB Status
1 | (6/6) Accurately ripped
2 | (6/6) Accurately ripped
3 | (6/6) Accurately ripped
4 | (6/6) Accurately ripped
5 | (6/6) Accurately ripped
6 | (6/6) Accurately ripped
7 | (6/6) Accurately ripped
8 | (6/6) Accurately ripped
9 | (6/6) Accurately ripped
10 | (6/6) Accurately ripped
11 | (6/6) Accurately ripped
12 | (6/6) Accurately ripped
13 | (6/6) Accurately ripped
14 | (6/6) Accurately ripped
15 | (6/6) Accurately ripped
16 | (6/6) Accurately ripped
17 | (6/6) Accurately ripped
18 | (6/6) Accurately ripped
19 | (6/6) Accurately ripped
20 | (6/6) Accurately ripped
21 | (6/6) Accurately ripped
22 | (6/6) Accurately ripped
23 | (6/6) Accurately ripped
24 | (6/6) Accurately ripped
25 | (6/6) Accurately ripped


==== Log checksum 4A77259FF9566448AF43021D7A9C6FE4DA58C0E6CF7F78A1314A9813AC5BE9E3 ====


CD2:
01. Diana Ross & Lionel Richie – Endless Love
02. Marvin Gaye & Tammi Terrell – You’re All I Need To Get By
03. David Ruffin and Jimmy Ruffin – Your Love Was Worth Waiting For
04. Diana Ross & Marvin Gaye – You Are Everything
05. 98º – True To Your Heart [feat. Stevie Wonder]
06. Diana Ross & The Supremes & The Temptations – I’m Gonna Make You Love Me
07. Four Tops and The Supremes – You Gotta Have Love In Your Heart
08. Billy Preston – With You I’m Born Again [feat. Syreeta]
09. Rick James And Teena Marie – Fire And Desire
10. Dennis Edwards – Don’t Look Any Further [feat. Siedah Garrett]
11. Diana Ross & The Supremes & The Temptations – I Second That Emotion
12. Blinky and Edwin Starr – I’m Glad You Belong To Me
13. Smokey Robinson and Syreeta – First Time On A Ferris Wheel
14. Jermaine Jackson and Syreeta – Stay With Love
15. Four Tops and The Supremes – River Deep, Mountain High
16. Johnny Gill and Shanice – Silent Prayer
17. Smokey Robinson – Blame It On Love [feat. Barbara Mitchell]
18. Diana Ross & The Supremes & The Temptations – The Weight
19. Marvin Gaye & Tammi Terrell – Ain’t Nothing Like The Real Thing
20. Four Tops and The Supremes – Hello Stranger
21. Billy Preston & Syreeta – Searchin’
22. Diana Ross & Marvin Gaye – You’re A Special Part Of Me

Exact Audio Copy V1.1 from 23. June 2015

EAC extraction logfile from 30. November 2015, 21:12

VA / From Motown With Love [Disc 2]

Used drive : HL-DT-STBD-RE GGW-H20L Adapter: 1 ID: 0

Read mode : Secure
Utilize accurate stream : Yes
Defeat audio cache : Yes
Make use of C2 pointers : No

Read offset correction : 667
Overread into Lead-In and Lead-Out : No
Fill up missing offset samples with silence : Yes
Delete leading and trailing silent blocks : No
Null samples used in CRC calculations : Yes
Used interface : Native Win32 interface for Win NT & 2000
Gap handling : Appended to previous track

Used output format : User Defined Encoder
Selected bitrate : 1024 kBit/s
Quality : High
Add ID3 tag : No
Command line compressor : C:\Program Files (x86)\Exact Audio Copy\Flac\flac.exe
Additional command line options : -8 -V -T "ARTIST=%artist%" -T "TITLE=%title%" -T "ALBUM=%albumtitle%" -T "DATE=%year%" -T "TRACKNUMBER=%tracknr%" -T "GENRE=%genre%" -T "PERFORMER=%albuminterpret%" -T "COMPOSER=%composer%" %haslyrics%–tag-from-file=LYRICS="%lyricsfile%"%haslyrics% -T "ALBUMARTIST=%albumartist%" -T "ALBUM ARTIST=%albumartist%" -T "DISCNUMBER=%cdnumber%" -T "TOTALDISCS=%totalcds%" -T "TOTALTRACKS=%numtracks%" -T "COMMENT=EAC V1.1, Secure Mode, Test & Copy, AccurateRip, FLAC - 8 - oneanight (oan)" %source%


TOC of the extracted CD

Track | Start | Length | Start sector | End sector
––––––––––––––––––––––––––––-
1 | 0:00.00 | 4:27.27 | 0 | 20051
2 | 4:27.27 | 2:48.67 | 20052 | 32718
3 | 7:16.19 | 2:48.24 | 32719 | 45342
4 | 10:04.43 | 3:07.18 | 45343 | 59385
5 | 13:11.61 | 4:12.22 | 59386 | 78307
6 | 17:24.08 | 3:06.22 | 78308 | 92279
7 | 20:30.30 | 2:46.28 | 92280 | 104757
8 | 23:16.58 | 3:37.66 | 104758 | 121098
9 | 26:54.49 | 5:38.46 | 121099 | 146494
10 | 32:33.20 | 4:07.21 | 146495 | 165040
11 | 36:40.41 | 2:17.57 | 165041 | 175372
12 | 38:58.23 | 3:04.45 | 175373 | 189217
13 | 42:02.68 | 4:16.20 | 189218 | 208437
14 | 46:19.13 | 4:19.32 | 208438 | 227894
15 | 50:38.45 | 3:07.45 | 227895 | 241964
16 | 53:46.15 | 4:54.54 | 241965 | 264068
17 | 58:40.69 | 3:32.00 | 264069 | 279968
18 | 62:12.69 | 3:02.10 | 279969 | 293628
19 | 65:15.04 | 2:18.40 | 293629 | 304018
20 | 67:33.44 | 3:02.24 | 304019 | 317692
21 | 70:35.68 | 4:35.55 | 317693 | 338372
22 | 75:11.48 | 3:44.49 | 338373 | 355221


Track 1

Filename C:\oneanight\01 - Diana Ross & Lionel Richie - Endless Love.wav

Pre-gap length 0:00:02.00

Peak level 60.3 %
Extraction speed 4.6 X
Track quality 100.0 %
Test CRC D26BAD62
Copy CRC D26BAD62
Accurately ripped (confidence 2) [925F5C06] (AR v2)
Copy OK

Track 2

Filename C:\oneanight\02 - Marvin Gaye & Tammi Terrell - You're All I Need To Get By.wav

Peak level 67.6 %
Extraction speed 4.5 X
Track quality 100.0 %
Test CRC 3014CB3C
Copy CRC 3014CB3C
Accurately ripped (confidence 2) [634DBAE7] (AR v2)
Copy OK

Track 3

Filename C:\oneanight\03 - David Ruffin and Jimmy Ruffin - Your Love Was Worth Waiting For.wav

Pre-gap length 0:00:00.36

Peak level 54.7 %
Extraction speed 3.8 X
Track quality 99.9 %
Test CRC EFD67B6E
Copy CRC EFD67B6E
Accurately ripped (confidence 2) [78AAA885] (AR v2)
Copy OK

Track 4

Filename C:\oneanight\04 - Diana Ross & Marvin Gaye - You Are Everything.wav

Pre-gap length 0:00:01.54

Peak level 89.1 %
Extraction speed 4.1 X
Track quality 99.9 %
Test CRC 4854363A
Copy CRC 4854363A
Accurately ripped (confidence 2) [69DADAF0] (AR v2)
Copy OK

Track 5

Filename C:\oneanight\05 - 98º - True To Your Heart [feat. Stevie Wonder].wav

Peak level 41.5 %
Extraction speed 4.8 X
Track quality 99.9 %
Test CRC 2FD9E3E7
Copy CRC 2FD9E3E7
Accurately ripped (confidence 2) [3D6CEB4D] (AR v2)
Copy OK

Track 6

Filename C:\oneanight\06 - Diana Ross & The Supremes & The Temptations - I'm Gonna Make You Love Me.wav

Peak level 95.0 %
Extraction speed 5.8 X
Track quality 100.0 %
Test CRC D872E167
Copy CRC D872E167
Accurately ripped (confidence 2) [F530FD26] (AR v2)
Copy OK

Track 7

Filename C:\oneanight\07 - Four Tops and The Supremes - You Gotta Have Love In Your Heart.wav

Peak level 83.3 %
Extraction speed 5.9 X
Track quality 100.0 %
Test CRC BA2D1288
Copy CRC BA2D1288
Accurately ripped (confidence 2) [1B01193C] (AR v2)
Copy OK

Track 8

Filename C:\oneanight\08 - Billy Preston - With You I'm Born Again [feat. Syreeta].wav

Peak level 54.9 %
Extraction speed 6.5 X
Track quality 100.0 %
Test CRC 6FB90E8C
Copy CRC 6FB90E8C
Accurately ripped (confidence 2) [EC4EB273] (AR v2)
Copy OK

Track 9

Filename C:\oneanight\09 - Rick James And Teena Marie - Fire And Desire.wav

Peak level 70.7 %
Extraction speed 6.1 X
Track quality 99.9 %
Test CRC D2F9B341
Copy CRC D2F9B341
Accurately ripped (confidence 2) [718533FE] (AR v2)
Copy OK

Track 10

Filename C:\oneanight\10 - Dennis Edwards - Don't Look Any Further [feat. Siedah Garrett].wav

Peak level 69.1 %
Extraction speed 7.0 X
Track quality 100.0 %
Test CRC F4B94148
Copy CRC F4B94148
Accurately ripped (confidence 2) [34CC89AC] (AR v2)
Copy OK

Track 11

Filename C:\oneanight\11 - Diana Ross & The Supremes & The Temptations - I Second That Emotion.wav

Pre-gap length 0:00:03.70

Peak level 78.8 %
Extraction speed 4.9 X
Track quality 99.9 %
Test CRC 2A6DA89C
Copy CRC 2A6DA89C
Accurately ripped (confidence 2) [C1B90E26] (AR v2)
Copy OK

Track 12

Filename C:\oneanight\12 - Blinky and Edwin Starr - I'm Glad You Belong To Me.wav

Peak level 98.0 %
Extraction speed 5.6 X
Track quality 99.9 %
Test CRC 319B77C8
Copy CRC 319B77C8
Accurately ripped (confidence 2) [F158D102] (AR v2)
Copy OK

Track 13

Filename C:\oneanight\13 - Smokey Robinson and Syreeta - First Time On A Ferris Wheel.wav

Peak level 87.5 %
Extraction speed 6.4 X
Track quality 99.9 %
Test CRC 1FB401A9
Copy CRC 1FB401A9
Accurately ripped (confidence 2) [6E488B20] (AR v2)
Copy OK

Track 14

Filename C:\oneanight\14 - Jermaine Jackson and Syreeta - Stay With Love.wav

Peak level 97.6 %
Extraction speed 7.9 X
Track quality 100.0 %
Test CRC 918712F4
Copy CRC 918712F4
Accurately ripped (confidence 2) [FFC4C8CC] (AR v2)
Copy OK

Track 15

Filename C:\oneanight\15 - Four Tops and The Supremes - River Deep, Mountain High.wav

Peak level 87.7 %
Extraction speed 7.6 X
Track quality 100.0 %
Test CRC 03CCD9C2
Copy CRC 03CCD9C2
Accurately ripped (confidence 2) [8FB8301D] (AR v2)
Copy OK

Track 16

Filename C:\oneanight\16 - Johnny Gill and Shanice - Silent Prayer.wav

Peak level 54.6 %
Extraction speed 8.3 X
Track quality 100.0 %
Test CRC AA82222A
Copy CRC AA82222A
Accurately ripped (confidence 2) [516A7394] (AR v2)
Copy OK

Track 17

Filename C:\oneanight\17 - Smokey Robinson - Blame It On Love [feat. Barbara Mitchell].wav

Peak level 73.8 %
Extraction speed 8.2 X
Track quality 100.0 %
Test CRC B3079514
Copy CRC B3079514
Accurately ripped (confidence 2) [ABE2D375] (AR v2)
Copy OK

Track 18

Filename C:\oneanight\18 - Diana Ross & The Supremes & The Temptations - The Weight.wav

Peak level 97.7 %
Extraction speed 8.0 X
Track quality 100.0 %
Test CRC D5D4DE24
Copy CRC D5D4DE24
Accurately ripped (confidence 2) [A5282021] (AR v2)
Copy OK

Track 19

Filename C:\oneanight\19 - Marvin Gaye & Tammi Terrell - Ain't Nothing Like The Real Thing.wav

Peak level 98.8 %
Extraction speed 8.1 X
Track quality 100.0 %
Test CRC 964CBC8A
Copy CRC 964CBC8A
Accurately ripped (confidence 2) [1C3AADA9] (AR v2)
Copy OK

Track 20

Filename C:\oneanight\20 - Four Tops and The Supremes - Hello Stranger.wav

Peak level 97.4 %
Extraction speed 8.6 X
Track quality 100.0 %
Test CRC 52D1D662
Copy CRC 52D1D662
Accurately ripped (confidence 2) [F3121D75] (AR v2)
Copy OK

Track 21

Filename C:\oneanight\21 - Billy Preston & Syreeta - Searchin'.wav

Peak level 97.4 %
Extraction speed 9.0 X
Track quality 100.0 %
Test CRC F849D344
Copy CRC F849D344
Accurately ripped (confidence 2) [2EA95F7E] (AR v2)
Copy OK

Track 22

Filename C:\oneanight\22 - Diana Ross & Marvin Gaye - You're A Special Part Of Me.wav

Peak level 88.2 %
Extraction speed 9.1 X
Track quality 100.0 %
Test CRC 711D0B42
Copy CRC 711D0B42
Accurately ripped (confidence 2) [A0BB2590] (AR v2)
Copy OK


All tracks accurately ripped

No errors occurred

End of status report

–– CUETools DB Plugin V2.1.6

[CTDB TOCID: ZY7BE_6jvNyofzMA5EFJp7UFwuw-] found
Submit result: ZY7BE_6jvNyofzMA5EFJp7UFwuw- has been confirmed
Track | CTDB Status
1 | (5/5) Accurately ripped
2 | (5/5) Accurately ripped
3 | (5/5) Accurately ripped
4 | (5/5) Accurately ripped
5 | (5/5) Accurately ripped
6 | (5/5) Accurately ripped
7 | (5/5) Accurately ripped
8 | (5/5) Accurately ripped
9 | (5/5) Accurately ripped
10 | (5/5) Accurately ripped
11 | (5/5) Accurately ripped
12 | (5/5) Accurately ripped
13 | (5/5) Accurately ripped
14 | (5/5) Accurately ripped
15 | (5/5) Accurately ripped
16 | (5/5) Accurately ripped
17 | (5/5) Accurately ripped
18 | (5/5) Accurately ripped
19 | (5/5) Accurately ripped
20 | (5/5) Accurately ripped
21 | (5/5) Accurately ripped
22 | (5/5) Accurately ripped


==== Log checksum 383DDE34931F72F4D2E704DFB1BFE6B964722E8FD987EDE1EFBA874BB5C88D24 ====


CD3:
01. Stevie Wonder – Yester-Me, Yester-You, Yesterday
02. Diana Ross – I’m Still Waiting
03. Marvin Gaye – I Heard It Through The Grapevine
04. Commodores – Three Times A Lady
05. The Temptations – Get Ready
06. Four Tops – Walk Away Renee
07. Jackson 5 – I Want You Back
08. The Supremes – You Can’t Hurry Love
09. Martha Reeves & The Vandellas – Dancing In The Street
10. Frankie Valli And The Four Seasons – The Night
11. Yvonne Fair – It Should Have Been Me
12. Smokey Robinson – Just To See Her
13. Edwin Starr – War
14. Jermaine Jackson – Let’s Get Serious
15. Rick James – Super Freak
16. The Isley Brothers – This Old Heart Of Mine (Is Weak For You)
17. The Velvelettes – Needle In A Haystack
18. Thelma Houston – Don’t Leave Me This Way
19. Martha & The Vandellas – Jimmy Mack
20. The Originals – Baby, I’m For Real
21. The Temptations – Papa Was A Rollin’ Stone
22. The Marvelettes – Please Mr. Postman
23. Michael Jackson – One Day In Your Life

Exact Audio Copy V1.1 from 23. June 2015

EAC extraction logfile from 1. December 2015, 9:14

VA / From Motown with love [Disc 3]

Used drive : HL-DT-STBD-RE GGW-H20L Adapter: 1 ID: 0

Read mode : Secure
Utilize accurate stream : Yes
Defeat audio cache : Yes
Make use of C2 pointers : No

Read offset correction : 667
Overread into Lead-In and Lead-Out : No
Fill up missing offset samples with silence : Yes
Delete leading and trailing silent blocks : No
Null samples used in CRC calculations : Yes
Used interface : Native Win32 interface for Win NT & 2000
Gap handling : Appended to previous track

Used output format : User Defined Encoder
Selected bitrate : 1024 kBit/s
Quality : High
Add ID3 tag : No
Command line compressor : C:\Program Files (x86)\Exact Audio Copy\Flac\flac.exe
Additional command line options : -8 -V -T "ARTIST=%artist%" -T "TITLE=%title%" -T "ALBUM=%albumtitle%" -T "DATE=%year%" -T "TRACKNUMBER=%tracknr%" -T "GENRE=%genre%" -T "PERFORMER=%albuminterpret%" -T "COMPOSER=%composer%" %haslyrics%–tag-from-file=LYRICS="%lyricsfile%"%haslyrics% -T "ALBUMARTIST=%albumartist%" -T "ALBUM ARTIST=%albumartist%" -T "DISCNUMBER=%cdnumber%" -T "TOTALDISCS=%totalcds%" -T "TOTALTRACKS=%numtracks%" -T "COMMENT=EAC V1.1, Secure Mode, Test & Copy, AccurateRip, FLAC - 8 - oneanight (oan)" %source%


TOC of the extracted CD

Track | Start | Length | Start sector | End sector
––––––––––––––––––––––––––––-
1 | 0:00.00 | 3:03.44 | 0 | 13768
2 | 3:03.44 | 3:44.54 | 13769 | 30622
3 | 6:48.23 | 3:11.04 | 30623 | 44951
4 | 9:59.27 | 3:36.16 | 44952 | 61167
5 | 13:35.43 | 2:35.62 | 61168 | 72854
6 | 16:11.30 | 2:43.34 | 72855 | 85113
7 | 18:54.64 | 2:55.16 | 85114 | 98254
8 | 21:50.05 | 2:52.47 | 98255 | 111201
9 | 24:42.52 | 2:37.20 | 111202 | 122996
10 | 27:19.72 | 3:21.02 | 122997 | 138073
11 | 30:40.74 | 3:24.13 | 138074 | 153386
12 | 34:05.12 | 3:59.48 | 153387 | 171359
13 | 38:04.60 | 3:26.40 | 171360 | 186849
14 | 41:31.25 | 3:34.16 | 186850 | 202915
15 | 45:05.41 | 3:23.74 | 202916 | 218214
16 | 48:29.40 | 2:51.39 | 218215 | 231078
17 | 51:21.04 | 2:29.18 | 231079 | 242271
18 | 53:50.22 | 3:38.05 | 242272 | 258626
19 | 57:28.27 | 2:49.72 | 258627 | 271373
20 | 60:18.24 | 3:17.73 | 271374 | 286221
21 | 63:36.22 | 6:58.08 | 286222 | 317579
22 | 70:34.30 | 2:28.50 | 317580 | 328729
23 | 73:03.05 | 4:15.17 | 328730 | 347871


Track 1

Filename C:\oneanight\01 - Stevie Wonder - Yester-Me, Yester-You, Yesterday.wav

Pre-gap length 0:00:02.00

Peak level 68.0 %
Extraction speed 3.1 X
Track quality 99.9 %
Test CRC 63AB76D0
Copy CRC 63AB76D0
Accurately ripped (confidence 2) [22DFA102] (AR v2)
Copy OK

Track 2

Filename C:\oneanight\02 - Diana Ross - I'm Still Waiting.wav

Peak level 70.6 %
Extraction speed 4.7 X
Track quality 100.0 %
Test CRC 78038808
Copy CRC 78038808
Accurately ripped (confidence 2) [BED24762] (AR v2)
Copy OK

Track 3

Filename C:\oneanight\03 - Marvin Gaye - I Heard It Through The Grapevine.wav

Pre-gap length 0:00:00.78

Peak level 91.4 %
Extraction speed 5.1 X
Track quality 100.0 %
Test CRC B4291FD1
Copy CRC B4291FD1
Accurately ripped (confidence 2) [D6A0303C] (AR v2)
Copy OK

Track 4

Filename C:\oneanight\04 - Commodores - Three Times A Lady.wav

Pre-gap length 0:00:00.01

Peak level 78.5 %
Extraction speed 5.4 X
Track quality 100.0 %
Test CRC A7777DD4
Copy CRC A7777DD4
Accurately ripped (confidence 2) [7310CE27] (AR v2)
Copy OK

Track 5

Filename C:\oneanight\05 - The Temptations - Get Ready.wav

Peak level 80.8 %
Extraction speed 5.3 X
Track quality 100.0 %
Test CRC A43D1CDE
Copy CRC A43D1CDE
Accurately ripped (confidence 2) [359E0E38] (AR v2)
Copy OK

Track 6

Filename C:\oneanight\06 - Four Tops - Walk Away Renee.wav

Pre-gap length 0:00:00.10

Peak level 79.4 %
Extraction speed 5.7 X
Track quality 100.0 %
Test CRC 8C41A1C0
Copy CRC 8C41A1C0
Accurately ripped (confidence 2) [1F9DBF49] (AR v2)
Copy OK

Track 7

Filename C:\oneanight\07 - Jackson 5 - I Want You Back.wav

Pre-gap length 0:00:00.14

Peak level 80.5 %
Extraction speed 5.7 X
Track quality 100.0 %
Test CRC 5809F347
Copy CRC 5809F347
Accurately ripped (confidence 2) [DDCA7722] (AR v2)
Copy OK

Track 8

Filename C:\oneanight\08 - The Supremes - You Can't Hurry Love.wav

Peak level 48.8 %
Extraction speed 3.0 X
Track quality 99.9 %
Test CRC 36E1062B
Copy CRC 36E1062B
Accurately ripped (confidence 2) [15D0352C] (AR v2)
Copy OK

Track 9

Filename C:\oneanight\09 - Martha Reeves & The Vandellas - Dancing In The Street.wav

Peak level 82.1 %
Extraction speed 3.6 X
Track quality 100.0 %
Test CRC C39377B3
Copy CRC C39377B3
Accurately ripped (confidence 2) [C546CFF5] (AR v2)
Copy OK

Track 10

Filename C:\oneanight\10 - Frankie Valli And The Four Seasons - The Night.wav

Peak level 86.8 %
Extraction speed 3.9 X
Track quality 100.0 %
Test CRC 6BBA2E09
Copy CRC 6BBA2E09
Accurately ripped (confidence 2) [E516C400] (AR v2)
Copy OK

Track 11

Filename C:\oneanight\11 - Yvonne Fair - It Should Have Been Me.wav

Peak level 89.1 %
Extraction speed 3.5 X
Track quality 99.9 %
Test CRC AAA522F5
Copy CRC AAA522F5
Accurately ripped (confidence 2) [9DF403A1] (AR v2)
Copy OK

Track 12

Filename C:\oneanight\12 - Smokey Robinson - Just To See Her.wav

Pre-gap length 0:00:00.04

Peak level 87.3 %
Extraction speed 4.2 X
Track quality 100.0 %
Test CRC 50694377
Copy CRC 50694377
Accurately ripped (confidence 2) [4402987A] (AR v2)
Copy OK

Track 13

Filename C:\oneanight\13 - Edwin Starr - War.wav

Peak level 56.2 %
Extraction speed 7.3 X
Track quality 100.0 %
Test CRC 9ECD0351
Copy CRC 9ECD0351
Accurately ripped (confidence 2) [00FCED69] (AR v2)
Copy OK

Track 14

Filename C:\oneanight\14 - Jermaine Jackson - Let's Get Serious.wav

Peak level 89.0 %
Extraction speed 7.5 X
Track quality 100.0 %
Test CRC D63481C2
Copy CRC D63481C2
Accurately ripped (confidence 2) [3851B097] (AR v2)
Copy OK

Track 15

Filename C:\oneanight\15 - Rick James - Super Freak.wav

Pre-gap length 0:00:00.05

Peak level 81.9 %
Extraction speed 4.7 X
Track quality 100.0 %
Test CRC D2C35EC5
Copy CRC D2C35EC5
Accurately ripped (confidence 2) [E5EFEDC4] (AR v2)
Copy OK

Track 16

Filename C:\oneanight\16 - The Isley Brothers - This Old Heart Of Mine (Is Weak For You).wav

Peak level 99.9 %
Extraction speed 4.5 X
Track quality 100.0 %
Test CRC 2DBDE988
Copy CRC 2DBDE988
Accurately ripped (confidence 2) [2786AFC7] (AR v2)
Copy OK

Track 17

Filename C:\oneanight\17 - The Velvelettes - Needle In A Haystack.wav

Peak level 61.8 %
Extraction speed 4.2 X
Track quality 100.0 %
Test CRC 6A5D4104
Copy CRC 6A5D4104
Accurately ripped (confidence 2) [E3FD323C] (AR v2)
Copy OK

Track 18

Filename C:\oneanight\18 - Thelma Houston - Don't Leave Me This Way.wav

Peak level 68.6 %
Extraction speed 4.7 X
Track quality 100.0 %
Test CRC ED86685F
Copy CRC ED86685F
Accurately ripped (confidence 2) [AA8BDB39] (AR v2)
Copy OK

Track 19

Filename C:\oneanight\19 - Martha & The Vandellas - Jimmy Mack.wav

Pre-gap length 0:00:00.02

Peak level 86.8 %
Extraction speed 4.0 X
Track quality 99.9 %
Test CRC 916AB86A
Copy CRC 916AB86A
Accurately ripped (confidence 2) [2E1629F4] (AR v2)
Copy OK

Track 20

Filename C:\oneanight\20 - The Originals - Baby, I'm For Real.wav

Peak level 100.0 %
Extraction speed 5.1 X
Track quality 100.0 %
Test CRC 784F2287
Copy CRC 784F2287
Accurately ripped (confidence 2) [DF9B9D41] (AR v2)
Copy OK

Track 21

Filename C:\oneanight\21 - The Temptations - Papa Was A Rollin' Stone.wav

Peak level 92.8 %
Extraction speed 5.8 X
Track quality 100.0 %
Test CRC CC535C60
Copy CRC CC535C60
Accurately ripped (confidence 2) [18CCD3FB] (AR v2)
Copy OK

Track 22

Filename C:\oneanight\22 - The Marvelettes - Please Mr. Postman.wav

Pre-gap length 0:00:00.06

Peak level 70.7 %
Extraction speed 4.9 X
Track quality 100.0 %
Test CRC E5658B6A
Copy CRC E5658B6A
Accurately ripped (confidence 2) [A51C2E2E] (AR v2)
Copy OK

Track 23

Filename C:\oneanight\23 - Michael Jackson - One Day In Your Life.wav

Pre-gap length 0:00:00.28

Peak level 79.4 %
Extraction speed 5.7 X
Track quality 100.0 %
Test CRC CF7CD90D
Copy CRC CF7CD90D
Accurately ripped (confidence 2) [C67CA280] (AR v2)
Copy OK


All tracks accurately ripped

No errors occurred

End of status report

–– CUETools DB Plugin V2.1.6

[CTDB TOCID: 9N3vmymbL1MTIgMnzqiAFD7qG14-] found
Submit result: 9N3vmymbL1MTIgMnzqiAFD7qG14- has been confirmed
Track | CTDB Status
1 | (5/5) Accurately ripped
2 | (5/5) Accurately ripped
3 | (5/5) Accurately ripped
4 | (5/5) Accurately ripped
5 | (5/5) Accurately ripped
6 | (5/5) Accurately ripped
7 | (5/5) Accurately ripped
8 | (5/5) Accurately ripped
9 | (5/5) Accurately ripped
10 | (5/5) Accurately ripped
11 | (5/5) Accurately ripped
12 | (5/5) Accurately ripped
13 | (5/5) Accurately ripped
14 | (5/5) Accurately ripped
15 | (5/5) Accurately ripped
16 | (5/5) Accurately ripped
17 | (5/5) Accurately ripped
18 | (5/5) Accurately ripped
19 | (5/5) Accurately ripped
20 | (5/5) Accurately ripped
21 | (5/5) Accurately ripped
22 | (5/5) Accurately ripped
23 | (5/5) Accurately ripped


==== Log checksum FF220F15361FB5504F39A8F3B4380A9772292D3A8608D39A21F1310285B799D8 ====