Subcategories

VA - Hut ab! - Hommage an Udo Lindenberg (1994)

Posted By: luckburz
VA - Hut ab! - Hommage an Udo Lindenberg (1994)

VA - Hut ab! - Hommage an Udo Lindenberg
EAC+LOG+CUE | FLAC: 390 MB | Full Artwork | 5% Recovery Info
Label/Cat#: Polydor # 523 550-2 | Country/Year: Germany 1994
Genre: Rock | Style: Classic Rock, Pop Rock

MD5 [X] CUE [X] LOG [X] INFO TEXT [X] ARTWORK [X]

selfrip [X] not my rip []

VA - Hut ab! - Hommage an Udo Lindenberg (1994)


Exact Audio Copy V1.0 beta 3 from 29. August 2011

EAC extraction logfile from 25. November 2012, 22:08

Various / Hut ab! - Hommage an Udo Lindenberg

Used drive : PIONEER BD-RW BDR-206 Adapter: 0 ID: 2

Read mode : Secure
Utilize accurate stream : Yes
Defeat audio cache : Yes
Make use of C2 pointers : No

Read offset correction : 667
Overread into Lead-In and Lead-Out : No
Fill up missing offset samples with silence : Yes
Delete leading and trailing silent blocks : No
Null samples used in CRC calculations : Yes
Used interface : Native Win32 interface for Win NT & 2000

Used output format : User Defined Encoder
Selected bitrate : 1024 kBit/s
Quality : High
Add ID3 tag : Yes
Command line compressor : C:\Program Files\FLAC\flac.exe
Additional command line options : -5 -T "Artist=%artist%" -T "Title=%title%" -T "Album=%albumtitle%" -T "Date=%year%" -T "Tracknumber=%tracknr%" -T "Genre=%genre%" %source% -o %dest%


TOC of the extracted CD

Track | Start | Length | Start sector | End sector
––––––––––––––––––––––––––––-
1 | 0:00.33 | 4:29.10 | 33 | 20217
2 | 4:29.43 | 3:35.65 | 20218 | 36407
3 | 8:05.33 | 4:47.05 | 36408 | 57937
4 | 12:52.38 | 3:29.70 | 57938 | 73682
5 | 16:22.33 | 4:05.50 | 73683 | 92107
6 | 20:28.08 | 4:13.20 | 92108 | 111102
7 | 24:41.28 | 4:21.30 | 111103 | 130707
8 | 29:02.58 | 3:45.17 | 130708 | 147599
9 | 32:48.00 | 3:14.20 | 147600 | 162169
10 | 36:02.20 | 3:23.00 | 162170 | 177394
11 | 39:25.20 | 4:20.45 | 177395 | 196939
12 | 43:45.65 | 3:12.68 | 196940 | 211407
13 | 46:58.58 | 4:23.12 | 211408 | 231144
14 | 51:21.70 | 3:51.10 | 231145 | 248479
15 | 55:13.05 | 4:04.43 | 248480 | 266822
16 | 59:17.48 | 3:51.72 | 266823 | 284219


Range status and errors

Selected range

Filename F:\=== VINYL RIPS ===\=== EAC===\X FRESH RIP\Various - Hut ab! - Hommage an Udo Lindenberg.wav

Peak level 89.1 %
Extraction speed 7.3 X
Range quality 100.0 %
Test CRC 492104DA
Copy CRC 492104DA
Copy OK

No errors occurred


AccurateRip summary

Track 1 accurately ripped (confidence 2) [675A5B3D] (AR v2)
Track 2 accurately ripped (confidence 2) [6C76D447] (AR v2)
Track 3 accurately ripped (confidence 2) [D3706797] (AR v2)
Track 4 accurately ripped (confidence 2) [D97E2024] (AR v2)
Track 5 accurately ripped (confidence 2) [E0C34D51] (AR v2)
Track 6 accurately ripped (confidence 2) [B095A1B4] (AR v2)
Track 7 accurately ripped (confidence 2) [4BD65B55] (AR v2)
Track 8 accurately ripped (confidence 2) [FB481979] (AR v2)
Track 9 accurately ripped (confidence 2) [2D6C4D5C] (AR v2)
Track 10 accurately ripped (confidence 2) [E7FF87F2] (AR v2)
Track 11 accurately ripped (confidence 2) [73E73091] (AR v2)
Track 12 accurately ripped (confidence 2) [15214CA9] (AR v2)
Track 13 accurately ripped (confidence 2) [913095B9] (AR v2)
Track 14 accurately ripped (confidence 2) [71DC39E1] (AR v2)
Track 15 accurately ripped (confidence 2) [AD251C91] (AR v2)
Track 16 accurately ripped (confidence 2) [AAED89FD] (AR v2)

All tracks accurately ripped

End of status report

–– CUETools DB Plugin V2.1.3

[CTDB TOCID: GFDwa17hmzznjQlYeMQj2Tagk3I-] disk not present in database, Submit result: discs with pregaps not supported in this protocol version


==== Log checksum D76A30CEEADB88D0BCB9B25FB1DC5E0AA18876D7DC0C048A43C1DA87A96B4683 ====

foobar2000 1.1.14a / Dynamic Range Meter 1.1.1
log date: 2012-11-29 19:59:08

––––––––––––––––––––––––––––––––––––––––
Analyzed: Various / Hut ab! - Hommage an Udo Lindenberg
––––––––––––––––––––––––––––––––––––––––

DR Peak RMS Duration Track
––––––––––––––––––––––––––––––––––––––––
DR11 -1.00 dB -13.45 dB 4:29 01-Heinz Rudolf Kunze - Odyssee
DR7 -3.18 dB -13.37 dB 3:36 02-Ulla Meinecke - Nichts haut einen Seemann um
DR9 -1.08 dB -11.63 dB 4:47 03-Extrabreit - Honky Tonky Show
DR10 -1.10 dB -11.48 dB 3:30 04-BAP - Cello
DR11 -1.00 dB -12.76 dB 4:06 05-Inga & Anette Humpe - Ein Herz kann man nicht reparieren
DR12 -1.00 dB -15.97 dB 4:13 06-Element Of Crime - Leider nur ein Vakuum
DR9 -1.10 dB -12.95 dB 4:21 07-Nena - Ich lieb' Dich überhaupt nicht mehr
DR11 -1.00 dB -14.22 dB 3:45 08-Otto - Hoch im Norden
DR12 -2.78 dB -16.86 dB 3:14 09-Die Prinzen - Sandmännnchen
DR10 -1.00 dB -12.30 dB 3:23 10-Nina Hagen - Rock 'n' Roller
DR11 -2.00 dB -16.41 dB 4:21 11-Pe Werner - Unterm Säufermond
DR12 -1.33 dB -15.10 dB 3:13 12-Stefan Waggershausen - Rudi Ratlos
DR11 -1.00 dB -13.53 dB 4:23 13-Uwe Ochsenknecht - Lolita (… sie war an der Schwelle zum Frausein)
DR8 -4.78 dB -15.07 dB 3:51 14-Matthias Reim - Horizont
DR12 -1.00 dB -14.54 dB 4:05 15-Wolfgang Ambros - Ich lieb' Dich überhaupt nicht mehr
DR12 -1.01 dB -14.18 dB 3:52 16-Rio Reiser - Alles klar auf der Andrea Doria
––––––––––––––––––––––––––––––––––––––––

Number of tracks: 16
Official DR value: DR10

Samplerate: 44100 Hz
Channels: 2
Bits per sample: 16
Bitrate: 865 kbps
Codec: FLAC
================================================================================



CD Info:

VA - Hut Ab! Hommage an Udo Lindenberg

Label: Polydor
Catalog#: 523 550-2
Format: CD, Compilation
Country: Germany
Released: 1994
Genre: Rock
Style: Classic Rock, Pop Rock

VA - Hut ab! - Hommage an Udo Lindenberg (1994)


Tracklist:

1 Heinz Rudolf Kunze - Odyssee 4:29
2 Ulla Meinecke - Nichts haut einen Seemann um 3:36
3 Extrabreit - Honky Tonky Show 4:47
4 BAP - Cello 3:30
5 Inga & Anette Humpe - Ein Herz kann man nicht reparieren 4:06
6 Element Of Crime - Leider nur ein Vakuum 4:13
7 Nena - Ich lieb' Dich überhaupt nicht mehr 4:21
8 Otto - Hoch im Norden 3:45
9 Die Prinzen - Sandmännnchen 3:14
10 Nina Hagen - Rock 'n' Roller 3:23
11 Pe Werner - Unterm Säufermond 4:21
12 Stefan Waggershausen - Rudi Ratlos 3:13
13 Uwe Ochsenknecht - Lolita (… sie war an der Schwelle zum Frausein) 4:23
14 Matthias Reim - Horizont 3:51
15 Wolfgang Ambros - Ich lieb' Dich überhaupt nicht mehr 4:05
16 Rio Reiser - Alles klar auf der Andrea Doria 3:52

VA - Hut ab! - Hommage an Udo Lindenberg (1994)


all of my uploads in my blog
________________

Download:

Filepost FLAC
Filepost Artwork
________________