Subcategories

VA - Outlaw Celebrating The Music Of Waylon Jennings (2017) {Legacy}

Posted By: shamanicus
VA - Outlaw Celebrating The Music Of Waylon Jennings (2017) {Legacy}

VA - Outlaw Celebrating The Music Of Waylon Jennings (2017)
EAC Rip | FLAC (tracks+.cue, log) | Artwork | RAR | 464 mb
Country, Blues | Label: Legacy - 88985342282

It's fitting that Chris and Morgane Stapleton open this homage to Waylon Jennings – they're a spiritual echo of Jennings and Jessi Colter, the duke and duchess of Seventies outlaw country, and emblematic of how the movement shaped generations of acts who chafe at Nashville conservatism but refuse to be marginalized. Recorded live in July 2015, this concert LP gathers Jennings' family and friends with all-star acolytes for the rarest of things: a tribute album that almost never flags, with performances that approach or match the originals.

VA - Outlaw Celebrating The Music Of Waylon Jennings (2017) {Legacy}


Tracklist:

01. Chris Stapleton - I Ain't Living Long Like This
02. Shooter Jennings - Whistlers and Jugglers
03. Jessi Colter - Mona
04. Bobby Bare - Only Daddy That'll Walk the Line
05. Lee Ann Womack - Ride Me Down Easy
06. Lee Ann Womack/Buddy Miller - Yours Love
07. Jamey Johnson - Freedom to Stay
08. Kacey Musgraves - The Wurlitzer Prize
09. Robert Earl Keen - Are You Sure Hank Done It This Way
10. Kris Kristofferson - I Do Believe
11. Ryan Bingham - Rainy Day Woman
12. Alison Krauss - Dreaming My Dreams With You
13. Alison Krauss/Jamey Johnson - I Ain't the One
14. Toby Keith - Honky Tonk Heroes
15. Eric Church - Lonesome, On'ry and Mean
16. Willie Nelson - Till I Gain Control Again
17. Willie Nelson/Toby Keith - Mammas Don't Let Your Babies Grow Up to Be Cowboys
18. Willie Nelson/Chris Stapleton - My Heroes Have Always Been Cowboys
19. Willie Nelson/Kris Kristofferson/Shooter Jennings/Jamey Johnson - Highwayman
20. Willie Nelson/Full Ensemble - Luckenbach, Texas (Back to the Basics of Love)

VA - Outlaw Celebrating The Music Of Waylon Jennings (2017) {Legacy}


Exact Audio Copy V1.3 from 2. September 2016

EAC extraction logfile from 31. May 2017, 10:28

Various Artists / Outlaw: Celebrating the Music of Waylon Jennings

Used drive : HL-DT-STDVDRAM GU70N Adapter: 1 ID: 0

Read mode : Secure
Utilize accurate stream : Yes
Defeat audio cache : Yes
Make use of C2 pointers : No

Read offset correction : 48
Overread into Lead-In and Lead-Out : No
Fill up missing offset samples with silence : Yes
Delete leading and trailing silent blocks : No
Null samples used in CRC calculations : Yes
Used interface : Native Win32 interface for Win NT & 2000
Gap handling : Appended to previous track

Used output format : User Defined Encoder
Selected bitrate : 1024 kBit/s
Quality : High
Add ID3 tag : No
Command line compressor : C:\Program Files (x86)\Exact Audio Copy\Flac\flac.exe
Additional command line options : -8 -e -V -T "ARTIST=%artist%" -T "TITLE=%title%" -T "ALBUM=%albumtitle%" -T "DATE=%year%" -T "TRACKNUMBER=%tracknr%" -T "GENRE=%genre%" -T "PERFORMER=%albuminterpret%" -T "COMPOSER=%composer%" %haslyrics%–tag-from-file=LYRICS="%lyricsfile%"%haslyrics% -T "ALBUMARTIST=%albumartist%" -T "DISCNUMBER=%cdnumber%" -T "TOTALDISCS=%totalcds%" -T "TOTALTRACKS=%numtracks%" -T "COMMENT=%comment%" %source% -o %dest%


TOC of the extracted CD

Track | Start | Length | Start sector | End sector
––––––––––––––––––––––––––––-
1 | 0:00.00 | 5:34.03 | 0 | 25052
2 | 5:34.03 | 5:42.13 | 25053 | 50715
3 | 11:16.16 | 2:59.07 | 50716 | 64147
4 | 14:15.23 | 2:51.64 | 64148 | 77036
5 | 17:07.12 | 3:16.45 | 77037 | 91781
6 | 20:23.57 | 2:58.11 | 91782 | 105142
7 | 23:21.68 | 4:13.06 | 105143 | 124123
8 | 27:34.74 | 2:39.45 | 124124 | 136093
9 | 30:14.44 | 4:00.43 | 136094 | 154136
10 | 34:15.12 | 3:33.23 | 154137 | 170134
11 | 37:48.35 | 2:54.48 | 170135 | 183232
12 | 40:43.08 | 3:55.33 | 183233 | 200890
13 | 44:38.41 | 2:38.47 | 200891 | 212787
14 | 47:17.13 | 3:43.64 | 212788 | 229576
15 | 51:01.02 | 3:15.27 | 229577 | 244228
16 | 54:16.29 | 4:46.15 | 244229 | 265693
17 | 59:02.44 | 2:46.14 | 265694 | 278157
18 | 61:48.58 | 2:33.00 | 278158 | 289632
19 | 64:21.58 | 3:05.00 | 289633 | 303507
20 | 67:26.58 | 3:45.52 | 303508 | 320434


Track 1

Filename C:\EAC\Various Artists - Outlaw - Celebrating the Music of Waylon Jennings (2017) {Legacy 88985342282} [FLAC]\01 - Chris Stapleton - I Ain't Living Long Like This.wav

Pre-gap length 0:00:02.00

Peak level 97.8 %
Extraction speed 1.4 X
Track quality 100.0 %
Test CRC 5BB41F44
Copy CRC 5BB41F44
Track not present in AccurateRip database
Copy OK

Track 2

Filename C:\EAC\Various Artists - Outlaw - Celebrating the Music of Waylon Jennings (2017) {Legacy 88985342282} [FLAC]\02 - Shooter Jennings - Whistlers and Jugglers.wav

Peak level 97.6 %
Extraction speed 1.5 X
Track quality 100.0 %
Test CRC 47747DE4
Copy CRC 47747DE4
Track not present in AccurateRip database
Copy OK

Track 3

Filename C:\EAC\Various Artists - Outlaw - Celebrating the Music of Waylon Jennings (2017) {Legacy 88985342282} [FLAC]\03 - Jessi Colter - Mona.wav

Peak level 70.0 %
Extraction speed 1.5 X
Track quality 100.0 %
Test CRC 5D49A980
Copy CRC 5D49A980
Track not present in AccurateRip database
Copy OK

Track 4

Filename C:\EAC\Various Artists - Outlaw - Celebrating the Music of Waylon Jennings (2017) {Legacy 88985342282} [FLAC]\04 - Bobby Bare - Only Daddy That'll Walk the Line.wav

Peak level 98.2 %
Extraction speed 1.6 X
Track quality 100.0 %
Test CRC F1E89A48
Copy CRC F1E89A48
Track not present in AccurateRip database
Copy OK

Track 5

Filename C:\EAC\Various Artists - Outlaw - Celebrating the Music of Waylon Jennings (2017) {Legacy 88985342282} [FLAC]\05 - Lee Ann Womack - Ride Me Down Easy.wav

Peak level 93.3 %
Extraction speed 1.7 X
Track quality 100.0 %
Test CRC 99344CE7
Copy CRC 99344CE7
Track not present in AccurateRip database
Copy OK

Track 6

Filename C:\EAC\Various Artists - Outlaw - Celebrating the Music of Waylon Jennings (2017) {Legacy 88985342282} [FLAC]\06 - Lee Ann Womack,Buddy Miller - Yours Love.wav

Peak level 91.7 %
Extraction speed 1.7 X
Track quality 100.0 %
Test CRC 411B38F3
Copy CRC 411B38F3
Track not present in AccurateRip database
Copy OK

Track 7

Filename C:\EAC\Various Artists - Outlaw - Celebrating the Music of Waylon Jennings (2017) {Legacy 88985342282} [FLAC]\07 - Jamey Johnson - Freedom to Stay.wav

Peak level 92.0 %
Extraction speed 1.9 X
Track quality 100.0 %
Test CRC EAACB3B8
Copy CRC EAACB3B8
Track not present in AccurateRip database
Copy OK

Track 8

Filename C:\EAC\Various Artists - Outlaw - Celebrating the Music of Waylon Jennings (2017) {Legacy 88985342282} [FLAC]\08 - Kacey Musgraves - The Wurlitzer Prize.wav

Peak level 93.0 %
Extraction speed 1.8 X
Track quality 100.0 %
Test CRC 1F9AB498
Copy CRC 1F9AB498
Track not present in AccurateRip database
Copy OK

Track 9

Filename C:\EAC\Various Artists - Outlaw - Celebrating the Music of Waylon Jennings (2017) {Legacy 88985342282} [FLAC]\09 - Robert Earl Keen - Are You Sure Hank Done It This Way.wav

Peak level 96.5 %
Extraction speed 2.0 X
Track quality 100.0 %
Test CRC 94C02DD5
Copy CRC 94C02DD5
Track not present in AccurateRip database
Copy OK

Track 10

Filename C:\EAC\Various Artists - Outlaw - Celebrating the Music of Waylon Jennings (2017) {Legacy 88985342282} [FLAC]\10 - Kris Kristofferson - I Do Believe.wav

Peak level 83.6 %
Extraction speed 2.1 X
Track quality 100.0 %
Test CRC 176453DF
Copy CRC 176453DF
Track not present in AccurateRip database
Copy OK

Track 11

Filename C:\EAC\Various Artists - Outlaw - Celebrating the Music of Waylon Jennings (2017) {Legacy 88985342282} [FLAC]\11 - Ryan Bingham - Rainy Day Woman.wav

Peak level 98.5 %
Extraction speed 1.8 X
Track quality 99.9 %
Test CRC F6929479
Copy CRC F6929479
Track not present in AccurateRip database
Copy OK

Track 12

Filename C:\EAC\Various Artists - Outlaw - Celebrating the Music of Waylon Jennings (2017) {Legacy 88985342282} [FLAC]\12 - Alison Krauss - Dreaming My Dreams With You.wav

Peak level 90.1 %
Extraction speed 2.2 X
Track quality 100.0 %
Test CRC A543D9EE
Copy CRC A543D9EE
Track not present in AccurateRip database
Copy OK

Track 13

Filename C:\EAC\Various Artists - Outlaw - Celebrating the Music of Waylon Jennings (2017) {Legacy 88985342282} [FLAC]\13 - Alison Krauss,Jamey Johnson - I Ain't the One.wav

Peak level 95.0 %
Extraction speed 2.1 X
Track quality 100.0 %
Test CRC A521AB79
Copy CRC A521AB79
Track not present in AccurateRip database
Copy OK

Track 14

Filename C:\EAC\Various Artists - Outlaw - Celebrating the Music of Waylon Jennings (2017) {Legacy 88985342282} [FLAC]\14 - Toby Keith - Honky Tonk Heroes.wav

Peak level 96.0 %
Extraction speed 2.3 X
Track quality 100.0 %
Test CRC 83145577
Copy CRC 83145577
Track not present in AccurateRip database
Copy OK

Track 15

Filename C:\EAC\Various Artists - Outlaw - Celebrating the Music of Waylon Jennings (2017) {Legacy 88985342282} [FLAC]\15 - Eric Church - Lonesome, On'ry and Mean.wav

Peak level 99.8 %
Extraction speed 2.3 X
Track quality 100.0 %
Test CRC A3E5D771
Copy CRC A3E5D771
Track not present in AccurateRip database
Copy OK

Track 16

Filename C:\EAC\Various Artists - Outlaw - Celebrating the Music of Waylon Jennings (2017) {Legacy 88985342282} [FLAC]\16 - Willie Nelson - Till I Gain Control Again.wav

Peak level 99.2 %
Extraction speed 2.5 X
Track quality 100.0 %
Test CRC 21BAB861
Copy CRC 21BAB861
Track not present in AccurateRip database
Copy OK

Track 17

Filename C:\EAC\Various Artists - Outlaw - Celebrating the Music of Waylon Jennings (2017) {Legacy 88985342282} [FLAC]\17 - Willie Nelson,Toby Keith - Mammas Don't Let Your Babies Grow Up to Be Cowboys.wav

Peak level 96.1 %
Extraction speed 2.4 X
Track quality 100.0 %
Test CRC 6D27AC28
Copy CRC 6D27AC28
Track not present in AccurateRip database
Copy OK

Track 18

Filename C:\EAC\Various Artists - Outlaw - Celebrating the Music of Waylon Jennings (2017) {Legacy 88985342282} [FLAC]\18 - Willie Nelson,Chris Stapleton - My Heroes Have Always Been Cowboys.wav

Peak level 91.8 %
Extraction speed 2.4 X
Track quality 100.0 %
Test CRC 1475459F
Copy CRC 1475459F
Track not present in AccurateRip database
Copy OK

Track 19

Filename C:\EAC\Various Artists - Outlaw - Celebrating the Music of Waylon Jennings (2017) {Legacy 88985342282} [FLAC]\19 - Willie Nelson,Kris Kristofferson,Shooter Jennings,Jamey Johnson - Highwayman.wav

Peak level 94.5 %
Extraction speed 2.5 X
Track quality 100.0 %
Test CRC 6EE648BA
Copy CRC 6EE648BA
Track not present in AccurateRip database
Copy OK

Track 20

Filename C:\EAC\Various Artists - Outlaw - Celebrating the Music of Waylon Jennings (2017) {Legacy 88985342282} [FLAC]\20 - Willie Nelson,Full Ensemble - Luckenbach, Texas (Back to the Basics of Love).wav

Peak level 100.0 %
Extraction speed 2.7 X
Track quality 100.0 %
Test CRC 29783B0A
Copy CRC 29783B0A
Track not present in AccurateRip database
Copy OK


None of the tracks are present in the AccurateRip database

No errors occurred

End of status report

–– CUETools DB Plugin V2.1.6

[CTDB TOCID: FxFxQb01jk58TWVuTHS4xGylHV0-] found
Submit result: FxFxQb01jk58TWVuTHS4xGylHV0- has been confirmed
Track | CTDB Status
1 | (3/3) Accurately ripped
2 | (3/3) Accurately ripped
3 | (3/3) Accurately ripped
4 | (3/3) Accurately ripped
5 | (3/3) Accurately ripped
6 | (3/3) Accurately ripped
7 | (3/3) Accurately ripped
8 | (3/3) Accurately ripped
9 | (3/3) Accurately ripped
10 | (3/3) Accurately ripped
11 | (3/3) Accurately ripped
12 | (3/3) Accurately ripped
13 | (3/3) Accurately ripped
14 | (3/3) Accurately ripped
15 | (3/3) Accurately ripped
16 | (3/3) Accurately ripped
17 | (3/3) Accurately ripped
18 | (3/3) Accurately ripped
19 | (3/3) Accurately ripped
20 | (3/3) Accurately ripped


==== Log checksum EFD995912C35E094DEF5FEF67B03C4734927E247175CD4D7F51F6BD762EC4304 ====


Thanks to the Original customer.