Subcategories

VA - Top Of The Pops 1964 - 2006 (Part-5) [2007's CD Release]

Posted By: Spanky2
VA - Top Of The Pops 1964 - 2006 (Part-5) [2007's CD Release]

VA - Top Of The Pops 1964 - 2006 (43 CD's) Part-5 (1992-98)
Lossless | XLD, Flac (Tracks), Cue, Log | Rar 3% Recovery | RS.com 3.60GB
7 CD's | 130 Songs Fully Taged | All Covers (Front & Back & CD) | Single CD Download
Rock / Pop / Oldies | Label: EMI Gold / UK | Year of release: 2007-08

These CD's feature many of the biggest hits performed on the legendary pop music chart TV Programme, which ran for a record shattering 42 years from January 1964 to July 2006! The Show totalled an amazing 2205 episodes and at its peak attracted 15 million viewers per week!

Track-List: 1992-1998
VA - Top Of The Pops - 1992/CD-29:

01 - Ce Ce Peniston - Finally (03:41)
02 - Tasmin Archer - Sleeping Satellite (04:34)
03 - Charles & Eddie - Would I Lie To You (03:23)
04 - Billy Ray Cyrus - Achy Breaky Heart (03:23)
05 - Shabba Ranks - Mr. Loverman (03:33)
06 - Incognito - Don't You Worry 'bout A Thing (04:06)
07 - Electronic - Disappointed (04:21)
08 - Go West - Faithful (04:21)
09 - Morrissey - We Hate It When Our Friends Become Successful (02:29)
10 - Sinead O'Connor - Success Has Made A Failure Of Our Home (04:26)
11 - Just Another Day - Jon Secada (04:16)
12 - Freddie Jackson - Me & Mrs Jones (04:08)
13 - Richard Marx - Hazard (05:15)
14 - Wet Wet Wet - Goodnight Girl (03:39)
15 - Inspiral Carpets - Dragging Me Down (04:30)
16 - Thunder - Low Life In High Places (04:08)
17 - Arrested Development - People Everyday (03:52)
18 - Carter USM - The Only Living Boy In New Cross (03:53)
19 - Hammer - Do Not Pass Me By (05:00)
––––––––––––––––––––––––––––––––––-

VA - Top Of The Pops - 1993/CD-30:

01 - Tina Turner - Disco Inferno (04:03)
02 - Kim Wilde - If I Can't Have You (03:28)
03 - Eternal - Stay (03:56)
04 - Arrested Development - Mr. Wendal (03:26)
05 - Shara Nelson - Downthat Road (03:43)
06 - Kenny Thomas - Trippin' On Your Love (04:00)
07 - Dina Carroll - Don't Be A Stranger (04:41)
08 - Shaggy - Oh Carolina (03:05)
09 - UB40 - (I Can't Help) Falling In Love (03:24)
10 - Tasmin Archer - In Your Care (04:22)
11 - Duran Duran - Ordinary World (04:18)
12 - Go West - Tracks Of My Tears (03:44)
13 - Bryan Ferry - I Put A Spell On You (03:54)
14 - Ugly Kid Joe - Cats In The Cradle (04:01)
15 - Thunder - A Better Man (03:40)
16 - Deborah Harry - I Can See Clearly Now (03:26)
17 - Belinda Carlisle - Big Scary Animal (04:15)
18 - RunRig - The Greatest Flame (04:21)
19 - Meat Loaf - I'd Do Anything For Love (But I Won't Do That) (05:21)
––––––––––––––––––––––––––––––––––-

VA - Top Of The Pops - 1994/CD-31:

01 - Sheryl Crow - All I Wanna Do (04:07)
02 - Linger - The Cranberries (04:30)
03 - Gun - Word Up (04:15)
04 - Terrorvision - Oblivion (03:04)
05 - Inspiral Carpets - Saturn 5 (03:58)
06 - Shampoo - Trouble (03:13)
07 - Juliet Roberts - Caught In The Middle (03:18)
08 - M People - Renaissance (03:55)
09 - Kylie Minogue - Confide In Me (05:51)
10 - Erasure - Always (03:56)
11 - CJ Lewis - Sweets For My Sweet (03:19)
12 - Pato Banton - Baby Come Back (03:50)
13 - R Kelly - She's Got That Vibe (03:20)
14 - Eternal - Oh Baby I (04:31)
15 - Boyzone - Love Me For A Reason (03:32)
16 - Wet Wet Wet - Love Is All Around (03:56)
17 - Richard Marx - Now & Forever (03:32)
18 - Meat Loaf - Objects In The Rear View Mirror (10:16)
––––––––––––––––––––––––––––––––––-

VA - Top Of The Pops - 1995/CD-32:

01 - Meat Loaf - I'd Die For You (And That's The Truth) (06:25)
02 - Supergrass - Alright (03:01)
03 - Tina Turner - Goldeneye (04:43)
04 - M People - Search For The Hero (04:10)
05 - Soul II Soul - Love Enuff (05:15)
06 - Judy Cheeks - Respect (03:15)
07 - Sean Maguire - Suddenly (04:03)
08 - Dana Dawson - 3 Is Family (03:36)
09 - Dubstar - Stars (04:09)
10 - Eternal - Power Of A Woman (04:19)
11 - Louise - Light Of My Life (04:14)
12 - Boyzone - So Good (03:02)
13 - TLC - Waterfalls (03:32)
14 - Mica Paris - One (04:18)
15 - Wet Wet Wet - Julia Says (04:06)
16 - Robson & Jerome - Unchained Melody (03:19)
17 - UB40 - Until My Dying Day (03:53)
18 - Shaggy - Boombastic (03:50)
––––––––––––––––––––––––––––––––––-

VA - Top Of The Pops - 1996/CD-33:

01 - Boyzone - Words (04:02)
02 - Eternal - Good Thing (03:48)
03 - Louise - Naked (03:32)
04 - Belinda Carlisle - In Too Deep (04:02)
05 - 911 - Don't Make Me Wait (04:20)
06 - Dodgy - Good Enough (03:57)
07 - Babylon Zoo - Spaceman (03:58)
08 - Nenah Cherry - Woman (04:28)
09 - Sean Maguire - Good Day (03:27)
10 - Gabrielle - Give Me A Little More Time (04:50)
11 - Shampoo - Girl Power (03:16)
12 - Lighthouse Family - Lifted (04:14)
13 - Orchestral Manoeuvres In The Dark - Walking On The Milkyway (04:03)
14 - Pato Banton - Groovin' (03:40)
15 - Maxi Priest With Shaggy - That Girl (03:57)
16 - Shaggy With Grand Puba - Why You Treat Me So Bad (03:51)
17 - Supergrass - Going Out (04:15)
18 - Meat Loaf - Not A Dry Eye In The House (05:54)
––––––––––––––––––––––––––––––––––-

VA - Top Of The Pops - 1997/CD-34:

01 - Boyzone - Picture Of You (03:20)
02 - Eternal - I Wanna Be The Only One (With Bebe Winans) (03:34)
03 - Louise - Arms Around The World (03:47)
04 - Kavana - I Can Make You Feel Good (03:29)
05 - Five - Slam Dunk (Da Funk) (03:36)
06 - 911 - Bodyshakin' (03:35)
07 - Hanson - Mmmbop (03:56)
08 - White Town - Your Woman (04:17)
09 - Depeche Mode - Barrel Of A Gun (05:23)
10 - No Mercy - Please Don't Go (04:16)
11 - Olive - You're Not Alone (03:56)
12 - DJ Quicksilver - Bellisima (03:14)
13 - Faithless - Reverence (03:44)
14 - Shaggy - Piece Of My Heart (With Marsha) (04:14)
15 - Chumbawamba - Tubthumping (03:31)
16 - Meredith Brooks - Bitch (04:01)
17 - Kula Shaker - Hush (02:55)
18 - Richard III - Supergrass (03:10)
––––––––––––––––––––––––––––––––––-

VA - Top Of The Pops - 1998/CD-35:

01 - Paul Weller - Brand New Start (04:06)
02 - Pulp - This Is Hardcore (06:24)
03 - Shed Seven - She Left Me On Friday (03:30)
04 - The Dandy Warhols - Not If You Were The Last Junkie On Earth (03:13)
05 - Placebo - Pure Morning (04:15)
06 - Bran Van 3000 - Drinking In La (03:40)
07 - Air - Sexy Boy (04:57)
08 - Tin Tin Out - Here's Where The Story Ends (With Shelley Nelson) (04:01)
09 - Bamboo - Bamboogie (03:32)
10 - Tamperer - Feel It (With Maya) (03:10)
11 - Aqua - Doctor Jones (03:21)
12 - Billie - Because We Want To (03:46)
13 - B Witched - C' Est La Vie (02:52)
14 - Steps - Heartbeat (04:23)
15 - Five - Everybody Get Up (03:04)
16 - Louise - All That Matters (03:35)
17 - Des' Ree - Life (03:33)
18 - Lighthouse Family - High (04:34)
19 - UB40 - Come Back Darling (03:15)
20 - Boyzone - No Matter What (04:35)


X Lossless Decoder version 20090828 (109.5)

XLD extraction logfile from 2009-09-24 17:05:25 +0100

Various Artists / TOTP-1992

Used drive : HL-DT-ST DVDRAM GP08LU10 (revision KE01)

Use cdparanoia mode : YES (CDParanoia III 10.2 engine)
Disable audio cache : OK for the drive with cache less than 2750KB
Make use of C2 pointers : NO
Read offset correction : 667
Max retry count : 100

TOC of the extracted CD
Track | Start | Length | Start sector | End sector
––––––––––––––––––––––––––––-
1 | 00:00:00 | 03:42:61 | 0 | 16710
2 | 03:42:61 | 04:34:59 | 16711 | 37319
3 | 08:17:45 | 03:23:64 | 37320 | 52608
4 | 11:41:34 | 03:23:32 | 52609 | 67865
5 | 15:04:66 | 03:34:03 | 67866 | 83918
6 | 18:38:69 | 04:07:11 | 83919 | 102454
7 | 22:46:05 | 04:21:24 | 102455 | 122053
8 | 27:07:29 | 04:21:57 | 122054 | 141685
9 | 31:29:11 | 02:29:39 | 141686 | 152899
10 | 33:58:50 | 04:27:09 | 152900 | 172933
11 | 38:25:59 | 04:16:53 | 172934 | 192186
12 | 42:42:37 | 04:08:49 | 192187 | 210835
13 | 46:51:11 | 05:15:65 | 210836 | 234525
14 | 52:07:01 | 03:39:64 | 234526 | 251014
15 | 55:46:65 | 04:30:52 | 251015 | 271316
16 | 60:17:42 | 04:09:15 | 271317 | 290006
17 | 64:26:57 | 03:52:35 | 290007 | 307441
18 | 68:19:17 | 03:53:52 | 307442 | 324968
19 | 72:12:69 | 05:02:03 | 324969 | 347621

All Tracks
Album gain : -6.60 dB
Peak : 1.000000

Track 01
Filename : /Users/Fiddy/Music/New Rips/Top Of The Pops 1964-2006 [43CDs] [2280872] (FLAC)/TOTP-1992-01 Ce Ce Peniston - Finally.flac

Track gain : -4.57 dB
Peak : 0.997314
CRC32 hash (test run) : 336918B1
CRC32 hash : 336918B1
CRC32 hash (skip zero) : A2E42E09
AccurateRip signature : D328D6E4
->Track not present in AccurateRip database.
Statistics
Read error : 0
Skipped (treated as error) : 0
Edge jitter error (maybe fixed) : 1
Atom jitter error (maybe fixed) : 1
Drift error (maybe fixed) : 0
Dropped bytes error (maybe fixed) : 0
Duplicated bytes error (maybe fixed) : 0
Inconsistency in error sectors : 0

Track 02
Filename : /Users/Fiddy/Music/New Rips/Top Of The Pops 1964-2006 [43CDs] [2280872] (FLAC)/TOTP-1992-02 Tasmin Archer - Sleeping Satellite.flac

Track gain : -5.12 dB
Peak : 0.888885
CRC32 hash (test run) : C130A992
CRC32 hash : C130A992
CRC32 hash (skip zero) : D4ED180C
AccurateRip signature : ADB40DA4
->Track not present in AccurateRip database.
Statistics
Read error : 0
Skipped (treated as error) : 0
Edge jitter error (maybe fixed) : 0
Atom jitter error (maybe fixed) : 0
Drift error (maybe fixed) : 0
Dropped bytes error (maybe fixed) : 0
Duplicated bytes error (maybe fixed) : 0
Inconsistency in error sectors : 0

Track 03
Filename : /Users/Fiddy/Music/New Rips/Top Of The Pops 1964-2006 [43CDs] [2280872] (FLAC)/TOTP-1992-03 Charles & Eddie - Would I Lie To You.flac

Track gain : -6.74 dB
Peak : 0.987488
CRC32 hash (test run) : 5C38C45B
CRC32 hash : 5C38C45B
CRC32 hash (skip zero) : 5B4C82C8
AccurateRip signature : 3F4577C1
->Track not present in AccurateRip database.
Statistics
Read error : 0
Skipped (treated as error) : 0
Edge jitter error (maybe fixed) : 0
Atom jitter error (maybe fixed) : 0
Drift error (maybe fixed) : 0
Dropped bytes error (maybe fixed) : 0
Duplicated bytes error (maybe fixed) : 0
Inconsistency in error sectors : 0

Track 04
Filename : /Users/Fiddy/Music/New Rips/Top Of The Pops 1964-2006 [43CDs] [2280872] (FLAC)/TOTP-1992-04 Billy Ray Cyrus - Achy Breaky Heart.flac

Track gain : -6.94 dB
Peak : 0.997314
CRC32 hash (test run) : 608AE84B
CRC32 hash : 608AE84B
CRC32 hash (skip zero) : 283E716C
AccurateRip signature : 38E54EAA
->Track not present in AccurateRip database.
Statistics
Read error : 0
Skipped (treated as error) : 0
Edge jitter error (maybe fixed) : 0
Atom jitter error (maybe fixed) : 0
Drift error (maybe fixed) : 0
Dropped bytes error (maybe fixed) : 0
Duplicated bytes error (maybe fixed) : 0
Inconsistency in error sectors : 0

Track 05
Filename : /Users/Fiddy/Music/New Rips/Top Of The Pops 1964-2006 [43CDs] [2280872] (FLAC)/TOTP-1992-05 Shabba Ranks - Mr Loverman.flac

Track gain : -5.66 dB
Peak : 0.888885
CRC32 hash (test run) : 477B572E
CRC32 hash : 477B572E
CRC32 hash (skip zero) : 7C26E064
AccurateRip signature : 94BD25A5
->Track not present in AccurateRip database.
Statistics
Read error : 0
Skipped (treated as error) : 0
Edge jitter error (maybe fixed) : 0
Atom jitter error (maybe fixed) : 0
Drift error (maybe fixed) : 0
Dropped bytes error (maybe fixed) : 0
Duplicated bytes error (maybe fixed) : 0
Inconsistency in error sectors : 0

Track 06
Filename : /Users/Fiddy/Music/New Rips/Top Of The Pops 1964-2006 [43CDs] [2280872] (FLAC)/TOTP-1992-06 Incognito - Don't You Worry 'Bout A Thing.flac

Track gain : -5.11 dB
Peak : 0.997314
CRC32 hash (test run) : D2F5352E
CRC32 hash : D2F5352E
CRC32 hash (skip zero) : 764915E1
AccurateRip signature : EB1D9D32
->Track not present in AccurateRip database.
Statistics
Read error : 0
Skipped (treated as error) : 0
Edge jitter error (maybe fixed) : 0
Atom jitter error (maybe fixed) : 0
Drift error (maybe fixed) : 0
Dropped bytes error (maybe fixed) : 0
Duplicated bytes error (maybe fixed) : 0
Inconsistency in error sectors : 0

Track 07
Filename : /Users/Fiddy/Music/New Rips/Top Of The Pops 1964-2006 [43CDs] [2280872] (FLAC)/TOTP-1992-07 Electronic - Disappointed.flac

Track gain : -6.58 dB
Peak : 0.888885
CRC32 hash (test run) : 90F28357
CRC32 hash : 90F28357
CRC32 hash (skip zero) : 6030A9CA
AccurateRip signature : BC72E811
->Track not present in AccurateRip database.
Statistics
Read error : 0
Skipped (treated as error) : 0
Edge jitter error (maybe fixed) : 0
Atom jitter error (maybe fixed) : 0
Drift error (maybe fixed) : 0
Dropped bytes error (maybe fixed) : 0
Duplicated bytes error (maybe fixed) : 0
Inconsistency in error sectors : 0

Track 08
Filename : /Users/Fiddy/Music/New Rips/Top Of The Pops 1964-2006 [43CDs] [2280872] (FLAC)/TOTP-1992-08 Go West - Faithful.flac

Track gain : -6.14 dB
Peak : 0.997314
CRC32 hash (test run) : B312074B
CRC32 hash : B312074B
CRC32 hash (skip zero) : 894E242A
AccurateRip signature : 5B75BC49
->Track not present in AccurateRip database.
Statistics
Read error : 0
Skipped (treated as error) : 0
Edge jitter error (maybe fixed) : 0
Atom jitter error (maybe fixed) : 0
Drift error (maybe fixed) : 0
Dropped bytes error (maybe fixed) : 0
Duplicated bytes error (maybe fixed) : 0
Inconsistency in error sectors : 0

Track 09
Filename : /Users/Fiddy/Music/New Rips/Top Of The Pops 1964-2006 [43CDs] [2280872] (FLAC)/TOTP-1992-09 Morrissey - We Hate It When Our Friends Become Successful.flac

Track gain : -5.76 dB
Peak : 0.997314
CRC32 hash (test run) : ED372273
CRC32 hash : ED372273
CRC32 hash (skip zero) : 2F966DAA
AccurateRip signature : D772B335
->Track not present in AccurateRip database.
Statistics
Read error : 0
Skipped (treated as error) : 0
Edge jitter error (maybe fixed) : 0
Atom jitter error (maybe fixed) : 0
Drift error (maybe fixed) : 0
Dropped bytes error (maybe fixed) : 0
Duplicated bytes error (maybe fixed) : 0
Inconsistency in error sectors : 0

Track 10
Filename : /Users/Fiddy/Music/New Rips/Top Of The Pops 1964-2006 [43CDs] [2280872] (FLAC)/TOTP-1992-10 Sinead O' Connor - Success Has Made A Failure Of Our Home.flac

Track gain : -7.36 dB
Peak : 0.997314
CRC32 hash (test run) : 3A720FD4
CRC32 hash : 3A720FD4
CRC32 hash (skip zero) : CC2F1C92
AccurateRip signature : 8646786B
->Track not present in AccurateRip database.
Statistics
Read error : 0
Skipped (treated as error) : 0
Edge jitter error (maybe fixed) : 0
Atom jitter error (maybe fixed) : 0
Drift error (maybe fixed) : 0
Dropped bytes error (maybe fixed) : 0
Duplicated bytes error (maybe fixed) : 0
Inconsistency in error sectors : 0

Track 11
Filename : /Users/Fiddy/Music/New Rips/Top Of The Pops 1964-2006 [43CDs] [2280872] (FLAC)/TOTP-1992-11 Just Another Day - Jon Secada.flac

Track gain : -5.75 dB
Peak : 0.997314
CRC32 hash (test run) : 7D12ED4B
CRC32 hash : 7D12ED4B
CRC32 hash (skip zero) : 87E05C54
AccurateRip signature : 4B956FE5
->Track not present in AccurateRip database.
Statistics
Read error : 0
Skipped (treated as error) : 0
Edge jitter error (maybe fixed) : 0
Atom jitter error (maybe fixed) : 0
Drift error (maybe fixed) : 0
Dropped bytes error (maybe fixed) : 0
Duplicated bytes error (maybe fixed) : 0
Inconsistency in error sectors : 0

Track 12
Filename : /Users/Fiddy/Music/New Rips/Top Of The Pops 1964-2006 [43CDs] [2280872] (FLAC)/TOTP-1992-12 Freddie Jackson - Me & Mrs Jones.flac

Track gain : -6.06 dB
Peak : 1.000000
CRC32 hash (test run) : CD449FC4
CRC32 hash : CD449FC4
CRC32 hash (skip zero) : 592F8D65
AccurateRip signature : CA05C868
->Track not present in AccurateRip database.
Statistics
Read error : 0
Skipped (treated as error) : 0
Edge jitter error (maybe fixed) : 0
Atom jitter error (maybe fixed) : 0
Drift error (maybe fixed) : 0
Dropped bytes error (maybe fixed) : 0
Duplicated bytes error (maybe fixed) : 0
Inconsistency in error sectors : 0

Track 13
Filename : /Users/Fiddy/Music/New Rips/Top Of The Pops 1964-2006 [43CDs] [2280872] (FLAC)/TOTP-1992-13 Richard Marx - Hazard.flac

Track gain : -3.79 dB
Peak : 0.888824
CRC32 hash (test run) : 0D87EE2B
CRC32 hash : 0D87EE2B
CRC32 hash (skip zero) : B65ACD78
AccurateRip signature : 0CC94F3F
->Track not present in AccurateRip database.
Statistics
Read error : 0
Skipped (treated as error) : 0
Edge jitter error (maybe fixed) : 0
Atom jitter error (maybe fixed) : 0
Drift error (maybe fixed) : 0
Dropped bytes error (maybe fixed) : 0
Duplicated bytes error (maybe fixed) : 0
Inconsistency in error sectors : 0

Track 14
Filename : /Users/Fiddy/Music/New Rips/Top Of The Pops 1964-2006 [43CDs] [2280872] (FLAC)/TOTP-1992-14 Wet Wet Wet - Goodnight Girl.flac

Track gain : -8.57 dB
Peak : 0.916687
CRC32 hash (test run) : B191FE26
CRC32 hash : B191FE26
CRC32 hash (skip zero) : 68C36121
AccurateRip signature : AE9BF4B9
->Track not present in AccurateRip database.
Statistics
Read error : 0
Skipped (treated as error) : 0
Edge jitter error (maybe fixed) : 0
Atom jitter error (maybe fixed) : 0
Drift error (maybe fixed) : 0
Dropped bytes error (maybe fixed) : 0
Duplicated bytes error (maybe fixed) : 0
Inconsistency in error sectors : 0

Track 15
Filename : /Users/Fiddy/Music/New Rips/Top Of The Pops 1964-2006 [43CDs] [2280872] (FLAC)/TOTP-1992-15 Inspiral Carpets - Dragging Me Down.flac

Track gain : -7.45 dB
Peak : 0.888885
CRC32 hash (test run) : 6E568ECC
CRC32 hash : 6E568ECC
CRC32 hash (skip zero) : 79183ADB
AccurateRip signature : 100FC57E
->Track not present in AccurateRip database.
Statistics
Read error : 0
Skipped (treated as error) : 0
Edge jitter error (maybe fixed) : 0
Atom jitter error (maybe fixed) : 0
Drift error (maybe fixed) : 0
Dropped bytes error (maybe fixed) : 0
Duplicated bytes error (maybe fixed) : 0
Inconsistency in error sectors : 0

Track 16
Filename : /Users/Fiddy/Music/New Rips/Top Of The Pops 1964-2006 [43CDs] [2280872] (FLAC)/TOTP-1992-16 Thunder - Low Life In High Places.flac

Track gain : -7.34 dB
Peak : 0.792206
CRC32 hash (test run) : 7603DFAE
CRC32 hash : 7603DFAE
CRC32 hash (skip zero) : 290513BC
AccurateRip signature : B2824B34
->Track not present in AccurateRip database.
Statistics
Read error : 0
Skipped (treated as error) : 0
Edge jitter error (maybe fixed) : 0
Atom jitter error (maybe fixed) : 0
Drift error (maybe fixed) : 0
Dropped bytes error (maybe fixed) : 0
Duplicated bytes error (maybe fixed) : 0
Inconsistency in error sectors : 0

Track 17
Filename : /Users/Fiddy/Music/New Rips/Top Of The Pops 1964-2006 [43CDs] [2280872] (FLAC)/TOTP-1992-17 Arrested Development - People Everyday.flac

Track gain : -3.27 dB
Peak : 1.000000
CRC32 hash (test run) : 1411DAE2
CRC32 hash : 1411DAE2
CRC32 hash (skip zero) : 5CB0411C
AccurateRip signature : 0E2FD6AE
->Track not present in AccurateRip database.
Statistics
Read error : 0
Skipped (treated as error) : 0
Edge jitter error (maybe fixed) : 0
Atom jitter error (maybe fixed) : 0
Drift error (maybe fixed) : 0
Dropped bytes error (maybe fixed) : 0
Duplicated bytes error (maybe fixed) : 0
Inconsistency in error sectors : 0

Track 18
Filename : /Users/Fiddy/Music/New Rips/Top Of The Pops 1964-2006 [43CDs] [2280872] (FLAC)/TOTP-1992-18 Carter USM - The Only Living Boy In New Cross.flac

Track gain : -6.77 dB
Peak : 0.888885
CRC32 hash (test run) : C53F666B
CRC32 hash : C53F666B
CRC32 hash (skip zero) : ED8D1B58
AccurateRip signature : BB6F2BB8
->Track not present in AccurateRip database.
Statistics
Read error : 0
Skipped (treated as error) : 0
Edge jitter error (maybe fixed) : 0
Atom jitter error (maybe fixed) : 0
Drift error (maybe fixed) : 0
Dropped bytes error (maybe fixed) : 0
Duplicated bytes error (maybe fixed) : 0
Inconsistency in error sectors : 0

Track 19
Filename : /Users/Fiddy/Music/New Rips/Top Of The Pops 1964-2006 [43CDs] [2280872] (FLAC)/TOTP-1992-19 Hammer - Do Not Pass Me By.flac

Track gain : -6.68 dB
Peak : 0.997314
CRC32 hash (test run) : DE409C72
CRC32 hash : DE409C72
CRC32 hash (skip zero) : FA72A640
AccurateRip signature : EA13EB60
->Track not present in AccurateRip database.
Statistics
Read error : 0
Skipped (treated as error) : 0
Edge jitter error (maybe fixed) : 0
Atom jitter error (maybe fixed) : 0
Drift error (maybe fixed) : 0
Dropped bytes error (maybe fixed) : 0
Duplicated bytes error (maybe fixed) : 0
Inconsistency in error sectors : 0

No errors occurred

End of status report


X Lossless Decoder version 20090828 (109.5)

XLD extraction logfile from 2009-09-24 17:48:35 +0100

Various Artists / TOTP-1993

Used drive : HL-DT-ST DVDRAM GP08LU10 (revision KE01)

Use cdparanoia mode : YES (CDParanoia III 10.2 engine)
Disable audio cache : OK for the drive with cache less than 2750KB
Make use of C2 pointers : NO
Read offset correction : 667
Max retry count : 100

TOC of the extracted CD
Track | Start | Length | Start sector | End sector
––––––––––––––––––––––––––––-
1 | 00:00:00 | 04:06:11 | 0 | 18460
2 | 04:06:11 | 03:29:27 | 18461 | 34162
3 | 07:35:38 | 03:57:67 | 34163 | 52004
4 | 11:33:30 | 03:29:57 | 52005 | 67736
5 | 15:03:12 | 03:43:69 | 67737 | 84530
6 | 18:47:06 | 04:02:17 | 84531 | 102697
7 | 22:49:23 | 04:42:19 | 102698 | 123866
8 | 27:31:42 | 03:06:34 | 123867 | 137850
9 | 30:38:01 | 03:25:66 | 137851 | 153291
10 | 34:03:67 | 04:23:07 | 153292 | 173023
11 | 38:26:74 | 04:20:57 | 173024 | 192580
12 | 42:47:56 | 03:45:73 | 192581 | 209528
13 | 46:33:54 | 03:56:22 | 209529 | 227250
14 | 50:30:01 | 04:03:03 | 227251 | 245478
15 | 54:33:04 | 03:40:72 | 245479 | 262050
16 | 58:14:01 | 03:27:57 | 262051 | 277632
17 | 61:41:58 | 04:16:38 | 277633 | 296870
18 | 65:58:21 | 04:23:20 | 296871 | 316615
19 | 70:21:41 | 05:23:58 | 316616 | 340898

All Tracks
Album gain : -6.18 dB
Peak : 0.977264

Track 01
Filename : /Users/Fiddy/Music/New Rips/Top Of The Pops 1964-2006 [43CDs] [2280872] (FLAC)/TOTP-1993-01 Tina Turner - Disco Inferno.flac

Track gain : -3.74 dB
Peak : 0.950775
CRC32 hash (test run) : 956B1D6F
CRC32 hash : 956B1D6F
CRC32 hash (skip zero) : 8E6355A8
AccurateRip signature : 34D45DE9
->Track not present in AccurateRip database.
Statistics
Read error : 0
Skipped (treated as error) : 0
Edge jitter error (maybe fixed) : 1
Atom jitter error (maybe fixed) : 1
Drift error (maybe fixed) : 0
Dropped bytes error (maybe fixed) : 0
Duplicated bytes error (maybe fixed) : 0
Inconsistency in error sectors : 0

Track 02
Filename : /Users/Fiddy/Music/New Rips/Top Of The Pops 1964-2006 [43CDs] [2280872] (FLAC)/TOTP-1993-02 Kim Wilde - If I Can't Have You.flac

Track gain : -7.24 dB
Peak : 0.963409
CRC32 hash (test run) : 8384F641
CRC32 hash : 8384F641
CRC32 hash (skip zero) : 1E32E4BE
AccurateRip signature : 96A112AE
->Track not present in AccurateRip database.
Statistics
Read error : 0
Skipped (treated as error) : 0
Edge jitter error (maybe fixed) : 0
Atom jitter error (maybe fixed) : 0
Drift error (maybe fixed) : 0
Dropped bytes error (maybe fixed) : 0
Duplicated bytes error (maybe fixed) : 0
Inconsistency in error sectors : 0

Track 03
Filename : /Users/Fiddy/Music/New Rips/Top Of The Pops 1964-2006 [43CDs] [2280872] (FLAC)/TOTP-1993-03 Eternal - Stay.flac

Track gain : -6.30 dB
Peak : 0.935272
CRC32 hash (test run) : 6A0DCF1A
CRC32 hash : 6A0DCF1A
CRC32 hash (skip zero) : 00EE8483
AccurateRip signature : 4BDAB7E4
->Track not present in AccurateRip database.
Statistics
Read error : 0
Skipped (treated as error) : 0
Edge jitter error (maybe fixed) : 0
Atom jitter error (maybe fixed) : 0
Drift error (maybe fixed) : 0
Dropped bytes error (maybe fixed) : 0
Duplicated bytes error (maybe fixed) : 0
Inconsistency in error sectors : 0

Track 04
Filename : /Users/Fiddy/Music/New Rips/Top Of The Pops 1964-2006 [43CDs] [2280872] (FLAC)/TOTP-1993-04 Arrested Development - Mr Wendal.flac

Track gain : -6.48 dB
Peak : 0.955048
CRC32 hash (test run) : 57EEA560
CRC32 hash : 57EEA560
CRC32 hash (skip zero) : E668795A
AccurateRip signature : 9C1D81D6
->Track not present in AccurateRip database.
Statistics
Read error : 0
Skipped (treated as error) : 0
Edge jitter error (maybe fixed) : 0
Atom jitter error (maybe fixed) : 0
Drift error (maybe fixed) : 0
Dropped bytes error (maybe fixed) : 0
Duplicated bytes error (maybe fixed) : 0
Inconsistency in error sectors : 0

Track 05
Filename : /Users/Fiddy/Music/New Rips/Top Of The Pops 1964-2006 [43CDs] [2280872] (FLAC)/TOTP-1993-05 Shara Nelson - DownThat Road.flac

Track gain : -5.33 dB
Peak : 0.973450
CRC32 hash (test run) : AD7E6373
CRC32 hash : AD7E6373
CRC32 hash (skip zero) : 52E71E84
AccurateRip signature : DF4D9C6C
->Track not present in AccurateRip database.
Statistics
Read error : 0
Skipped (treated as error) : 0
Edge jitter error (maybe fixed) : 0
Atom jitter error (maybe fixed) : 0
Drift error (maybe fixed) : 0
Dropped bytes error (maybe fixed) : 0
Duplicated bytes error (maybe fixed) : 0
Inconsistency in error sectors : 0

Track 06
Filename : /Users/Fiddy/Music/New Rips/Top Of The Pops 1964-2006 [43CDs] [2280872] (FLAC)/TOTP-1993-06 Kenny Thomas - Trippin' On Your Love.flac

Track gain : -1.71 dB
Peak : 0.862061
CRC32 hash (test run) : 52A9FCD8
CRC32 hash : 52A9FCD8
CRC32 hash (skip zero) : 914C0A89
AccurateRip signature : EFFDAA00
->Track not present in AccurateRip database.
Statistics
Read error : 0
Skipped (treated as error) : 0
Edge jitter error (maybe fixed) : 0
Atom jitter error (maybe fixed) : 0
Drift error (maybe fixed) : 0
Dropped bytes error (maybe fixed) : 0
Duplicated bytes error (maybe fixed) : 0
Inconsistency in error sectors : 0

Track 07
Filename : /Users/Fiddy/Music/New Rips/Top Of The Pops 1964-2006 [43CDs] [2280872] (FLAC)/TOTP-1993-07 Dina Carroll - Don't Be A Stranger.flac

Track gain : -6.32 dB
Peak : 0.961761
CRC32 hash (test run) : CA5DB0A0
CRC32 hash : CA5DB0A0
CRC32 hash (skip zero) : CCFE0920
AccurateRip signature : 9A499B1F
->Track not present in AccurateRip database.
Statistics
Read error : 0
Skipped (treated as error) : 0
Edge jitter error (maybe fixed) : 0
Atom jitter error (maybe fixed) : 0
Drift error (maybe fixed) : 0
Dropped bytes error (maybe fixed) : 0
Duplicated bytes error (maybe fixed) : 0
Inconsistency in error sectors : 0

Track 08
Filename : /Users/Fiddy/Music/New Rips/Top Of The Pops 1964-2006 [43CDs] [2280872] (FLAC)/TOTP-1993-08 Shaggy - Oh Carolina.flac

Track gain : -5.45 dB
Peak : 0.936340
CRC32 hash (test run) : FFEE0F9E
CRC32 hash : FFEE0F9E
CRC32 hash (skip zero) : E31F2831
AccurateRip signature : 4AE06EA7
->Track not present in AccurateRip database.
Statistics
Read error : 0
Skipped (treated as error) : 0
Edge jitter error (maybe fixed) : 0
Atom jitter error (maybe fixed) : 0
Drift error (maybe fixed) : 0
Dropped bytes error (maybe fixed) : 0
Duplicated bytes error (maybe fixed) : 0
Inconsistency in error sectors : 0

Track 09
Filename : /Users/Fiddy/Music/New Rips/Top Of The Pops 1964-2006 [43CDs] [2280872] (FLAC)/TOTP-1993-09 UB40 - (I Can't Help) Falling In Love.flac

Track gain : -5.00 dB
Peak : 0.755951
CRC32 hash (test run) : 389DAC49
CRC32 hash : 389DAC49
CRC32 hash (skip zero) : 8B0DAEEF
AccurateRip signature : 5E96259C
->Track not present in AccurateRip database.
Statistics
Read error : 0
Skipped (treated as error) : 0
Edge jitter error (maybe fixed) : 0
Atom jitter error (maybe fixed) : 0
Drift error (maybe fixed) : 0
Dropped bytes error (maybe fixed) : 0
Duplicated bytes error (maybe fixed) : 0
Inconsistency in error sectors : 0

Track 10
Filename : /Users/Fiddy/Music/New Rips/Top Of The Pops 1964-2006 [43CDs] [2280872] (FLAC)/TOTP-1993-10 Tasmin Archer - In Your Care.flac

Track gain : 0.95 dB
Peak : 0.873047
CRC32 hash (test run) : C454E55B
CRC32 hash : C454E55B
CRC32 hash (skip zero) : A256DBFE
AccurateRip signature : 7FABDD24
->Track not present in AccurateRip database.
Statistics
Read error : 0
Skipped (treated as error) : 0
Edge jitter error (maybe fixed) : 0
Atom jitter error (maybe fixed) : 0
Drift error (maybe fixed) : 0
Dropped bytes error (maybe fixed) : 0
Duplicated bytes error (maybe fixed) : 0
Inconsistency in error sectors : 0

Track 11
Filename : /Users/Fiddy/Music/New Rips/Top Of The Pops 1964-2006 [43CDs] [2280872] (FLAC)/TOTP-1993-11 Duran Duran - Ordinary World.flac

Track gain : -7.09 dB
Peak : 0.851196
CRC32 hash (test run) : C8471492
CRC32 hash : C8471492
CRC32 hash (skip zero) : 05CDD6F7
AccurateRip signature : FC638237
->Track not present in AccurateRip database.
Statistics
Read error : 0
Skipped (treated as error) : 0
Edge jitter error (maybe fixed) : 0
Atom jitter error (maybe fixed) : 0
Drift error (maybe fixed) : 0
Dropped bytes error (maybe fixed) : 0
Duplicated bytes error (maybe fixed) : 0
Inconsistency in error sectors : 0

Track 12
Filename : /Users/Fiddy/Music/New Rips/Top Of The Pops 1964-2006 [43CDs] [2280872] (FLAC)/TOTP-1993-12 Go West - Tracks Of My Tears.flac

Track gain : -4.08 dB
Peak : 0.889191
CRC32 hash (test run) : 23B26742
CRC32 hash : 23B26742
CRC32 hash (skip zero) : 0AF8A5AE
AccurateRip signature : 440BBCBD
->Track not present in AccurateRip database.
Statistics
Read error : 0
Skipped (treated as error) : 0
Edge jitter error (maybe fixed) : 0
Atom jitter error (maybe fixed) : 0
Drift error (maybe fixed) : 0
Dropped bytes error (maybe fixed) : 0
Duplicated bytes error (maybe fixed) : 0
Inconsistency in error sectors : 0

Track 13
Filename : /Users/Fiddy/Music/New Rips/Top Of The Pops 1964-2006 [43CDs] [2280872] (FLAC)/TOTP-1993-13 Bryan Ferry - I Put A Spell On You.flac

Track gain : -5.38 dB
Peak : 0.977203
CRC32 hash (test run) : 4F51A5D9
CRC32 hash : 4F51A5D9
CRC32 hash (skip zero) : E4428922
AccurateRip signature : DCCAA11A
->Track not present in AccurateRip database.
Statistics
Read error : 0
Skipped (treated as error) : 0
Edge jitter error (maybe fixed) : 0
Atom jitter error (maybe fixed) : 0
Drift error (maybe fixed) : 0
Dropped bytes error (maybe fixed) : 0
Duplicated bytes error (maybe fixed) : 0
Inconsistency in error sectors : 0

Track 14
Filename : /Users/Fiddy/Music/New Rips/Top Of The Pops 1964-2006 [43CDs] [2280872] (FLAC)/TOTP-1993-14 Ugly Kid Joe - Cats In The Cradle.flac

Track gain : -3.67 dB
Peak : 0.838287
CRC32 hash (test run) : 713C6871
CRC32 hash : 713C6871
CRC32 hash (skip zero) : 15007CE0
AccurateRip signature : 47F6DFBD
->Track not present in AccurateRip database.
Statistics
Read error : 0
Skipped (treated as error) : 0
Edge jitter error (maybe fixed) : 0
Atom jitter error (maybe fixed) : 0
Drift error (maybe fixed) : 0
Dropped bytes error (maybe fixed) : 0
Duplicated bytes error (maybe fixed) : 0
Inconsistency in error sectors : 0

Track 15
Filename : /Users/Fiddy/Music/New Rips/Top Of The Pops 1964-2006 [43CDs] [2280872] (FLAC)/TOTP-1993-15 Thunder - A Better Man.flac

Track gain : -5.30 dB
Peak : 0.760284
CRC32 hash (test run) : 23BBB687
CRC32 hash : 23BBB687
CRC32 hash (skip zero) : 6E0567E9
AccurateRip signature : CCA8B4B4
->Track not present in AccurateRip database.
Statistics
Read error : 0
Skipped (treated as error) : 0
Edge jitter error (maybe fixed) : 0
Atom jitter error (maybe fixed) : 0
Drift error (maybe fixed) : 0
Dropped bytes error (maybe fixed) : 0
Duplicated bytes error (maybe fixed) : 0
Inconsistency in error sectors : 0

Track 16
Filename : /Users/Fiddy/Music/New Rips/Top Of The Pops 1964-2006 [43CDs] [2280872] (FLAC)/TOTP-1993-16 Deborah Harry - I Can See Clearly Now.flac

Track gain : -4.07 dB
Peak : 0.973450
CRC32 hash (test run) : 8613EBF3
CRC32 hash : 8613EBF3
CRC32 hash (skip zero) : 78A9FF0F
AccurateRip signature : 33DBAC5E
->Track not present in AccurateRip database.
Statistics
Read error : 0
Skipped (treated as error) : 0
Edge jitter error (maybe fixed) : 0
Atom jitter error (maybe fixed) : 0
Drift error (maybe fixed) : 0
Dropped bytes error (maybe fixed) : 0
Duplicated bytes error (maybe fixed) : 0
Inconsistency in error sectors : 0

Track 17
Filename : /Users/Fiddy/Music/New Rips/Top Of The Pops 1964-2006 [43CDs] [2280872] (FLAC)/TOTP-1993-17 Belinda Carlisle - Big Scary Animal.flac

Track gain : -7.11 dB
Peak : 0.966034
CRC32 hash (test run) : 65112A49
CRC32 hash : 65112A49
CRC32 hash (skip zero) : EFA3BB2B
AccurateRip signature : E47D0929
->Track not present in AccurateRip database.
Statistics
Read error : 0
Skipped (treated as error) : 0
Edge jitter error (maybe fixed) : 0
Atom jitter error (maybe fixed) : 0
Drift error (maybe fixed) : 0
Dropped bytes error (maybe fixed) : 0
Duplicated bytes error (maybe fixed) : 0
Inconsistency in error sectors : 0

Track 18
Filename : /Users/Fiddy/Music/New Rips/Top Of The Pops 1964-2006 [43CDs] [2280872] (FLAC)/TOTP-1993-18 RunRig - The Greatest Flame.flac

Track gain : -4.95 dB
Peak : 0.977264
CRC32 hash (test run) : 4E0D3C12
CRC32 hash : 4E0D3C12
CRC32 hash (skip zero) : 6E6189A9
AccurateRip signature : 13F2879E
->Track not present in AccurateRip database.
Statistics
Read error : 0
Skipped (treated as error) : 0
Edge jitter error (maybe fixed) : 0
Atom jitter error (maybe fixed) : 0
Drift error (maybe fixed) : 0
Dropped bytes error (maybe fixed) : 0
Duplicated bytes error (maybe fixed) : 0
Inconsistency in error sectors : 0

Track 19
Filename : /Users/Fiddy/Music/New Rips/Top Of The Pops 1964-2006 [43CDs] [2280872] (FLAC)/TOTP-1993-19 Meat Loaf - I'd Do Anything For Love (But I Won't Do That).flac

Track gain : -8.43 dB
Peak : 0.977264
CRC32 hash (test run) : 3A865340
CRC32 hash : 3A865340
CRC32 hash (skip zero) : 91DC009C
AccurateRip signature : 0A709115
->Track not present in AccurateRip database.
Statistics
Read error : 0
Skipped (treated as error) : 0
Edge jitter error (maybe fixed) : 0
Atom jitter error (maybe fixed) : 0
Drift error (maybe fixed) : 0
Dropped bytes error (maybe fixed) : 0
Duplicated bytes error (maybe fixed) : 0
Inconsistency in error sectors : 0

No errors occurred

End of status report


X Lossless Decoder version 20090828 (109.5)

XLD extraction logfile from 2009-09-26 09:49:44 +0100

Various Artists / TOTP-1994

Used drive : HL-DT-ST DVDRAM GP08LU10 (revision KE01)

Use cdparanoia mode : YES (CDParanoia III 10.2 engine)
Disable audio cache : OK for the drive with cache less than 2750KB
Make use of C2 pointers : NO
Read offset correction : 667
Max retry count : 100

TOC of the extracted CD
Track | Start | Length | Start sector | End sector
––––––––––––––––––––––––––––-
1 | 00:00:00 | 04:08:59 | 0 | 18658
2 | 04:08:59 | 04:29:52 | 18659 | 38885
3 | 08:38:36 | 04:15:63 | 38886 | 58073
4 | 12:54:24 | 03:06:24 | 58074 | 72047
5 | 16:00:48 | 04:00:05 | 72048 | 90052
6 | 20:00:53 | 03:13:07 | 90053 | 104534
7 | 23:13:60 | 03:19:11 | 104535 | 119470
8 | 26:32:71 | 03:57:07 | 119471 | 137252
9 | 30:30:03 | 05:53:19 | 137253 | 163746
10 | 36:23:22 | 03:56:11 | 163747 | 181457
11 | 40:19:33 | 03:19:60 | 181458 | 196442
12 | 43:39:18 | 03:51:20 | 196443 | 213787
13 | 47:30:38 | 03:20:34 | 213788 | 228821
14 | 50:50:72 | 04:31:63 | 228822 | 249209
15 | 55:22:60 | 03:32:46 | 249210 | 265155
16 | 58:55:31 | 03:57:55 | 265156 | 282985
17 | 62:53:11 | 03:33:55 | 282986 | 299015
18 | 66:26:66 | 10:17:03 | 299016 | 345293

All Tracks
Album gain : -5.64 dB
Peak : 0.988556

Track 01
Filename : /Users/Fiddy/Music/New Rips/Top Of The Pops 1964-2006 [43CDs] [2280872] (FLAC)/TOTP-1994-01 Sheryl Crow - All I Wanna Do.flac

Track gain : -3.28 dB
Peak : 0.878876
CRC32 hash (test run) : BFFAC5E6
CRC32 hash : BFFAC5E6
CRC32 hash (skip zero) : AA75FF36
AccurateRip signature : 1F92F569
->Track not present in AccurateRip database.
Statistics
Read error : 0
Skipped (treated as error) : 0
Edge jitter error (maybe fixed) : 0
Atom jitter error (maybe fixed) : 0
Drift error (maybe fixed) : 0
Dropped bytes error (maybe fixed) : 0
Duplicated bytes error (maybe fixed) : 0
Inconsistency in error sectors : 0

Track 02
Filename : /Users/Fiddy/Music/New Rips/Top Of The Pops 1964-2006 [43CDs] [2280872] (FLAC)/TOTP-1994-02 Linger - The Cranberries.flac

Track gain : -4.11 dB
Peak : 0.988556
CRC32 hash (test run) : A57F4FD7
CRC32 hash : A57F4FD7
CRC32 hash (skip zero) : 554C83F8
AccurateRip signature : F39CA994
->Track not present in AccurateRip database.
Statistics
Read error : 0
Skipped (treated as error) : 0
Edge jitter error (maybe fixed) : 0
Atom jitter error (maybe fixed) : 0
Drift error (maybe fixed) : 0
Dropped bytes error (maybe fixed) : 0
Duplicated bytes error (maybe fixed) : 0
Inconsistency in error sectors : 0

Track 03
Filename : /Users/Fiddy/Music/New Rips/Top Of The Pops 1964-2006 [43CDs] [2280872] (FLAC)/TOTP-1994-03 Gun - Word Up.flac

Track gain : -4.74 dB
Peak : 0.715546
CRC32 hash (test run) : 6C3A6F2B
CRC32 hash : 6C3A6F2B
CRC32 hash (skip zero) : 627A7066
AccurateRip signature : 85E73AD1
->Track not present in AccurateRip database.
Statistics
Read error : 0
Skipped (treated as error) : 0
Edge jitter error (maybe fixed) : 0
Atom jitter error (maybe fixed) : 0
Drift error (maybe fixed) : 0
Dropped bytes error (maybe fixed) : 0
Duplicated bytes error (maybe fixed) : 0
Inconsistency in error sectors : 0

Track 04
Filename : /Users/Fiddy/Music/New Rips/Top Of The Pops 1964-2006 [43CDs] [2280872] (FLAC)/TOTP-1994-04 Terrorvision - Oblivion.flac

Track gain : -4.72 dB
Peak : 0.884369
CRC32 hash (test run) : FA8FBC24
CRC32 hash : FA8FBC24
CRC32 hash (skip zero) : BC151149
AccurateRip signature : 1C7BD0E0
->Track not present in AccurateRip database.
Statistics
Read error : 0
Skipped (treated as error) : 0
Edge jitter error (maybe fixed) : 0
Atom jitter error (maybe fixed) : 0
Drift error (maybe fixed) : 0
Dropped bytes error (maybe fixed) : 0
Duplicated bytes error (maybe fixed) : 0
Inconsistency in error sectors : 0

Track 05
Filename : /Users/Fiddy/Music/New Rips/Top Of The Pops 1964-2006 [43CDs] [2280872] (FLAC)/TOTP-1994-05 Inspiral Carpets - Saturn 5.flac

Track gain : -5.65 dB
Peak : 0.988556
CRC32 hash (test run) : DCA2473E
CRC32 hash : DCA2473E
CRC32 hash (skip zero) : D054DA09
AccurateRip signature : 1A3227F4
->Track not present in AccurateRip database.
Statistics
Read error : 0
Skipped (treated as error) : 0
Edge jitter error (maybe fixed) : 0
Atom jitter error (maybe fixed) : 0
Drift error (maybe fixed) : 0
Dropped bytes error (maybe fixed) : 0
Duplicated bytes error (maybe fixed) : 0
Inconsistency in error sectors : 0

Track 06
Filename : /Users/Fiddy/Music/New Rips/Top Of The Pops 1964-2006 [43CDs] [2280872] (FLAC)/TOTP-1994-06 Shampoo - Trouble.flac

Track gain : -6.41 dB
Peak : 0.743317
CRC32 hash (test run) : 25F75259
CRC32 hash : 25F75259
CRC32 hash (skip zero) : 87BE045D
AccurateRip signature : 0C636886
->Track not present in AccurateRip database.
Statistics
Read error : 0
Skipped (treated as error) : 0
Edge jitter error (maybe fixed) : 0
Atom jitter error (maybe fixed) : 0
Drift error (maybe fixed) : 0
Dropped bytes error (maybe fixed) : 0
Duplicated bytes error (maybe fixed) : 0
Inconsistency in error sectors : 0

Track 07
Filename : /Users/Fiddy/Music/New Rips/Top Of The Pops 1964-2006 [43CDs] [2280872] (FLAC)/TOTP-1994-07 Juliet Roberts - Caught In The Middle.flac

Track gain : -5.19 dB
Peak : 0.971649
CRC32 hash (test run) : C4F37C29
CRC32 hash : C4F37C29
CRC32 hash (skip zero) : 6D29394D
AccurateRip signature : 3EB80DE7
->Track not present in AccurateRip database.
Statistics
Read error : 0
Skipped (treated as error) : 0
Edge jitter error (maybe fixed) : 0
Atom jitter error (maybe fixed) : 0
Drift error (maybe fixed) : 0
Dropped bytes error (maybe fixed) : 0
Duplicated bytes error (maybe fixed) : 0
Inconsistency in error sectors : 0

Track 08
Filename : /Users/Fiddy/Music/New Rips/Top Of The Pops 1964-2006 [43CDs] [2280872] (FLAC)/TOTP-1994-08 M People - Renaissance.flac

Track gain : -6.23 dB
Peak : 0.891266
CRC32 hash (test run) : 82BD592C
CRC32 hash : 82BD592C
CRC32 hash (skip zero) : BFD51F37
AccurateRip signature : 9CFBD6A5
->Track not present in AccurateRip database.
Statistics
Read error : 0
Skipped (treated as error) : 0
Edge jitter error (maybe fixed) : 0
Atom jitter error (maybe fixed) : 0
Drift error (maybe fixed) : 0
Dropped bytes error (maybe fixed) : 0
Duplicated bytes error (maybe fixed) : 0
Inconsistency in error sectors : 0

Track 09
Filename : /Users/Fiddy/Music/New Rips/Top Of The Pops 1964-2006 [43CDs] [2280872] (FLAC)/TOTP-1994-09 Kylie Minogue - Confide In Me.flac

Track gain : -4.75 dB
Peak : 0.864258
CRC32 hash (test run) : A88FCDFD
CRC32 hash : A88FCDFD
CRC32 hash (skip zero) : 27FA4334
AccurateRip signature : CF2AFD21
->Track not present in AccurateRip database.
Statistics
Read error : 0
Skipped (treated as error) : 0
Edge jitter error (maybe fixed) : 0
Atom jitter error (maybe fixed) : 0
Drift error (maybe fixed) : 0
Dropped bytes error (maybe fixed) : 0
Duplicated bytes error (maybe fixed) : 0
Inconsistency in error sectors : 0

Track 10
Filename : /Users/Fiddy/Music/New Rips/Top Of The Pops 1964-2006 [43CDs] [2280872] (FLAC)/TOTP-1994-10 Erasure - Always.flac

Track gain : -4.43 dB
Peak : 0.988556
CRC32 hash (test run) : 556D3DD5
CRC32 hash : 556D3DD5
CRC32 hash (skip zero) : 05C0C43B
AccurateRip signature : 5BC80445
->Track not present in AccurateRip database.
Statistics
Read error : 0
Skipped (treated as error) : 0
Edge jitter error (maybe fixed) : 0
Atom jitter error (maybe fixed) : 0
Drift error (maybe fixed) : 0
Dropped bytes error (maybe fixed) : 0
Duplicated bytes error (maybe fixed) : 0
Inconsistency in error sectors : 0

Track 11
Filename : /Users/Fiddy/Music/New Rips/Top Of The Pops 1964-2006 [43CDs] [2280872] (FLAC)/TOTP-1994-11 CJ Lewis - Sweets For My Sweet.flac

Track gain : -5.46 dB
Peak : 0.891296
CRC32 hash (test run) : 8F2D33CF
CRC32 hash : 8F2D33CF
CRC32 hash (skip zero) : 0525B62B
AccurateRip signature : 044D9CD1
->Track not present in AccurateRip database.
Statistics
Read error : 0
Skipped (treated as error) : 0
Edge jitter error (maybe fixed) : 0
Atom jitter error (maybe fixed) : 0
Drift error (maybe fixed) : 0
Dropped bytes error (maybe fixed) : 0
Duplicated bytes error (maybe fixed) : 0
Inconsistency in error sectors : 0

Track 12
Filename : /Users/Fiddy/Music/New Rips/Top Of The Pops 1964-2006 [43CDs] [2280872] (FLAC)/TOTP-1994-12 Pato Banton - Baby Come Back.flac

Track gain : -4.37 dB
Peak : 0.940247
CRC32 hash (test run) : 3FADBDEB
CRC32 hash : 3FADBDEB
CRC32 hash (skip zero) : BB35B678
AccurateRip signature : 89BF4539
->Track not present in AccurateRip database.
Statistics
Read error : 0
Skipped (treated as error) : 0
Edge jitter error (maybe fixed) : 0
Atom jitter error (maybe fixed) : 0
Drift error (maybe fixed) : 0
Dropped bytes error (maybe fixed) : 0
Duplicated bytes error (maybe fixed) : 0
Inconsistency in error sectors : 0

Track 13
Filename : /Users/Fiddy/Music/New Rips/Top Of The Pops 1964-2006 [43CDs] [2280872] (FLAC)/TOTP-1994-13 R Kelly - She's Got That Vibe.flac

Track gain : -5.56 dB
Peak : 0.728363
CRC32 hash (test run) : 40F742F8
CRC32 hash : 40F742F8
CRC32 hash (skip zero) : AE791D01
AccurateRip signature : 0D35D822
->Track not present in AccurateRip database.
Statistics
Read error : 0
Skipped (treated as error) : 0
Edge jitter error (maybe fixed) : 0
Atom jitter error (maybe fixed) : 0
Drift error (maybe fixed) : 0
Dropped bytes error (maybe fixed) : 0
Duplicated bytes error (maybe fixed) : 0
Inconsistency in error sectors : 0

Track 14
Filename : /Users/Fiddy/Music/New Rips/Top Of The Pops 1964-2006 [43CDs] [2280872] (FLAC)/TOTP-1994-14 Eternal - Oh Baby I.flac

Track gain : -4.85 dB
Peak : 0.811829
CRC32 hash (test run) : 3BB4726D
CRC32 hash : 3BB4726D
CRC32 hash (skip zero) : 0F1FCBDE
AccurateRip signature : 595F2696
->Track not present in AccurateRip database.
Statistics
Read error : 0
Skipped (treated as error) : 0
Edge jitter error (maybe fixed) : 0
Atom jitter error (maybe fixed) : 0
Drift error (maybe fixed) : 0
Dropped bytes error (maybe fixed) : 0
Duplicated bytes error (maybe fixed) : 0
Inconsistency in error sectors : 0

Track 15
Filename : /Users/Fiddy/Music/New Rips/Top Of The Pops 1964-2006 [43CDs] [2280872] (FLAC)/TOTP-1994-15 Boyzone - Love Me For A Reason.flac

Track gain : -5.29 dB
Peak : 0.893066
CRC32 hash (test run) : FB30F072
CRC32 hash : FB30F072
CRC32 hash (skip zero) : 530C31CD
AccurateRip signature : B15ED825
->Track not present in AccurateRip database.
Statistics
Read error : 0
Skipped (treated as error) : 0
Edge jitter error (maybe fixed) : 0
Atom jitter error (maybe fixed) : 0
Drift error (maybe fixed) : 0
Dropped bytes error (maybe fixed) : 0
Duplicated bytes error (maybe fixed) : 0
Inconsistency in error sectors : 0

Track 16
Filename : /Users/Fiddy/Music/New Rips/Top Of The Pops 1964-2006 [43CDs] [2280872] (FLAC)/TOTP-1994-16 Wet Wet Wet - Love Is All Around.flac

Track gain : -6.21 dB
Peak : 0.901123
CRC32 hash (test run) : 3B6763A5
CRC32 hash : 3B6763A5
CRC32 hash (skip zero) : A2A1F214
AccurateRip signature : B446ECB0
->Track not present in AccurateRip database.
Statistics
Read error : 0
Skipped (treated as error) : 0
Edge jitter error (maybe fixed) : 0
Atom jitter error (maybe fixed) : 0
Drift error (maybe fixed) : 0
Dropped bytes error (maybe fixed) : 0
Duplicated bytes error (maybe fixed) : 0
Inconsistency in error sectors : 0

Track 17
Filename : /Users/Fiddy/Music/New Rips/Top Of The Pops 1964-2006 [43CDs] [2280872] (FLAC)/TOTP-1994-17 Richard Marx - Now & Forever.flac

Track gain : -5.24 dB
Peak : 0.936340
CRC32 hash (test run) : 49A0A927
CRC32 hash : 49A0A927
CRC32 hash (skip zero) : F97C1061
AccurateRip signature : 162D20A1
->Track not present in AccurateRip database.
Statistics
Read error : 0
Skipped (treated as error) : 0
Edge jitter error (maybe fixed) : 0
Atom jitter error (maybe fixed) : 0
Drift error (maybe fixed) : 0
Dropped bytes error (maybe fixed) : 0
Duplicated bytes error (maybe fixed) : 0
Inconsistency in error sectors : 0

Track 18
Filename : /Users/Fiddy/Music/New Rips/Top Of The Pops 1964-2006 [43CDs] [2280872] (FLAC)/TOTP-1994-18 Meat Loaf - Objects In The Rear View Mirror.flac

Track gain : -7.65 dB
Peak : 0.796234
CRC32 hash (test run) : 983D4B57
CRC32 hash : 983D4B57
CRC32 hash (skip zero) : 0871557D
AccurateRip signature : E0CED982
->Track not present in AccurateRip database.
Statistics
Read error : 0
Skipped (treated as error) : 0
Edge jitter error (maybe fixed) : 0
Atom jitter error (maybe fixed) : 0
Drift error (maybe fixed) : 0
Dropped bytes error (maybe fixed) : 0
Duplicated bytes error (maybe fixed) : 0
Inconsistency in error sectors : 0

No errors occurred

End of status report


X Lossless Decoder version 20090828 (109.5)

XLD extraction logfile from 2009-09-24 20:04:32 +0100

Various Artists / TOTP-1995

Used drive : HL-DT-ST DVDRAM GP08LU10 (revision KE01)

Use cdparanoia mode : YES (CDParanoia III 10.2 engine)
Disable audio cache : OK for the drive with cache less than 2750KB
Make use of C2 pointers : NO
Read offset correction : 667
Max retry count : 100

TOC of the extracted CD
Track | Start | Length | Start sector | End sector
––––––––––––––––––––––––––––-
1 | 00:00:00 | 06:26:11 | 0 | 28960
2 | 06:26:11 | 03:02:48 | 28961 | 42658
3 | 09:28:59 | 04:44:00 | 42659 | 63958
4 | 14:12:59 | 04:11:26 | 63959 | 82809
5 | 18:24:10 | 05:16:40 | 82810 | 106549
6 | 23:40:50 | 03:16:71 | 106550 | 121320
7 | 26:57:46 | 04:03:49 | 121321 | 139594
8 | 31:01:20 | 03:37:50 | 139595 | 155919
9 | 34:38:70 | 04:10:08 | 155920 | 174677
10 | 38:49:03 | 04:20:00 | 174678 | 194177
11 | 43:09:03 | 04:15:49 | 194178 | 213351
12 | 47:24:52 | 03:04:40 | 213352 | 227191
13 | 50:29:17 | 03:33:46 | 227192 | 243212
14 | 54:02:63 | 04:19:55 | 243213 | 262692
15 | 58:22:43 | 04:08:03 | 262693 | 281295
16 | 62:30:46 | 03:21:09 | 281296 | 296379
17 | 65:51:55 | 03:55:24 | 296380 | 314028
18 | 69:47:04 | 03:50:31 | 314029 | 331309

All Tracks
Album gain : -7.12 dB
Peak : 0.993652

Track 01
Filename : /Users/Fiddy/Music/New Rips/Top Of The Pops 1964-2006 [43CDs] [2280872] (FLAC)/TOTP-1995-01 Meat Loaf - I'd Die For You (And That's The Truth).flac

Track gain : -7.24 dB
Peak : 0.993652
CRC32 hash (test run) : 968DCE26
CRC32 hash : 968DCE26
CRC32 hash (skip zero) : 239D73AC
AccurateRip signature : 4097C719
->Track not present in AccurateRip database.
Statistics
Read error : 0
Skipped (treated as error) : 0
Edge jitter error (maybe fixed) : 0
Atom jitter error (maybe fixed) : 0
Drift error (maybe fixed) : 0
Dropped bytes error (maybe fixed) : 0
Duplicated bytes error (maybe fixed) : 0
Inconsistency in error sectors : 0

Track 02
Filename : /Users/Fiddy/Music/New Rips/Top Of The Pops 1964-2006 [43CDs] [2280872] (FLAC)/TOTP-1995-02 Supergrass - Alright.flac

Track gain : -6.78 dB
Peak : 0.992981
CRC32 hash (test run) : 9F3280E2
CRC32 hash : 9F3280E2
CRC32 hash (skip zero) : 2159C12D
AccurateRip signature : 279F7C74
->Track not present in AccurateRip database.
Statistics
Read error : 0
Skipped (treated as error) : 0
Edge jitter error (maybe fixed) : 0
Atom jitter error (maybe fixed) : 0
Drift error (maybe fixed) : 0
Dropped bytes error (maybe fixed) : 0
Duplicated bytes error (maybe fixed) : 0
Inconsistency in error sectors : 0

Track 03
Filename : /Users/Fiddy/Music/New Rips/Top Of The Pops 1964-2006 [43CDs] [2280872] (FLAC)/TOTP-1995-03 Tina Turner - Goldeneye.flac

Track gain : -8.14 dB
Peak : 0.933685
CRC32 hash (test run) : 50F19A2D
CRC32 hash : 50F19A2D
CRC32 hash (skip zero) : 1966C6DF
AccurateRip signature : 8C16E196
->Track not present in AccurateRip database.
Statistics
Read error : 0
Skipped (treated as error) : 0
Edge jitter error (maybe fixed) : 0
Atom jitter error (maybe fixed) : 0
Drift error (maybe fixed) : 0
Dropped bytes error (maybe fixed) : 0
Duplicated bytes error (maybe fixed) : 0
Inconsistency in error sectors : 0

Track 04
Filename : /Users/Fiddy/Music/New Rips/Top Of The Pops 1964-2006 [43CDs] [2280872] (FLAC)/TOTP-1995-04 M People - Search For The Hero.flac

Track gain : -7.88 dB
Peak : 0.943298
CRC32 hash (test run) : 6016BA91
CRC32 hash : 6016BA91
CRC32 hash (skip zero) : BDF963EA
AccurateRip signature : 05195387
->Track not present in AccurateRip database.
Statistics
Read error : 0
Skipped (treated as error) : 0
Edge jitter error (maybe fixed) : 0
Atom jitter error (maybe fixed) : 0
Drift error (maybe fixed) : 0
Dropped bytes error (maybe fixed) : 0
Duplicated bytes error (maybe fixed) : 0
Inconsistency in error sectors : 0

Track 05
Filename : /Users/Fiddy/Music/New Rips/Top Of The Pops 1964-2006 [43CDs] [2280872] (FLAC)/TOTP-1995-05 Soul II Soul - Love Enuff.flac

Track gain : -5.16 dB
Peak : 0.894165
CRC32 hash (test run) : 0240247F
CRC32 hash : 0240247F
CRC32 hash (skip zero) : 6DE4D56D
AccurateRip signature : 82231DFD
->Track not present in AccurateRip database.
Statistics
Read error : 0
Skipped (treated as error) : 0
Edge jitter error (maybe fixed) : 0
Atom jitter error (maybe fixed) : 0
Drift error (maybe fixed) : 0
Dropped bytes error (maybe fixed) : 0
Duplicated bytes error (maybe fixed) : 0
Inconsistency in error sectors : 0

Track 06
Filename : /Users/Fiddy/Music/New Rips/Top Of The Pops 1964-2006 [43CDs] [2280872] (FLAC)/TOTP-1995-06 Judy Cheeks - Respect.flac

Track gain : -8.73 dB
Peak : 0.881226
CRC32 hash (test run) : 8D915E25
CRC32 hash : 8D915E25
CRC32 hash (skip zero) : 6EEC7498
AccurateRip signature : 85E0FA11
->Track not present in AccurateRip database.
Statistics
Read error : 0
Skipped (treated as error) : 0
Edge jitter error (maybe fixed) : 0
Atom jitter error (maybe fixed) : 0
Drift error (maybe fixed) : 0
Dropped bytes error (maybe fixed) : 0
Duplicated bytes error (maybe fixed) : 0
Inconsistency in error sectors : 0

Track 07
Filename : /Users/Fiddy/Music/New Rips/Top Of The Pops 1964-2006 [43CDs] [2280872] (FLAC)/TOTP-1995-07 Sean Maguire - Suddenly.flac

Track gain : -6.56 dB
Peak : 0.924744
CRC32 hash (test run) : 4EFA9066
CRC32 hash : 4EFA9066
CRC32 hash (skip zero) : 96948C69
AccurateRip signature : D16C1364
->Track not present in AccurateRip database.
Statistics
Read error : 0
Skipped (treated as error) : 0
Edge jitter error (maybe fixed) : 0
Atom jitter error (maybe fixed) : 0
Drift error (maybe fixed) : 0
Dropped bytes error (maybe fixed) : 0
Duplicated bytes error (maybe fixed) : 0
Inconsistency in error sectors : 0

Track 08
Filename : /Users/Fiddy/Music/New Rips/Top Of The Pops 1964-2006 [43CDs] [2280872] (FLAC)/TOTP-1995-08 Dana Dawson - 3 Is Family.flac

Track gain : -5.12 dB
Peak : 0.941315
CRC32 hash (test run) : 16100F81
CRC32 hash : 16100F81
CRC32 hash (skip zero) : AAADC4B8
AccurateRip signature : B1C82309
->Track not present in AccurateRip database.
Statistics
Read error : 0
Skipped (treated as error) : 0
Edge jitter error (maybe fixed) : 0
Atom jitter error (maybe fixed) : 0
Drift error (maybe fixed) : 0
Dropped bytes error (maybe fixed) : 0
Duplicated bytes error (maybe fixed) : 0
Inconsistency in error sectors : 0

Track 09
Filename : /Users/Fiddy/Music/New Rips/Top Of The Pops 1964-2006 [43CDs] [2280872] (FLAC)/TOTP-1995-09 Dubstar - Stars.flac

Track gain : -8.12 dB
Peak : 0.929871
CRC32 hash (test run) : 9C07A01A
CRC32 hash : 9C07A01A
CRC32 hash (skip zero) : 8E16FDBC
AccurateRip signature : 2E81D1CB
->Track not present in AccurateRip database.
Statistics
Read error : 0
Skipped (treated as error) : 0
Edge jitter error (maybe fixed) : 0
Atom jitter error (maybe fixed) : 0
Drift error (maybe fixed) : 0
Dropped bytes error (maybe fixed) : 0
Duplicated bytes error (maybe fixed) : 0
Inconsistency in error sectors : 0

Track 10
Filename : /Users/Fiddy/Music/New Rips/Top Of The Pops 1964-2006 [43CDs] [2280872] (FLAC)/TOTP-1995-10 Eternal - Power Of A Woman.flac

Track gain : -6.50 dB
Peak : 0.943848
CRC32 hash (test run) : 6D714FE2
CRC32 hash : 6D714FE2
CRC32 hash (skip zero) : 7EA5407F
AccurateRip signature : 43E433E0
->Track not present in AccurateRip database.
Statistics
Read error : 0
Skipped (treated as error) : 0
Edge jitter error (maybe fixed) : 0
Atom jitter error (maybe fixed) : 0
Drift error (maybe fixed) : 0
Dropped bytes error (maybe fixed) : 0
Duplicated bytes error (maybe fixed) : 0
Inconsistency in error sectors : 0

Track 11
Filename : /Users/Fiddy/Music/New Rips/Top Of The Pops 1964-2006 [43CDs] [2280872] (FLAC)/TOTP-1995-11 Louise - Light Of My Life.flac

Track gain : -6.36 dB
Peak : 0.916748
CRC32 hash (test run) : C513D0F6
CRC32 hash : C513D0F6
CRC32 hash (skip zero) : 3C4B4FBD
AccurateRip signature : D1CD0C2F
->Track not present in AccurateRip database.
Statistics
Read error : 0
Skipped (treated as error) : 0
Edge jitter error (maybe fixed) : 0
Atom jitter error (maybe fixed) : 0
Drift error (maybe fixed) : 0
Dropped bytes error (maybe fixed) : 0
Duplicated bytes error (maybe fixed) : 0
Inconsistency in error sectors : 0

Track 12
Filename : /Users/Fiddy/Music/New Rips/Top Of The Pops 1964-2006 [43CDs] [2280872] (FLAC)/TOTP-1995-12 Boyzone - So Good.flac

Track gain : -6.82 dB
Peak : 0.742920
CRC32 hash (test run) : D9B7234B
CRC32 hash : D9B7234B
CRC32 hash (skip zero) : 726736CE
AccurateRip signature : 0C815952
->Track not present in AccurateRip database.
Statistics
Read error : 0
Skipped (treated as error) : 0
Edge jitter error (maybe fixed) : 0
Atom jitter error (maybe fixed) : 0
Drift error (maybe fixed) : 0
Dropped bytes error (maybe fixed) : 0
Duplicated bytes error (maybe fixed) : 0
Inconsistency in error sectors : 0

Track 13
Filename : /Users/Fiddy/Music/New Rips/Top Of The Pops 1964-2006 [43CDs] [2280872] (FLAC)/TOTP-1995-13 TLC - Waterfalls.flac

Track gain : -4.27 dB
Peak : 0.789612
CRC32 hash (test run) : D8DBD9A1
CRC32 hash : D8DBD9A1
CRC32 hash (skip zero) : E86A88F6
AccurateRip signature : 439592E5
->Track not present in AccurateRip database.
Statistics
Read error : 0
Skipped (treated as error) : 0
Edge jitter error (maybe fixed) : 0
Atom jitter error (maybe fixed) : 0
Drift error (maybe fixed) : 0
Dropped bytes error (maybe fixed) : 0
Duplicated bytes error (maybe fixed) : 0
Inconsistency in error sectors : 0

Track 14
Filename : /Users/Fiddy/Music/New Rips/Top Of The Pops 1964-2006 [43CDs] [2280872] (FLAC)/TOTP-1995-14 Mica Paris - One.flac

Track gain : -7.00 dB
Peak : 0.841217
CRC32 hash (test run) : 9C75C9AE
CRC32 hash : 9C75C9AE
CRC32 hash (skip zero) : 1567835B
AccurateRip signature : 37B79B4C
->Track not present in AccurateRip database.
Statistics
Read error : 0
Skipped (treated as error) : 0
Edge jitter error (maybe fixed) : 0
Atom jitter error (maybe fixed) : 0
Drift error (maybe fixed) : 0
Dropped bytes error (maybe fixed) : 0
Duplicated bytes error (maybe fixed) : 0
Inconsistency in error sectors : 0

Track 15
Filename : /Users/Fiddy/Music/New Rips/Top Of The Pops 1964-2006 [43CDs] [2280872] (FLAC)/TOTP-1995-15 Wet Wet Wet - Julia Says.flac

Track gain : -7.29 dB
Peak : 0.943817
CRC32 hash (test run) : 509BCFDF
CRC32 hash : 509BCFDF
CRC32 hash (skip zero) : D5EAAD95
AccurateRip signature : 05B9EBFA
->Track not present in AccurateRip database.
Statistics
Read error : 0
Skipped (treated as error) : 0
Edge jitter error (maybe fixed) : 0
Atom jitter error (maybe fixed) : 0
Drift error (maybe fixed) : 0
Dropped bytes error (maybe fixed) : 0
Duplicated bytes error (maybe fixed) : 0
Inconsistency in error sectors : 0

Track 16
Filename : /Users/Fiddy/Music/New Rips/Top Of The Pops 1964-2006 [43CDs] [2280872] (FLAC)/TOTP-1995-16 Robson & Jerome - Unchained Melody.flac

Track gain : -4.42 dB
Peak : 0.933044
CRC32 hash (test run) : 83CA3CE3
CRC32 hash : 83CA3CE3
CRC32 hash (skip zero) : DCE91A32
AccurateRip signature : 7975ECDE
->Track not present in AccurateRip database.
Statistics
Read error : 0
Skipped (treated as error) : 0
Edge jitter error (maybe fixed) : 0
Atom jitter error (maybe fixed) : 0
Drift error (maybe fixed) : 0
Dropped bytes error (maybe fixed) : 0
Duplicated bytes error (maybe fixed) : 0
Inconsistency in error sectors : 0

Track 17
Filename : /Users/Fiddy/Music/New Rips/Top Of The Pops 1964-2006 [43CDs] [2280872] (FLAC)/TOTP-1995-17 UB40 - Until My Dying Day.flac

Track gain : -3.64 dB
Peak : 0.936554
CRC32 hash (test run) : 1BEF4C28
CRC32 hash : 1BEF4C28
CRC32 hash (skip zero) : E075C130
AccurateRip signature : 7A2D046F
->Track not present in AccurateRip database.
Statistics
Read error : 0
Skipped (treated as error) : 0
Edge jitter error (maybe fixed) : 0
Atom jitter error (maybe fixed) : 0
Drift error (maybe fixed) : 0
Dropped bytes error (maybe fixed) : 0
Duplicated bytes error (maybe fixed) : 0
Inconsistency in error sectors : 0

Track 18
Filename : /Users/Fiddy/Music/New Rips/Top Of The Pops 1964-2006 [43CDs] [2280872] (FLAC)/TOTP-1995-18 Shaggy - Boombastic.flac

Track gain : -7.64 dB
Peak : 0.951569
CRC32 hash (test run) : 5B2C08A8
CRC32 hash : 5B2C08A8
CRC32 hash (skip zero) : 50BE0CC9
AccurateRip signature : 75CA1116
->Track not present in AccurateRip database.
Statistics
Read error : 0
Skipped (treated as error) : 0
Edge jitter error (maybe fixed) : 0
Atom jitter error (maybe fixed) : 0
Drift error (maybe fixed) : 0
Dropped bytes error (maybe fixed) : 0
Duplicated bytes error (maybe fixed) : 0
Inconsistency in error sectors : 0

No errors occurred

End of status report


X Lossless Decoder version 20090828 (109.5)

XLD extraction logfile from 2009-09-24 20:45:14 +0100

Various Artists / TOTP-1996

Used drive : HL-DT-ST DVDRAM GP08LU10 (revision KE01)

Use cdparanoia mode : YES (CDParanoia III 10.2 engine)
Disable audio cache : OK for the drive with cache less than 2750KB
Make use of C2 pointers : NO
Read offset correction : 667
Max retry count : 100

TOC of the extracted CD
Track | Start | Length | Start sector | End sector
––––––––––––––––––––––––––––-
1 | 00:00:00 | 04:04:44 | 0 | 18343
2 | 04:04:44 | 03:50:50 | 18344 | 35643
3 | 07:55:19 | 03:32:74 | 35644 | 51617
4 | 11:28:18 | 04:04:64 | 51618 | 69981
5 | 15:33:07 | 04:22:74 | 69982 | 89705
6 | 19:56:06 | 03:59:57 | 89706 | 107687
7 | 23:55:63 | 04:00:23 | 107688 | 125710
8 | 27:56:11 | 04:30:69 | 125711 | 146029
9 | 32:27:05 | 03:28:44 | 146030 | 161673
10 | 35:55:49 | 04:52:23 | 161674 | 183596
11 | 40:47:72 | 03:18:13 | 183597 | 198459
12 | 44:06:10 | 04:15:14 | 198460 | 217598
13 | 48:21:24 | 04:03:64 | 217599 | 235887
14 | 52:25:13 | 03:42:03 | 235888 | 252540
15 | 56:07:16 | 03:59:32 | 252541 | 270497
16 | 60:06:48 | 03:51:58 | 270498 | 287880
17 | 63:58:31 | 04:17:52 | 287881 | 307207
18 | 68:16:08 | 05:54:60 | 307208 | 333817

All Tracks
Album gain : -6.72 dB
Peak : 0.988434

Track 01
Filename : /Users/Fiddy/Music/New Rips/Top Of The Pops 1964-2006 [43CDs] [2280872] (FLAC)/TOTP-1996-01 Boyzone - Words.flac

Track gain : -6.58 dB
Peak : 0.720062
CRC32 hash (test run) : C9C6E3D4
CRC32 hash : C9C6E3D4
CRC32 hash (skip zero) : 85E3262F
AccurateRip signature : 89544AEA
->Track not present in AccurateRip database.
Statistics
Read error : 0
Skipped (treated as error) : 0
Edge jitter error (maybe fixed) : 0
Atom jitter error (maybe fixed) : 0
Drift error (maybe fixed) : 0
Dropped bytes error (maybe fixed) : 0
Duplicated bytes error (maybe fixed) : 0
Inconsistency in error sectors : 0

Track 02
Filename : /Users/Fiddy/Music/New Rips/Top Of The Pops 1964-2006 [43CDs] [2280872] (FLAC)/TOTP-1996-02 Eternal - Good Thing.flac

Track gain : -3.14 dB
Peak : 0.988434
CRC32 hash (test run) : 0515CC8D
CRC32 hash : 0515CC8D
CRC32 hash (skip zero) : C0C56727
AccurateRip signature : E5842BEE
->Track not present in AccurateRip database.
Statistics
Read error : 0
Skipped (treated as error) : 0
Edge jitter error (maybe fixed) : 0
Atom jitter error (maybe fixed) : 0
Drift error (maybe fixed) : 0
Dropped bytes error (maybe fixed) : 0
Duplicated bytes error (maybe fixed) : 0
Inconsistency in error sectors : 0

Track 03
Filename : /Users/Fiddy/Music/New Rips/Top Of The Pops 1964-2006 [43CDs] [2280872] (FLAC)/TOTP-1996-03 Louise - Naked.flac

Track gain : -6.33 dB
Peak : 0.788910
CRC32 hash (test run) : 8B00F684
CRC32 hash : 8B00F684
CRC32 hash (skip zero) : 54AC84B9
AccurateRip signature : 8A7874A6
->Track not present in AccurateRip database.
Statistics
Read error : 0
Skipped (treated as error) : 0
Edge jitter error (maybe fixed) : 0
Atom jitter error (maybe fixed) : 0
Drift error (maybe fixed) : 0
Dropped bytes error (maybe fixed) : 0
Duplicated bytes error (maybe fixed) : 0
Inconsistency in error sectors : 0

Track 04
Filename : /Users/Fiddy/Music/New Rips/Top Of The Pops 1964-2006 [43CDs] [2280872] (FLAC)/TOTP-1996-04 Belinda Carlisle - In Too Deep.flac

Track gain : -4.63 dB
Peak : 0.788544
CRC32 hash (test run) : 294B42C1
CRC32 hash : 294B42C1
CRC32 hash (skip zero) : E7A6487D
AccurateRip signature : F25AA29F
->Track not present in AccurateRip database.
Statistics
Read error : 0
Skipped (treated as error) : 0
Edge jitter error (maybe fixed) : 0
Atom jitter error (maybe fixed) : 0
Drift error (maybe fixed) : 0
Dropped bytes error (maybe fixed) : 0
Duplicated bytes error (maybe fixed) : 0
Inconsistency in error sectors : 0

Track 05
Filename : /Users/Fiddy/Music/New Rips/Top Of The Pops 1964-2006 [43CDs] [2280872] (FLAC)/TOTP-1996-05 911 - Don't Make Me Wait.flac

Track gain : -7.23 dB
Peak : 0.795807
CRC32 hash (test run) : 63EFA9CA
CRC32 hash : 63EFA9CA
CRC32 hash (skip zero) : F66EC4F9
AccurateRip signature : 0035386A
->Track not present in AccurateRip database.
Statistics
Read error : 0
Skipped (treated as error) : 0
Edge jitter error (maybe fixed) : 0
Atom jitter error (maybe fixed) : 0
Drift error (maybe fixed) : 0
Dropped bytes error (maybe fixed) : 0
Duplicated bytes error (maybe fixed) : 0
Inconsistency in error sectors : 0

Track 06
Filename : /Users/Fiddy/Music/New Rips/Top Of The Pops 1964-2006 [43CDs] [2280872] (FLAC)/TOTP-1996-06 Dodgy - Good Enough.flac

Track gain : -6.27 dB
Peak : 0.853607
CRC32 hash (test run) : 6196AA97
CRC32 hash : 6196AA97
CRC32 hash (skip zero) : E03E044F
AccurateRip signature : 0B82A5F1
->Track not present in AccurateRip database.
Statistics
Read error : 0
Skipped (treated as error) : 0
Edge jitter error (maybe fixed) : 0
Atom jitter error (maybe fixed) : 0
Drift error (maybe fixed) : 0
Dropped bytes error (maybe fixed) : 0
Duplicated bytes error (maybe fixed) : 0
Inconsistency in error sectors : 0

Track 07
Filename : /Users/Fiddy/Music/New Rips/Top Of The Pops 1964-2006 [43CDs] [2280872] (FLAC)/TOTP-1996-07 Babylon Zoo - Spaceman.flac

Track gain : -7.47 dB
Peak : 0.924408
CRC32 hash (test run) : F918DBE9
CRC32 hash : F918DBE9
CRC32 hash (skip zero) : E905AEDF
AccurateRip signature : 642F0F7E
->Track not present in AccurateRip database.
Statistics
Read error : 0
Skipped (treated as error) : 0
Edge jitter error (maybe fixed) : 0
Atom jitter error (maybe fixed) : 0
Drift error (maybe fixed) : 0
Dropped bytes error (maybe fixed) : 0
Duplicated bytes error (maybe fixed) : 0
Inconsistency in error sectors : 0

Track 08
Filename : /Users/Fiddy/Music/New Rips/Top Of The Pops 1964-2006 [43CDs] [2280872] (FLAC)/TOTP-1996-08 Nenah Cherry - Woman.flac

Track gain : -6.57 dB
Peak : 0.899231
CRC32 hash (test run) : C4971414
CRC32 hash : C4971414
CRC32 hash (skip zero) : 8E3CBEF5
AccurateRip signature : 18D9F363
->Track not present in AccurateRip database.
Statistics
Read error : 0
Skipped (treated as error) : 0
Edge jitter error (maybe fixed) : 0
Atom jitter error (maybe fixed) : 0
Drift error (maybe fixed) : 0
Dropped bytes error (maybe fixed) : 0
Duplicated bytes error (maybe fixed) : 0
Inconsistency in error sectors : 0

Track 09
Filename : /Users/Fiddy/Music/New Rips/Top Of The Pops 1964-2006 [43CDs] [2280872] (FLAC)/TOTP-1996-09 Sean Maguire - Good Day.flac

Track gain : -5.07 dB
Peak : 0.843109
CRC32 hash (test run) : 9EC70853
CRC32 hash : 9EC70853
CRC32 hash (skip zero) : 800B81AB
AccurateRip signature : 18D67664
->Track not present in AccurateRip database.
Statistics
Read error : 0
Skipped (treated as error) : 0
Edge jitter error (maybe fixed) : 0
Atom jitter error (maybe fixed) : 0
Drift error (maybe fixed) : 0
Dropped bytes error (maybe fixed) : 0
Duplicated bytes error (maybe fixed) : 0
Inconsistency in error sectors : 0

Track 10
Filename : /Users/Fiddy/Music/New Rips/Top Of The Pops 1964-2006 [43CDs] [2280872] (FLAC)/TOTP-1996-10 Gabrielle - Give Me A Little More Time.flac

Track gain : -6.77 dB
Peak : 0.761414
CRC32 hash (test run) : 98E33E7B
CRC32 hash : 98E33E7B
CRC32 hash (skip zero) : 5A535382
AccurateRip signature : 7E81695C
->Track not present in AccurateRip database.
Statistics
Read error : 0
Skipped (treated as error) : 0
Edge jitter error (maybe fixed) : 0
Atom jitter error (maybe fixed) : 0
Drift error (maybe fixed) : 0
Dropped bytes error (maybe fixed) : 0
Duplicated bytes error (maybe fixed) : 0
Inconsistency in error sectors : 0

Track 11
Filename : /Users/Fiddy/Music/New Rips/Top Of The Pops 1964-2006 [43CDs] [2280872] (FLAC)/TOTP-1996-11 Shampoo - Girl Power.flac

Track gain : -8.65 dB
Peak : 0.762146
CRC32 hash (test run) : A255F643
CRC32 hash : A255F643
CRC32 hash (skip zero) : A987617B
AccurateRip signature : 94410FFC
->Track not present in AccurateRip database.
Statistics
Read error : 0
Skipped (treated as error) : 0
Edge jitter error (maybe fixed) : 0
Atom jitter error (maybe fixed) : 0
Drift error (maybe fixed) : 0
Dropped bytes error (maybe fixed) : 0
Duplicated bytes error (maybe fixed) : 0
Inconsistency in error sectors : 0

Track 12
Filename : /Users/Fiddy/Music/New Rips/Top Of The Pops 1964-2006 [43CDs] [2280872] (FLAC)/TOTP-1996-12 Lighthouse Family - Lifted.flac

Track gain : -4.89 dB
Peak : 0.849396
CRC32 hash (test run) : 92806F9F
CRC32 hash : 92806F9F
CRC32 hash (skip zero) : 4421801C
AccurateRip signature : 06165F24
->Track not present in AccurateRip database.
Statistics
Read error : 0
Skipped (treated as error) : 0
Edge jitter error (maybe fixed) : 0
Atom jitter error (maybe fixed) : 0
Drift error (maybe fixed) : 0
Dropped bytes error (maybe fixed) : 0
Duplicated bytes error (maybe fixed) : 0
Inconsistency in error sectors : 0

Track 13
Filename : /Users/Fiddy/Music/New Rips/Top Of The Pops 1964-2006 [43CDs] [2280872] (FLAC)/TOTP-1996-13 Orchestral Manoeuvres In The Dark - Walking On The Milkyway.flac

Track gain : -7.42 dB
Peak : 0.843109
CRC32 hash (test run) : 551DD7AF
CRC32 hash : 551DD7AF
CRC32 hash (skip zero) : 0B6C31F6
AccurateRip signature : 285D6B14
->Track not present in AccurateRip database.
Statistics
Read error : 0
Skipped (treated as error) : 0
Edge jitter error (maybe fixed) : 0
Atom jitter error (maybe fixed) : 0
Drift error (maybe fixed) : 0
Dropped bytes error (maybe fixed) : 0
Duplicated bytes error (maybe fixed) : 0
Inconsistency in error sectors : 0

Track 14
Filename : /Users/Fiddy/Music/New Rips/Top Of The Pops 1964-2006 [43CDs] [2280872] (FLAC)/TOTP-1996-14 Pato Banton - Groovin'.flac

Track gain : -4.72 dB
Peak : 0.843872
CRC32 hash (test run) : 0FD8226C
CRC32 hash : 0FD8226C
CRC32 hash (skip zero) : 50A0B6D5
AccurateRip signature : 876B39F9
->Track not present in AccurateRip database.
Statistics
Read error : 0
Skipped (treated as error) : 0
Edge jitter error (maybe fixed) : 0
Atom jitter error (maybe fixed) : 0
Drift error (maybe fixed) : 0
Dropped bytes error (maybe fixed) : 0
Duplicated bytes error (maybe fixed) : 0
Inconsistency in error sectors : 0

Track 15
Filename : /Users/Fiddy/Music/New Rips/Top Of The Pops 1964-2006 [43CDs] [2280872] (FLAC)/TOTP-1996-15 Maxi Priest With Shaggy - That Girl.flac

Track gain : -5.20 dB
Peak : 0.835571
CRC32 hash (test run) : 2928CD4A
CRC32 hash : 2928CD4A
CRC32 hash (skip zero) : 794ABB71
AccurateRip signature : DF9A5BCA
->Track not present in AccurateRip database.
Statistics
Read error : 0
Skipped (treated as error) : 0
Edge jitter error (maybe fixed) : 0
Atom jitter error (maybe fixed) : 0
Drift error (maybe fixed) : 0
Dropped bytes error (maybe fixed) : 0
Duplicated bytes error (maybe fixed) : 0
Inconsistency in error sectors : 0

Track 16
Filename : /Users/Fiddy/Music/New Rips/Top Of The Pops 1964-2006 [43CDs] [2280872] (FLAC)/TOTP-1996-16 Shaggy With Grand Puba - Why You Treat Me So Bad.flac

Track gain : -4.33 dB
Peak : 0.865936
CRC32 hash (test run) : D788AE62
CRC32 hash : D788AE62
CRC32 hash (skip zero) : F7248F32
AccurateRip signature : 9EF5F09C
->Track not present in AccurateRip database.
Statistics
Read error : 0
Skipped (treated as error) : 0
Edge jitter error (maybe fixed) : 0
Atom jitter error (maybe fixed) : 0
Drift error (maybe fixed) : 0
Dropped bytes error (maybe fixed) : 0
Duplicated bytes error (maybe fixed) : 0
Inconsistency in error sectors : 0

Track 17
Filename : /Users/Fiddy/Music/New Rips/Top Of The Pops 1964-2006 [43CDs] [2280872] (FLAC)/TOTP-1996-17 Supergrass - Going Out.flac

Track gain : -5.88 dB
Peak : 0.855042
CRC32 hash (test run) : 29A13F9A
CRC32 hash : 29A13F9A
CRC32 hash (skip zero) : C3B4F159
AccurateRip signature : 84F08179
->Track not present in AccurateRip database.
Statistics
Read error : 0
Skipped (treated as error) : 0
Edge jitter error (maybe fixed) : 0
Atom jitter error (maybe fixed) : 0
Drift error (maybe fixed) : 0
Dropped bytes error (maybe fixed) : 0
Duplicated bytes error (maybe fixed) : 0
Inconsistency in error sectors : 0

Track 18
Filename : /Users/Fiddy/Music/New Rips/Top Of The Pops 1964-2006 [43CDs] [2280872] (FLAC)/TOTP-1996-18 Meat Loaf - Not A Dry Eye In The House.flac

Track gain : -5.79 dB
Peak : 0.911682
CRC32 hash (test run) : CBBC49E2
CRC32 hash : CBBC49E2
CRC32 hash (skip zero) : E485A5AC
AccurateRip signature : F72CFEF9
->Track not present in AccurateRip database.
Statistics
Read error : 0
Skipped (treated as error) : 0
Edge jitter error (maybe fixed) : 0
Atom jitter error (maybe fixed) : 0
Drift error (maybe fixed) : 0
Dropped bytes error (maybe fixed) : 0
Duplicated bytes error (maybe fixed) : 0
Inconsistency in error sectors : 0

No errors occurred

End of status report


X Lossless Decoder version 20090828 (109.5)

XLD extraction logfile from 2009-09-24 21:20:06 +0100

Various Artists / TOTP-1997

Used drive : HL-DT-ST DVDRAM GP08LU10 (revision KE01)

Use cdparanoia mode : YES (CDParanoia III 10.2 engine)
Disable audio cache : OK for the drive with cache less than 2750KB
Make use of C2 pointers : NO
Read offset correction : 667
Max retry count : 100

TOC of the extracted CD
Track | Start | Length | Start sector | End sector
––––––––––––––––––––––––––––-
1 | 00:00:00 | 03:22:42 | 0 | 15191
2 | 03:22:42 | 03:35:25 | 15192 | 31341
3 | 06:57:67 | 03:48:65 | 31342 | 48506
4 | 10:46:57 | 03:30:22 | 48507 | 64278
5 | 14:17:04 | 03:37:10 | 64279 | 80563
6 | 17:54:14 | 03:36:05 | 80564 | 96768
7 | 21:30:19 | 03:57:32 | 96769 | 114575
8 | 25:27:51 | 04:18:09 | 114576 | 133934
9 | 29:45:60 | 05:23:42 | 133935 | 158201
10 | 35:09:27 | 04:17:27 | 158202 | 177503
11 | 39:26:54 | 03:56:61 | 177504 | 195264
12 | 43:23:40 | 03:14:44 | 195265 | 209858
13 | 46:38:09 | 03:45:13 | 209859 | 226746
14 | 50:23:22 | 04:14:51 | 226747 | 245847
15 | 54:37:73 | 03:32:06 | 245848 | 261753
16 | 58:10:04 | 04:02:12 | 261754 | 279915
17 | 62:12:16 | 02:55:56 | 279916 | 293096
18 | 65:07:72 | 03:11:06 | 293097 | 307427

All Tracks
Album gain : -7.54 dB
Peak : 1.000000

Track 01
Filename : /Users/Fiddy/Music/New Rips/Top Of The Pops 1964-2006 [43CDs] [2280872] (FLAC)/TOTP-1997-01 Boyzone - Picture of You.flac

Track gain : -6.87 dB
Peak : 0.990234
CRC32 hash (test run) : 9252702E
CRC32 hash : 9252702E
CRC32 hash (skip zero) : 934C0BDC
AccurateRip signature : 6FD7D660
->Track not present in AccurateRip database.
Statistics
Read error : 0
Skipped (treated as error) : 0
Edge jitter error (maybe fixed) : 0
Atom jitter error (maybe fixed) : 0
Drift error (maybe fixed) : 0
Dropped bytes error (maybe fixed) : 0
Duplicated bytes error (maybe fixed) : 0
Inconsistency in error sectors : 0

Track 02
Filename : /Users/Fiddy/Music/New Rips/Top Of The Pops 1964-2006 [43CDs] [2280872] (FLAC)/TOTP-1997-02 Eternal - I Wanna Be The Only One (With Bebe Winans).flac

Track gain : -6.07 dB
Peak : 0.876129
CRC32 hash (test run) : 8DB0A55E
CRC32 hash : 8DB0A55E
CRC32 hash (skip zero) : 744CA071
AccurateRip signature : B6D115E1
->Track not present in AccurateRip database.
Statistics
Read error : 0
Skipped (treated as error) : 0
Edge jitter error (maybe fixed) : 0
Atom jitter error (maybe fixed) : 0
Drift error (maybe fixed) : 0
Dropped bytes error (maybe fixed) : 0
Duplicated bytes error (maybe fixed) : 0
Inconsistency in error sectors : 0

Track 03
Filename : /Users/Fiddy/Music/New Rips/Top Of The Pops 1964-2006 [43CDs] [2280872] (FLAC)/TOTP-1997-03 Louise - Arms Around The World.flac

Track gain : -7.85 dB
Peak : 0.962982
CRC32 hash (test run) : 66B1280F
CRC32 hash : 66B1280F
CRC32 hash (skip zero) : BC6A453C
AccurateRip signature : 2FD1F122
->Track not present in AccurateRip database.
Statistics
Read error : 0
Skipped (treated as error) : 0
Edge jitter error (maybe fixed) : 0
Atom jitter error (maybe fixed) : 0
Drift error (maybe fixed) : 0
Dropped bytes error (maybe fixed) : 0
Duplicated bytes error (maybe fixed) : 0
Inconsistency in error sectors : 0

Track 04
Filename : /Users/Fiddy/Music/New Rips/Top Of The Pops 1964-2006 [43CDs] [2280872] (FLAC)/TOTP-1997-04 Kavana - I Can Make You Feel Good.flac

Track gain : -5.94 dB
Peak : 1.000000
CRC32 hash (test run) : 8D6309A3
CRC32 hash : 8D6309A3
CRC32 hash (skip zero) : D77CD10D
AccurateRip signature : 98361EB1
->Track not present in AccurateRip database.
Statistics
Read error : 0
Skipped (treated as error) : 0
Edge jitter error (maybe fixed) : 0
Atom jitter error (maybe fixed) : 0
Drift error (maybe fixed) : 0
Dropped bytes error (maybe fixed) : 0
Duplicated bytes error (maybe fixed) : 0
Inconsistency in error sectors : 0

Track 05
Filename : /Users/Fiddy/Music/New Rips/Top Of The Pops 1964-2006 [43CDs] [2280872] (FLAC)/TOTP-1997-05 Five - Slam Dunk (Da Funk).flac

Track gain : -7.99 dB
Peak : 0.988556
CRC32 hash (test run) : 4E52F717
CRC32 hash : 4E52F717
CRC32 hash (skip zero) : C4FD92AB
AccurateRip signature : 8A77FA84
->Track not present in AccurateRip database.
Statistics
Read error : 0
Skipped (treated as error) : 0
Edge jitter error (maybe fixed) : 0
Atom jitter error (maybe fixed) : 0
Drift error (maybe fixed) : 0
Dropped bytes error (maybe fixed) : 0
Duplicated bytes error (maybe fixed) : 0
Inconsistency in error sectors : 0

Track 06
Filename : /Users/Fiddy/Music/New Rips/Top Of The Pops 1964-2006 [43CDs] [2280872] (FLAC)/TOTP-1997-06 911 - Bodyshakin'.flac

Track gain : -8.42 dB
Peak : 0.992401
CRC32 hash (test run) : A39C3251
CRC32 hash : A39C3251
CRC32 hash (skip zero) : E49C71CA
AccurateRip signature : A2A6D81C
->Track not present in AccurateRip database.
Statistics
Read error : 0
Skipped (treated as error) : 0
Edge jitter error (maybe fixed) : 0
Atom jitter error (maybe fixed) : 0
Drift error (maybe fixed) : 0
Dropped bytes error (maybe fixed) : 0
Duplicated bytes error (maybe fixed) : 0
Inconsistency in error sectors : 0

Track 07
Filename : /Users/Fiddy/Music/New Rips/Top Of The Pops 1964-2006 [43CDs] [2280872] (FLAC)/TOTP-1997-07 Hanson - Mmmbop.flac

Track gain : -7.41 dB
Peak : 0.985352
CRC32 hash (test run) : 20100DD0
CRC32 hash : 20100DD0
CRC32 hash (skip zero) : 583A83E8
AccurateRip signature : 781B7C94
->Track not present in AccurateRip database.
Statistics
Read error : 0
Skipped (treated as error) : 0
Edge jitter error (maybe fixed) : 0
Atom jitter error (maybe fixed) : 0
Drift error (maybe fixed) : 0
Dropped bytes error (maybe fixed) : 0
Duplicated bytes error (maybe fixed) : 0
Inconsistency in error sectors : 0

Track 08
Filename : /Users/Fiddy/Music/New Rips/Top Of The Pops 1964-2006 [43CDs] [2280872] (FLAC)/TOTP-1997-08 White Town - Your Woman.flac

Track gain : -5.36 dB
Peak : 0.991943
CRC32 hash (test run) : F72F5C5A
CRC32 hash : F72F5C5A
CRC32 hash (skip zero) : E989EFC6
AccurateRip signature : 45A39E7F
->Track not present in AccurateRip database.
Statistics
Read error : 0
Skipped (treated as error) : 0
Edge jitter error (maybe fixed) : 0
Atom jitter error (maybe fixed) : 0
Drift error (maybe fixed) : 0
Dropped bytes error (maybe fixed) : 0
Duplicated bytes error (maybe fixed) : 0
Inconsistency in error sectors : 0

Track 09
Filename : /Users/Fiddy/Music/New Rips/Top Of The Pops 1964-2006 [43CDs] [2280872] (FLAC)/TOTP-1997-09 Depeche Mode - Barrel Of A Gun.flac

Track gain : -8.86 dB
Peak : 0.907440
CRC32 hash (test run) : 50608FB1
CRC32 hash : 50608FB1
CRC32 hash (skip zero) : BCAC8D61
AccurateRip signature : 3CC4B3EB
->Track not present in AccurateRip database.
Statistics
Read error : 0
Skipped (treated as error) : 0
Edge jitter error (maybe fixed) : 0
Atom jitter error (maybe fixed) : 0
Drift error (maybe fixed) : 0
Dropped bytes error (maybe fixed) : 0
Duplicated bytes error (maybe fixed) : 0
Inconsistency in error sectors : 0

Track 10
Filename : /Users/Fiddy/Music/New Rips/Top Of The Pops 1964-2006 [43CDs] [2280872] (FLAC)/TOTP-1997-10 No Mercy - Please Don't Go.flac

Track gain : -5.94 dB
Peak : 0.988556
CRC32 hash (test run) : 8495308E
CRC32 hash : 8495308E
CRC32 hash (skip zero) : 7BDB6B33
AccurateRip signature : 90E8A899
->Track not present in AccurateRip database.
Statistics
Read error : 0
Skipped (treated as error) : 0
Edge jitter error (maybe fixed) : 0
Atom jitter error (maybe fixed) : 0
Drift error (maybe fixed) : 0
Dropped bytes error (maybe fixed) : 0
Duplicated bytes error (maybe fixed) : 0
Inconsistency in error sectors : 0

Track 11
Filename : /Users/Fiddy/Music/New Rips/Top Of The Pops 1964-2006 [43CDs] [2280872] (FLAC)/TOTP-1997-11 Olive - You're Not Alone.flac

Track gain : -5.86 dB
Peak : 0.841370
CRC32 hash (test run) : 8982D840
CRC32 hash : 8982D840
CRC32 hash (skip zero) : 5151997B
AccurateRip signature : FA426EFF
->Track not present in AccurateRip database.
Statistics
Read error : 0
Skipped (treated as error) : 0
Edge jitter error (maybe fixed) : 0
Atom jitter error (maybe fixed) : 0
Drift error (maybe fixed) : 0
Dropped bytes error (maybe fixed) : 0
Duplicated bytes error (maybe fixed) : 0
Inconsistency in error sectors : 0

Track 12
Filename : /Users/Fiddy/Music/New Rips/Top Of The Pops 1964-2006 [43CDs] [2280872] (FLAC)/TOTP-1997-12 DJ Quicksilver - Bellisima.flac

Track gain : -5.48 dB
Peak : 0.979980
CRC32 hash (test run) : 76D6C6D4
CRC32 hash : 76D6C6D4
CRC32 hash (skip zero) : 8D7C90AE
AccurateRip signature : B587D5A2
->Track not present in AccurateRip database.
Statistics
Read error : 0
Skipped (treated as error) : 0
Edge jitter error (maybe fixed) : 0
Atom jitter error (maybe fixed) : 0
Drift error (maybe fixed) : 0
Dropped bytes error (maybe fixed) : 0
Duplicated bytes error (maybe fixed) : 0
Inconsistency in error sectors : 0

Track 13
Filename : /Users/Fiddy/Music/New Rips/Top Of The Pops 1964-2006 [43CDs] [2280872] (FLAC)/TOTP-1997-13 Faithless - Reverence.flac

Track gain : -5.44 dB
Peak : 0.840790
CRC32 hash (test run) : 4F1EDC88
CRC32 hash : 4F1EDC88
CRC32 hash (skip zero) : 00910F73
AccurateRip signature : D911AFB2
->Track not present in AccurateRip database.
Statistics
Read error : 0
Skipped (treated as error) : 0
Edge jitter error (maybe fixed) : 0
Atom jitter error (maybe fixed) : 0
Drift error (maybe fixed) : 0
Dropped bytes error (maybe fixed) : 0
Duplicated bytes error (maybe fixed) : 0
Inconsistency in error sectors : 0

Track 14
Filename : /Users/Fiddy/Music/New Rips/Top Of The Pops 1964-2006 [43CDs] [2280872] (FLAC)/TOTP-1997-14 Shaggy - Piece Of My Heart (With Marsha).flac

Track gain : -6.39 dB
Peak : 0.979736
CRC32 hash (test run) : 2555DEF6
CRC32 hash : 2555DEF6
CRC32 hash (skip zero) : 437C07F1
AccurateRip signature : 7BE690FA
->Track not present in AccurateRip database.
Statistics
Read error : 0
Skipped (treated as error) : 0
Edge jitter error (maybe fixed) : 0
Atom jitter error (maybe fixed) : 0
Drift error (maybe fixed) : 0
Dropped bytes error (maybe fixed) : 0
Duplicated bytes error (maybe fixed) : 0
Inconsistency in error sectors : 0

Track 15
Filename : /Users/Fiddy/Music/New Rips/Top Of The Pops 1964-2006 [43CDs] [2280872] (FLAC)/TOTP-1997-15 Chumbawamba - Tubthumping.flac

Track gain : -7.58 dB
Peak : 0.980225
CRC32 hash (test run) : 2F1937F9
CRC32 hash : 2F1937F9
CRC32 hash (skip zero) : 21A87044
AccurateRip signature : AC21B489
->Track not present in AccurateRip database.
Statistics
Read error : 0
Skipped (treated as error) : 0
Edge jitter error (maybe fixed) : 0
Atom jitter error (maybe fixed) : 0
Drift error (maybe fixed) : 0
Dropped bytes error (maybe fixed) : 0
Duplicated bytes error (maybe fixed) : 0
Inconsistency in error sectors : 0

Track 16
Filename : /Users/Fiddy/Music/New Rips/Top Of The Pops 1964-2006 [43CDs] [2280872] (FLAC)/TOTP-1997-16 Meredith Brooks - Bitch.flac

Track gain : -7.75 dB
Peak : 0.931641
CRC32 hash (test run) : F02353F5
CRC32 hash : F02353F5
CRC32 hash (skip zero) : 3FA60923
AccurateRip signature : 5707615A
->Track not present in AccurateRip database.
Statistics
Read error : 0
Skipped (treated as error) : 0
Edge jitter error (maybe fixed) : 0
Atom jitter error (maybe fixed) : 0
Drift error (maybe fixed) : 0
Dropped bytes error (maybe fixed) : 0
Duplicated bytes error (maybe fixed) : 0
Inconsistency in error sectors : 0

Track 17
Filename : /Users/Fiddy/Music/New Rips/Top Of The Pops 1964-2006 [43CDs] [2280872] (FLAC)/TOTP-1997-17 Kula Shaker - Hush.flac

Track gain : -6.58 dB
Peak : 0.854828
CRC32 hash (test run) : 7C673DF5
CRC32 hash : 7C673DF5
CRC32 hash (skip zero) : B14C83AD
AccurateRip signature : B0FD817B
->Track not present in AccurateRip database.
Statistics
Read error : 0
Skipped (treated as error) : 0
Edge jitter error (maybe fixed) : 0
Atom jitter error (maybe fixed) : 0
Drift error (maybe fixed) : 0
Dropped bytes error (maybe fixed) : 0
Duplicated bytes error (maybe fixed) : 0
Inconsistency in error sectors : 0

Track 18
Filename : /Users/Fiddy/Music/New Rips/Top Of The Pops 1964-2006 [43CDs] [2280872] (FLAC)/TOTP-1997-18 Richard III - Supergrass.flac

Track gain : -8.20 dB
Peak : 0.908691
CRC32 hash (test run) : D1795240
CRC32 hash : D1795240
CRC32 hash (skip zero) : 22139DE8
AccurateRip signature : 3B55A905
->Track not present in AccurateRip database.
Statistics
Read error : 0
Skipped (treated as error) : 0
Edge jitter error (maybe fixed) : 0
Atom jitter error (maybe fixed) : 0
Drift error (maybe fixed) : 0
Dropped bytes error (maybe fixed) : 0
Duplicated bytes error (maybe fixed) : 0
Inconsistency in error sectors : 0

No errors occurred

End of status report


X Lossless Decoder version 20090828 (109.5)

XLD extraction logfile from 2009-09-24 22:00:45 +0100

Various Artists / TOTP-1998

Used drive : HL-DT-ST DVDRAM GP08LU10 (revision KE01)

Use cdparanoia mode : YES (CDParanoia III 10.2 engine)
Disable audio cache : OK for the drive with cache less than 2750KB
Make use of C2 pointers : NO
Read offset correction : 667
Max retry count : 100

TOC of the extracted CD
Track | Start | Length | Start sector | End sector
––––––––––––––––––––––––––––-
1 | 00:00:00 | 04:05:54 | 0 | 18428
2 | 04:05:54 | 06:24:17 | 18429 | 47245
3 | 10:29:71 | 03:29:73 | 47246 | 62993
4 | 13:59:69 | 03:12:47 | 62994 | 77440
5 | 17:12:41 | 04:15:17 | 77441 | 96582
6 | 21:27:58 | 03:40:12 | 96583 | 113094
7 | 25:07:70 | 04:57:33 | 113095 | 135402
8 | 30:05:28 | 04:01:32 | 135403 | 153509
9 | 34:06:60 | 03:31:44 | 153510 | 169378
10 | 37:38:29 | 03:09:45 | 169379 | 183598
11 | 40:47:74 | 03:20:74 | 183599 | 198672
12 | 44:08:73 | 03:46:16 | 198673 | 215638
13 | 47:55:14 | 02:52:23 | 215639 | 228561
14 | 50:47:37 | 04:23:17 | 228562 | 248303
15 | 55:10:54 | 03:03:56 | 248304 | 262084
16 | 58:14:35 | 03:35:30 | 262085 | 278239
17 | 61:49:65 | 03:32:72 | 278240 | 294211
18 | 65:22:62 | 04:33:44 | 294212 | 314730
19 | 69:56:31 | 03:15:32 | 314731 | 329387
20 | 73:11:63 | 04:34:48 | 329388 | 349985

All Tracks
Album gain : -9.50 dB
Peak : 0.988556

Track 01
Filename : /Users/Fiddy/Music/New Rips/Top Of The Pops 1964-2006 [43CDs] [2280872] (FLAC)/TOTP-1998-01 Paul Weller - Brand New Start.flac

Track gain : -9.19 dB
Peak : 0.988556
CRC32 hash (test run) : 9113A7BF
CRC32 hash : 9113A7BF
CRC32 hash (skip zero) : C356C2AB
AccurateRip signature : C616DF99
->Track not present in AccurateRip database.
Statistics
Read error : 0
Skipped (treated as error) : 0
Edge jitter error (maybe fixed) : 0
Atom jitter error (maybe fixed) : 0
Drift error (maybe fixed) : 0
Dropped bytes error (maybe fixed) : 0
Duplicated bytes error (maybe fixed) : 0
Inconsistency in error sectors : 0

Track 02
Filename : /Users/Fiddy/Music/New Rips/Top Of The Pops 1964-2006 [43CDs] [2280872] (FLAC)/TOTP-1998-02 Pulp - This Is Hardcore.flac

Track gain : -9.89 dB
Peak : 0.988556
CRC32 hash (test run) : 69CBC48C
CRC32 hash : 69CBC48C
CRC32 hash (skip zero) : 4DB7C2D5
AccurateRip signature : 768BAD2F
->Track not present in AccurateRip database.
Statistics
Read error : 0
Skipped (treated as error) : 0
Edge jitter error (maybe fixed) : 0
Atom jitter error (maybe fixed) : 0
Drift error (maybe fixed) : 0
Dropped bytes error (maybe fixed) : 0
Duplicated bytes error (maybe fixed) : 0
Inconsistency in error sectors : 0

Track 03
Filename : /Users/Fiddy/Music/New Rips/Top Of The Pops 1964-2006 [43CDs] [2280872] (FLAC)/TOTP-1998-03 Shed Seven - She Left Me On Friday.flac

Track gain : -9.07 dB
Peak : 0.988556
CRC32 hash (test run) : 38DBD7D9
CRC32 hash : 38DBD7D9
CRC32 hash (skip zero) : B965A181
AccurateRip signature : 921B8255
->Track not present in AccurateRip database.
Statistics
Read error : 0
Skipped (treated as error) : 0
Edge jitter error (maybe fixed) : 0
Atom jitter error (maybe fixed) : 0
Drift error (maybe fixed) : 0
Dropped bytes error (maybe fixed) : 0
Duplicated bytes error (maybe fixed) : 0
Inconsistency in error sectors : 0

Track 04
Filename : /Users/Fiddy/Music/New Rips/Top Of The Pops 1964-2006 [43CDs] [2280872] (FLAC)/TOTP-1998-04 The Dandy Warhols - Not If You Were The Last Junkie On Earth.flac

Track gain : -8.67 dB
Peak : 0.988556
CRC32 hash (test run) : 942357B1
CRC32 hash : 942357B1
CRC32 hash (skip zero) : C221C5EB
AccurateRip signature : F4B22D07
->Track not present in AccurateRip database.
Statistics
Read error : 0
Skipped (treated as error) : 0
Edge jitter error (maybe fixed) : 0
Atom jitter error (maybe fixed) : 0
Drift error (maybe fixed) : 0
Dropped bytes error (maybe fixed) : 0
Duplicated bytes error (maybe fixed) : 0
Inconsistency in error sectors : 0

Track 05
Filename : /Users/Fiddy/Music/New Rips/Top Of The Pops 1964-2006 [43CDs] [2280872] (FLAC)/TOTP-1998-05 Placebo - Pure Morning.flac

Track gain : -9.24 dB
Peak : 0.988556
CRC32 hash (test run) : 0F9BAEDC
CRC32 hash : 0F9BAEDC
CRC32 hash (skip zero) : 57D23AB0
AccurateRip signature : 4648A052
->Track not present in AccurateRip database.
Statistics
Read error : 0
Skipped (treated as error) : 0
Edge jitter error (maybe fixed) : 0
Atom jitter error (maybe fixed) : 0
Drift error (maybe fixed) : 0
Dropped bytes error (maybe fixed) : 0
Duplicated bytes error (maybe fixed) : 0
Inconsistency in error sectors : 0

Track 06
Filename : /Users/Fiddy/Music/New Rips/Top Of The Pops 1964-2006 [43CDs] [2280872] (FLAC)/TOTP-1998-06 Bran Van 3000 - Drinking In LA.flac

Track gain : -10.03 dB
Peak : 0.988556
CRC32 hash (test run) : 5243E607
CRC32 hash : 5243E607
CRC32 hash (skip zero) : 3982DB46
AccurateRip signature : B27DAF74
->Track not present in AccurateRip database.
Statistics
Read error : 0
Skipped (treated as error) : 0
Edge jitter error (maybe fixed) : 0
Atom jitter error (maybe fixed) : 0
Drift error (maybe fixed) : 0
Dropped bytes error (maybe fixed) : 0
Duplicated bytes error (maybe fixed) : 0
Inconsistency in error sectors : 0

Track 07
Filename : /Users/Fiddy/Music/New Rips/Top Of The Pops 1964-2006 [43CDs] [2280872] (FLAC)/TOTP-1998-07 Air - Sexy Boy.flac

Track gain : -9.02 dB
Peak : 0.988556
CRC32 hash (test run) : 7726D250
CRC32 hash : 7726D250
CRC32 hash (skip zero) : 9FBB7C43
AccurateRip signature : 325B4499
->Track not present in AccurateRip database.
Statistics
Read error : 0
Skipped (treated as error) : 0
Edge jitter error (maybe fixed) : 0
Atom jitter error (maybe fixed) : 0
Drift error (maybe fixed) : 0
Dropped bytes error (maybe fixed) : 0
Duplicated bytes error (maybe fixed) : 0
Inconsistency in error sectors : 0

Track 08
Filename : /Users/Fiddy/Music/New Rips/Top Of The Pops 1964-2006 [43CDs] [2280872] (FLAC)/TOTP-1998-08 Tin Tin Out - Here's Where The Story Ends (With Shelley Nelson).flac

Track gain : -7.63 dB
Peak : 0.988556
CRC32 hash (test run) : D41692AD
CRC32 hash : D41692AD
CRC32 hash (skip zero) : 29A2127B
AccurateRip signature : C026BBE1
->Track not present in AccurateRip database.
Statistics
Read error : 0
Skipped (treated as error) : 0
Edge jitter error (maybe fixed) : 0
Atom jitter error (maybe fixed) : 0
Drift error (maybe fixed) : 0
Dropped bytes error (maybe fixed) : 0
Duplicated bytes error (maybe fixed) : 0
Inconsistency in error sectors : 0

Track 09
Filename : /Users/Fiddy/Music/New Rips/Top Of The Pops 1964-2006 [43CDs] [2280872] (FLAC)/TOTP-1998-09 Bamboo - Bamboogie.flac

Track gain : -9.24 dB
Peak : 0.988556
CRC32 hash (test run) : 0736F67E
CRC32 hash : 0736F67E
CRC32 hash (skip zero) : AB2F0D1F
AccurateRip signature : 260775A5
->Track not present in AccurateRip database.
Statistics
Read error : 0
Skipped (treated as error) : 0
Edge jitter error (maybe fixed) : 0
Atom jitter error (maybe fixed) : 0
Drift error (maybe fixed) : 0
Dropped bytes error (maybe fixed) : 0
Duplicated bytes error (maybe fixed) : 0
Inconsistency in error sectors : 0

Track 10
Filename : /Users/Fiddy/Music/New Rips/Top Of The Pops 1964-2006 [43CDs] [2280872] (FLAC)/TOTP-1998-10 Tamperer - Feel It (With Maya).flac

Track gain : -9.94 dB
Peak : 0.988556
CRC32 hash (test run) : 1E80C0AE
CRC32 hash : 1E80C0AE
CRC32 hash (skip zero) : EBD4996D
AccurateRip signature : F24CD1AE
->Track not present in AccurateRip database.
Statistics
Read error : 0
Skipped (treated as error) : 0
Edge jitter error (maybe fixed) : 0
Atom jitter error (maybe fixed) : 0
Drift error (maybe fixed) : 0
Dropped bytes error (maybe fixed) : 0
Duplicated bytes error (maybe fixed) : 0
Inconsistency in error sectors : 0

Track 11
Filename : /Users/Fiddy/Music/New Rips/Top Of The Pops 1964-2006 [43CDs] [2280872] (FLAC)/TOTP-1998-11 Aqua - Doctor Jones.flac

Track gain : -8.89 dB
Peak : 0.988556
CRC32 hash (test run) : F1919998
CRC32 hash : F1919998
CRC32 hash (skip zero) : B967E9E9
AccurateRip signature : 44FEDCE9
->Track not present in AccurateRip database.
Statistics
Read error : 0
Skipped (treated as error) : 0
Edge jitter error (maybe fixed) : 0
Atom jitter error (maybe fixed) : 0
Drift error (maybe fixed) : 0
Dropped bytes error (maybe fixed) : 0
Duplicated bytes error (maybe fixed) : 0
Inconsistency in error sectors : 0

Track 12
Filename : /Users/Fiddy/Music/New Rips/Top Of The Pops 1964-2006 [43CDs] [2280872] (FLAC)/TOTP-1998-12 Billie - Because We Want To.flac

Track gain : -10.48 dB
Peak : 0.988556
CRC32 hash (test run) : D1A7F25A
CRC32 hash : D1A7F25A
CRC32 hash (skip zero) : 5EEB89E3
AccurateRip signature : 46834022
->Track not present in AccurateRip database.
Statistics
Read error : 0
Skipped (treated as error) : 0
Edge jitter error (maybe fixed) : 0
Atom jitter error (maybe fixed) : 0
Drift error (maybe fixed) : 0
Dropped bytes error (maybe fixed) : 0
Duplicated bytes error (maybe fixed) : 0
Inconsistency in error sectors : 0

Track 13
Filename : /Users/Fiddy/Music/New Rips/Top Of The Pops 1964-2006 [43CDs] [2280872] (FLAC)/TOTP-1998-13 B Witched - C' Est La Vie.flac

Track gain : -10.48 dB
Peak : 0.988556
CRC32 hash (test run) : 4C340DF9
CRC32 hash : 4C340DF9
CRC32 hash (skip zero) : FDE692A4
AccurateRip signature : AAF312C4
->Track not present in AccurateRip database.
Statistics
Read error : 0
Skipped (treated as error) : 0
Edge jitter error (maybe fixed) : 0
Atom jitter error (maybe fixed) : 0
Drift error (maybe fixed) : 0
Dropped bytes error (maybe fixed) : 0
Duplicated bytes error (maybe fixed) : 0
Inconsistency in error sectors : 0

Track 14
Filename : /Users/Fiddy/Music/New Rips/Top Of The Pops 1964-2006 [43CDs] [2280872] (FLAC)/TOTP-1998-14 Steps - Heartbeat.flac

Track gain : -9.14 dB
Peak : 0.988556
CRC32 hash (test run) : AA9F77BF
CRC32 hash : AA9F77BF
CRC32 hash (skip zero) : 06562669
AccurateRip signature : 2181D018
->Track not present in AccurateRip database.
Statistics
Read error : 0
Skipped (treated as error) : 0
Edge jitter error (maybe fixed) : 0
Atom jitter error (maybe fixed) : 0
Drift error (maybe fixed) : 0
Dropped bytes error (maybe fixed) : 0
Duplicated bytes error (maybe fixed) : 0
Inconsistency in error sectors : 0

Track 15
Filename : /Users/Fiddy/Music/New Rips/Top Of The Pops 1964-2006 [43CDs] [2280872] (FLAC)/TOTP-1998-15 Five - Everybody Get Up.flac

Track gain : -9.59 dB
Peak : 0.988556
CRC32 hash (test run) : C407489E
CRC32 hash : C407489E
CRC32 hash (skip zero) : 09E93CB1
AccurateRip signature : 9E7A8C56
->Track not present in AccurateRip database.
Statistics
Read error : 0
Skipped (treated as error) : 0
Edge jitter error (maybe fixed) : 0
Atom jitter error (maybe fixed) : 0
Drift error (maybe fixed) : 0
Dropped bytes error (maybe fixed) : 0
Duplicated bytes error (maybe fixed) : 0
Inconsistency in error sectors : 0

Track 16
Filename : /Users/Fiddy/Music/New Rips/Top Of The Pops 1964-2006 [43CDs] [2280872] (FLAC)/TOTP-1998-16 Louise - All That Matters.flac

Track gain : -10.18 dB
Peak : 0.988556
CRC32 hash (test run) : E580FD1D
CRC32 hash : E580FD1D
CRC32 hash (skip zero) : E8EA9510
AccurateRip signature : 13EF4BE0
->Track not present in AccurateRip database.
Statistics
Read error : 0
Skipped (treated as error) : 0
Edge jitter error (maybe fixed) : 0
Atom jitter error (maybe fixed) : 0
Drift error (maybe fixed) : 0
Dropped bytes error (maybe fixed) : 0
Duplicated bytes error (maybe fixed) : 0
Inconsistency in error sectors : 0

Track 17
Filename : /Users/Fiddy/Music/New Rips/Top Of The Pops 1964-2006 [43CDs] [2280872] (FLAC)/TOTP-1998-17 Des' Ree - Life.flac

Track gain : -9.94 dB
Peak : 0.988556
CRC32 hash (test run) : 64FE3721
CRC32 hash : 64FE3721
CRC32 hash (skip zero) : 719CDE20
AccurateRip signature : 5E1A569D
->Track not present in AccurateRip database.
Statistics
Read error : 0
Skipped (treated as error) : 0
Edge jitter error (maybe fixed) : 0
Atom jitter error (maybe fixed) : 0
Drift error (maybe fixed) : 0
Dropped bytes error (maybe fixed) : 0
Duplicated bytes error (maybe fixed) : 0
Inconsistency in error sectors : 0

Track 18
Filename : /Users/Fiddy/Music/New Rips/Top Of The Pops 1964-2006 [43CDs] [2280872] (FLAC)/TOTP-1998-18 Lighthouse Family - High.flac

Track gain : -9.40 dB
Peak : 0.988556
CRC32 hash (test run) : 314F26FE
CRC32 hash : 314F26FE
CRC32 hash (skip zero) : AA7C38E7
AccurateRip signature : F60B48A0
->Track not present in AccurateRip database.
Statistics
Read error : 0
Skipped (treated as error) : 0
Edge jitter error (maybe fixed) : 0
Atom jitter error (maybe fixed) : 0
Drift error (maybe fixed) : 0
Dropped bytes error (maybe fixed) : 0
Duplicated bytes error (maybe fixed) : 0
Inconsistency in error sectors : 0

Track 19
Filename : /Users/Fiddy/Music/New Rips/Top Of The Pops 1964-2006 [43CDs] [2280872] (FLAC)/TOTP-1998-19 UB40 - Come Back Darling.flac

Track gain : -8.36 dB
Peak : 0.988556
CRC32 hash (test run) : 5085C63C
CRC32 hash : 5085C63C
CRC32 hash (skip zero) : 8E98154E
AccurateRip signature : 2776A942
->Track not present in AccurateRip database.
Statistics
Read error : 0
Skipped (treated as error) : 0
Edge jitter error (maybe fixed) : 0
Atom jitter error (maybe fixed) : 0
Drift error (maybe fixed) : 0
Dropped bytes error (maybe fixed) : 0
Duplicated bytes error (maybe fixed) : 0
Inconsistency in error sectors : 0

Track 20
Filename : /Users/Fiddy/Music/New Rips/Top Of The Pops 1964-2006 [43CDs] [2280872] (FLAC)/TOTP-1998-20 Boyzone - No Matter What.flac

Track gain : -8.22 dB
Peak : 0.988556
CRC32 hash (test run) : AD397911
CRC32 hash : AD397911
CRC32 hash (skip zero) : F04D86B2
AccurateRip signature : 86F017FA
->Track not present in AccurateRip database.
Statistics
Read error : 0
Skipped (treated as error) : 0
Edge jitter error (maybe fixed) : 0
Atom jitter error (maybe fixed) : 0
Drift error (maybe fixed) : 0
Dropped bytes error (maybe fixed) : 0
Duplicated bytes error (maybe fixed) : 0
Inconsistency in error sectors : 0

No errors occurred

End of status report

Download-Links:
RapidShare
CD-29 1992: <1> - <2> - <3> - 545MB
CD-30 1993: <1> - <2> - <3> - 518MB
CD-31 1994: <1> - <2> - <3> - 525MB
CD-32 1995: <1> - <2> - <3> - 519MB
CD-33 1996: <1> - <2> - <3> - 514MB
CD-34 1997: <1> - <2> - <3> - 491MB
CD-35 1998: <1> - <2> - <3> - 580MB
Covers & TrackList: (1964-2006) - 74.2MB

Password:
VA - Top Of The Pops 1964 - 2006 (Part-5) [2007's CD Release]

Thanks to the original uploader "Bahh"

Please do not post any blank download links in Comments
Thanks you

Flac Part-1 (1964-1970)
Flac Part-2 (1971-1977)
Flac Part-3 (1978-1984)
Flac Part-4 (1985-1991)
MP3 1964-2006