Tags
Language
Tags

Various Artists - Zappa's Universe, A Celebration of 25 Years of Frank Zappa's Music (1993) {Verve 513 575-2}

Posted By: ruskaval
Various Artists - Zappa's Universe, A Celebration of 25 Years of Frank Zappa's Music (1993) {Verve 513 575-2}

Various Artists - Zappa's Universe, A Celebration of 25 Years of Frank Zappa's Music (1993) {Verve 513 575-2}
EAC rip (secure mode) | FLAC (tracks)+CUE+LOG -> 477 Mb | MP3 @320 -> 163 Mb
Full Artwork @ 600 dpi (png) -> 92 Mb | 5% repair rar
© 1993 Verve / PolyGram | 513 575-2
Jazz / Rock / Soul / Experimental Rock / Acappella

ZAPPA'S UNIVERSE–a tribute to the work of the guitarist-composer, who was too ill to attend–contains the first recorded live version of "Jazz Discharge Party Hats," the first recorded live instrumental version of "Nite School," the first recorded dual-vocal group version of "Elvis Has Just Left The Building" and the first recorded a capella versions of "The Meek Shall Inherit Nothing" and "Heavenly Bank Account." "Sofa" won the 1994 Grammy Award for "Rock Instrumental Performance."

ZAPPA'S UNIVERSE contains the first recorded live version of "Jazz Discharge Party Hats," the first recorded live instrumental version of "Nite School," the first recorded two vocal group version of "Elvis Has Just Left The Building" and the first recorded a capella versions of "The Meek Shall Inherit Nothin'" and "Heavenly Bank Account."

A series of concerts was held in November 1991 at the Ritz in New York City to celebrate 25 years of the music of Frank Zappa, but the mood was dampened considerably when it was announced prior to the first concert that the honoree would not be attending because he was fighting the prostate cancer that would end his life just over two years later. One of the highlights is the inclusion of the Persuasions, a doo wop group signed to its first recording contract by Zappa. Although guitarist Mike Keneally and bassist Scott Thunes are present from Zappa's final touring band (which broke up during the European leg of Zappa's final tour in 1988), Dweezil Zappa (Zappa's talented young son and a fine guitarist in his own right) solos on "Dirty Love," and former Zappa guitarist Steve Vai makes a guest appearance on "Hot Plate Heaven at the Green Hotel," Zappa's presence on stage is sorely missed. Conductor and arranger Joel Thome, who conceived these tribute concerts, is to be congratulated for his efforts, though none of the songs begin to compare with Frank Zappa's own versions, which are readily available on CD. There is also a video version of these concerts that includes music omitted from this CD.
Various Artists - Zappa's Universe, A Celebration of 25 Years of Frank Zappa's Music (1993) {Verve 513 575-2}


Personnel:

Morgan Ågren / Drums
Sanford Allen / Concert Master, Violin
Abe Appleman / Violin
John Beal / Contrabass Trombone
Sandra Billingslea /,Violin
Virgil Blackwell / Clarinet, Clarinet (Bass)
Dale Bozzio / Vocals
Ray Brown / Viola
John Campo / Bassoon, Sax (Baritone)
John Dexter / Viola
Jonathan Haas / Percussion
Joyce Hammann / Violin
Stanley Hunte / Violin
Mike Keneally / Guitar, Keyboards, Vocals
Bob Magnusson / Oboe, Sax (Alto)
Mats Öberg / Keyboards, Piano, Vocals
Cynthia Otis / Harp
Jim Pugh / Trombone
Sheila Reinhold / Violin
Richard Rodgers / Violin
Roger Rosenberg / Sax (Baritone)
Ron Sell / Horn
Richard E. Spencer / Viola
Marvin Stamm / Flugelhorn, Trumpet
David Taylor / Trombone (Bass), Tuba
Scott Thunes / Bass, Vocals
David Tofani / Flute, Piccolo, Sax (Soprano)
Steve Vai / Guitar
Peter Vanderwater / Violin
Bruce Wang / Cello
Ming Yeh / Violin
Dweezil Zappa / Guitar
Marc Ziegenhagen / Keyboards
Frederick Zlotkin / Cello

The Persuasions:
Jimmy Hayes / Vocals
Jerry Lawson / Vocals
Joe Russell / Vocals
Jay Otis Washington / Vocals

Rockapella:
Sean Altman / Vocals
Barry Carl / Vocals
Elliot Kerman / Vocals
Scott Leonard / Vocals

Tribute concert recorded live at the Ritz Theater in New York. December, 1991.

Track Listing:

01. Elvis Has Just Left The Building
02. Brown Shoes Don't Make It
03. Jazz Discharge Party Hats
04. Inca Roads
05. Moggio
06. Nite School
07. Echidna's Arf (Of You)
08. Hungry Freaks, Daddy
09. Heavenly Bank Account
10. The Meek Shall Inherit Nothing
11. Waka Jawaka (Edit)
12. Sofa
13. Dirty Love
14. Hot Plate Heaven At The Green Hotel

Exact Audio Copy V1.0 beta 1 from 15. November 2010

EAC extraction logfile from 25. May 2011, 20:34

Frank Zappa / Zappa's Universe

Used drive : PIONEER DVD-RW DVR-111L Adapter: 0 ID: 0

Read mode : Secure
Utilize accurate stream : Yes
Defeat audio cache : Yes
Make use of C2 pointers : No

Read offset correction : 48
Overread into Lead-In and Lead-Out : No
Fill up missing offset samples with silence : Yes
Delete leading and trailing silent blocks : No
Null samples used in CRC calculations : Yes
Used interface : Native Win32 interface for Win NT & 2000
Gap handling : Appended to previous track

Used output format : User Defined Encoder
Selected bitrate : 1024 kBit/s
Quality : High
Add ID3 tag : No
Command line compressor : C:\Program Files\Exact Audio Copy\Flac\flac.exe
Additional command line options : -8 -V -T "ARTIST=%a" -T "TITLE=%t" -T "ALBUM=%g" -T "DATE=%y" -T "TRACKNUMBER=%n" -T "TOTALTRACKS=%x" -T "GENRE=%m" -T "ALBUMARTIST=%v" -T "ALBUM ARTIST=%v" -T "COMMENT=EAC Secure Mode, Test & Copy, AccurateRip, FLAC -8" %s


TOC of the extracted CD

Track | Start | Length | Start sector | End sector
––––––––––––––––––––––––––––-
1 | 0:00.32 | 2:49.63 | 32 | 12769
2 | 2:50.20 | 7:26.22 | 12770 | 46241
3 | 10:16.42 | 4:48.73 | 46242 | 67914
4 | 15:05.40 | 9:39.07 | 67915 | 111346
5 | 24:44.47 | 2:47.18 | 111347 | 123889
6 | 27:31.65 | 5:01.57 | 123890 | 146521
7 | 32:33.47 | 3:54.05 | 146522 | 164076
8 | 36:27.52 | 3:29.68 | 164077 | 179819
9 | 39:57.45 | 4:13.12 | 179820 | 198806
10 | 44:10.57 | 2:55.63 | 198807 | 211994
11 | 47:06.45 | 3:29.37 | 211995 | 227706
12 | 50:36.07 | 3:52.25 | 227707 | 245131
13 | 54:28.32 | 7:03.58 | 245132 | 276914
14 | 61:32.15 | 6:28.05 | 276915 | 306019


Track 1

Filename E:\EAC\Various Artists - Zappa's Universe. A Celebration of 25 Years of Frank Zappa's Music (1993) {Verve}\01 - Elvis Has Just Left The Building.wav

Pre-gap length 0:00:02.32

Peak level 100.0 %
Extraction speed 1.6 X
Track quality 100.0 %
Test CRC DD68CD01
Copy CRC DD68CD01
Accurately ripped (confidence 14) [4EE65E11]
Copy OK

Track 2

Filename E:\EAC\Various Artists - Zappa's Universe. A Celebration of 25 Years of Frank Zappa's Music (1993) {Verve}\02 - Brown Shoes Don't Make It.wav

Pre-gap length 0:00:01.58

Peak level 100.0 %
Extraction speed 1.9 X
Track quality 99.9 %
Test CRC C08E6E3C
Copy CRC C08E6E3C
Accurately ripped (confidence 12) [70415B3F]
Copy OK

Track 3

Filename E:\EAC\Various Artists - Zappa's Universe. A Celebration of 25 Years of Frank Zappa's Music (1993) {Verve}\03 - Jazz Discharge Party Hats.wav

Peak level 100.0 %
Extraction speed 2.2 X
Track quality 100.0 %
Test CRC B0EBD507
Copy CRC B0EBD507
Accurately ripped (confidence 13) [AF238BB5]
Copy OK

Track 4

Filename E:\EAC\Various Artists - Zappa's Universe. A Celebration of 25 Years of Frank Zappa's Music (1993) {Verve}\04 - Inca Roads.wav

Pre-gap length 0:00:00.63

Peak level 100.0 %
Extraction speed 2.6 X
Track quality 100.0 %
Test CRC 946BE5BF
Copy CRC 946BE5BF
Accurately ripped (confidence 13) [7DF8194D]
Copy OK

Track 5

Filename E:\EAC\Various Artists - Zappa's Universe. A Celebration of 25 Years of Frank Zappa's Music (1993) {Verve}\05 - Moggio.wav

Peak level 100.0 %
Extraction speed 2.4 X
Track quality 100.0 %
Test CRC B691DE0A
Copy CRC B691DE0A
Accurately ripped (confidence 13) [AA8B80BD]
Copy OK

Track 6

Filename E:\EAC\Various Artists - Zappa's Universe. A Celebration of 25 Years of Frank Zappa's Music (1993) {Verve}\06 - Nite School.wav

Pre-gap length 0:00:01.23

Peak level 100.0 %
Extraction speed 2.7 X
Track quality 100.0 %
Test CRC 1B2B6F9F
Copy CRC 1B2B6F9F
Accurately ripped (confidence 13) [F25A9AF0]
Copy OK

Track 7

Filename E:\EAC\Various Artists - Zappa's Universe. A Celebration of 25 Years of Frank Zappa's Music (1993) {Verve}\07 - Echinda's Arf (Of You).wav

Pre-gap length 0:00:00.47

Peak level 100.0 %
Extraction speed 2.7 X
Track quality 100.0 %
Test CRC 326439A9
Copy CRC 326439A9
Accurately ripped (confidence 13) [1B0D4786]
Copy OK

Track 8

Filename E:\EAC\Various Artists - Zappa's Universe. A Celebration of 25 Years of Frank Zappa's Music (1993) {Verve}\08 - Hungry Freaks, Daddy.wav

Peak level 100.0 %
Extraction speed 2.8 X
Track quality 100.0 %
Test CRC A7C292B5
Copy CRC A7C292B5
Accurately ripped (confidence 13) [930E8C6D]
Copy OK

Track 9

Filename E:\EAC\Various Artists - Zappa's Universe. A Celebration of 25 Years of Frank Zappa's Music (1993) {Verve}\09 - Heavenly Bank Account.wav

Pre-gap length 0:00:01.58

Peak level 99.0 %
Extraction speed 2.9 X
Track quality 100.0 %
Test CRC B45E89CB
Copy CRC B45E89CB
Accurately ripped (confidence 13) [3FC5C86A]
Copy OK

Track 10

Filename E:\EAC\Various Artists - Zappa's Universe. A Celebration of 25 Years of Frank Zappa's Music (1993) {Verve}\10 - The Meek Shall Inherit Nothing.wav

Pre-gap length 0:00:00.70

Peak level 98.7 %
Extraction speed 2.8 X
Track quality 100.0 %
Test CRC DACE8DED
Copy CRC DACE8DED
Accurately ripped (confidence 13) [7C4B5ED0]
Copy OK

Track 11

Filename E:\EAC\Various Artists - Zappa's Universe. A Celebration of 25 Years of Frank Zappa's Music (1993) {Verve}\11 - Waka Jawaka (Edit).wav

Pre-gap length 0:00:01.13

Peak level 100.0 %
Extraction speed 3.0 X
Track quality 100.0 %
Test CRC C7C7416F
Copy CRC C7C7416F
Accurately ripped (confidence 13) [962CE4EF]
Copy OK

Track 12

Filename E:\EAC\Various Artists - Zappa's Universe. A Celebration of 25 Years of Frank Zappa's Music (1993) {Verve}\12 - Sofa.wav

Pre-gap length 0:00:00.42

Peak level 100.0 %
Extraction speed 3.1 X
Track quality 100.0 %
Test CRC CAB35D32
Copy CRC CAB35D32
Accurately ripped (confidence 13) [7604603D]
Copy OK

Track 13

Filename E:\EAC\Various Artists - Zappa's Universe. A Celebration of 25 Years of Frank Zappa's Music (1993) {Verve}\13 - Dirty Love.wav

Peak level 100.0 %
Extraction speed 3.5 X
Track quality 100.0 %
Test CRC DCB11E4E
Copy CRC DCB11E4E
Accurately ripped (confidence 13) [49B3CB17]
Copy OK

Track 14

Filename E:\EAC\Various Artists - Zappa's Universe. A Celebration of 25 Years of Frank Zappa's Music (1993) {Verve}\14 - Hot Plate Heaven At The Green Hotel.wav

Peak level 100.0 %
Extraction speed 3.6 X
Track quality 100.0 %
Test CRC 868693CF
Copy CRC 868693CF
Accurately ripped (confidence 13) [C6896AF3]
Copy OK


All tracks accurately ripped

No errors occurred

End of status report

==== Log checksum 90B981F57503B5ED4CFE6A854DB22AF11171492D4E04A6549BFD7F7BE50DD6AB ====


Various Artists - Zappa's Universe, A Celebration of 25 Years of Frank Zappa's Music (1993) {Verve 513 575-2}

Various Artists - Zappa's Universe, A Celebration of 25 Years of Frank Zappa's Music (1993) {Verve 513 575-2}



===