Subcategories

Steve Vai - The Ultra Zone (1999) + Alive In An Ultra World [2CD] (2001) {Epic} [combined re-up]

Posted By: ruskaval
Steve Vai - The Ultra Zone (1999) + Alive In An Ultra World [2CD] (2001) {Epic} [combined re-up]

Steve Vai - The Ultra Zone (1999) + Alive In An Ultra World [2CD] (2001) {Epic}
EAC rip (secure mode) | FLAC (tracks)+CUE+LOG -> 1.12 Gb | MP3 @320 -> 381 Mb
Full Artwork @ 300 dpi (jpg) -> 92 Mb | 5% repair rar
© 1999, 2001 Epic / Sony Music | EPC 494745 2 / EPC 501539 2
Rock / Instrumental Rock / Guitar / Zappa Relationships

This album contains two tributes to two other stellar guitarists. One of those is "Jiboom," which pays homage to Stevie Ray Vaughan, while "Frank" remembers Frank Zappa. Vai saw his career begin as a teenage stunt guitarist for Frank Zappa. Later, Mike Keneally performed the same role in a band backing Zappa. For this album, Keneally toured in Vai's band, but plays keyboards on the album. It is an amazing exhibition of six-string talent.

Steve Vai - The Ultra Zone (1999) + Alive In An Ultra World [2CD] (2001) {Epic} [combined re-up]

Steve Vai - The Ultra Zone (1999) {Epic}
EAC rip (secure mode) | FLAC (tracks)+CUE+LOG -> 521 Mb | MP3 @320 -> 166 Mb
Full Artwork @ 300 dpi (jpg) -> 47 Mb | 5% repair rar
© 1999 Epic / Sony Music | EPC 494745 2
Rock / Instrumental Rock / Guitar / Zappa Relationships


Personnel: Steve Vai (vocals, various instruments, guitar); Koshi Inaba (vocals); Tak Matsumoto (guitar); Andy Cleaves (trumpet); Duane Benjamin (trombone); Mike Keneally (keyboards); John Sergio, Philip Bynoe, Bryan Beller (bass); Gregg Bissonette, Mike Mangini, Robin DiMaggio (drums); Niels Bye Nielsen (samples); Pia.

Steve Vai - The Ultra Zone (1999) + Alive In An Ultra World [2CD] (2001) {Epic} [combined re-up]


tracklist:
01. The Blood & Tears
02. The Ultra Zone
03. Oooo
04. Frank
05. Jibboom
06. Voodoo Acid
07. Windows To The Soul
08. The Silent Within
09. I'll Be Around
10. Lucky Charms
11. Fever Dreams
12. Here I Am
13. Asian Sky

Exact Audio Copy V0.99 prebeta 4 from 23. January 2008

EAC extraction logfile from 7. May 2009, 8:35

Steve Vai / The Ultra Zone

Used drive : TSSTcorpCDDVDW TS-L633A Adapter: 0 ID: 1

Read mode : Secure
Utilize accurate stream : Yes
Defeat audio cache : Yes
Make use of C2 pointers : No

Read offset correction : 6
Overread into Lead-In and Lead-Out : No
Fill up missing offset samples with silence : Yes
Delete leading and trailing silent blocks : No
Null samples used in CRC calculations : Yes
Used interface : Installed external ASPI interface
Gap handling : Appended to previous track

Used output format : User Defined Encoder
Selected bitrate : 256 kBit/s
Quality : High
Add ID3 tag : No
Command line compressor : C:\Program Files\Exact Audio Copy\Flac\flac.exe
Additional command line options : -8 -V -T "ARTIST=%a" -T "TITLE=%t" -T "ALBUM=%g" -T "DATE=%y" -T "TRACKNUMBER=%n" -T "GENRE=%m" -T "COMMENT=EAC FLAC -8" %s


TOC of the extracted CD

Track | Start | Length | Start sector | End sector
––––––––––––––––––––––––––––-
1 | 0:00.00 | 4:25.42 | 0 | 19916
2 | 4:25.42 | 4:52.38 | 19917 | 41854
3 | 9:18.05 | 5:12.02 | 41855 | 65256
4 | 14:30.07 | 5:09.23 | 65257 | 88454
5 | 19:39.30 | 3:46.07 | 88455 | 105411
6 | 23:25.37 | 6:25.63 | 105412 | 134349
7 | 29:51.25 | 6:25.20 | 134350 | 163244
8 | 36:16.45 | 5:00.52 | 163245 | 185796
9 | 41:17.22 | 4:57.03 | 185797 | 208074
10 | 46:14.25 | 6:44.47 | 208075 | 238421
11 | 52:58.72 | 6:03.68 | 238422 | 265714
12 | 59:02.65 | 4:12.55 | 265715 | 284669
13 | 63:15.45 | 5:34.25 | 284670 | 309744


Track 1

Filename G:\Steve Vai - Ultra Zone 1999\01. Steve Vai – The Blood & Tears.wav

Pre-gap length 0:00:02.00

Peak level 98.9 %
Track quality 100.0 %
Test CRC C7CD0CF7
Copy CRC C7CD0CF7
Cannot be verified as accurate (confidence 33) [B6C1FBBE], AccurateRip returned [FBB30154]
Copy OK

Track 2

Filename G:\Steve Vai - Ultra Zone 1999\02. Steve Vai – The Ultra Zone.wav

Pre-gap length 0:00:00.89

Peak level 99.0 %
Track quality 100.0 %
Test CRC FB0575DD
Copy CRC FB0575DD
Cannot be verified as accurate (confidence 33) [A60FC5C7], AccurateRip returned [BA279AF3]
Copy OK

Track 3

Filename G:\Steve Vai - Ultra Zone 1999\03. Steve Vai – OOOO.wav

Pre-gap length 0:00:01.20

Peak level 98.9 %
Track quality 100.0 %
Test CRC B8B91EC3
Copy CRC B8B91EC3
Cannot be verified as accurate (confidence 33) [2FF7310E], AccurateRip returned [B5A419EA]
Copy OK

Track 4

Filename G:\Steve Vai - Ultra Zone 1999\04. Steve Vai – Frank.wav

Pre-gap length 0:00:02.13

Peak level 98.9 %
Track quality 100.0 %
Test CRC AE2ABDB3
Copy CRC AE2ABDB3
Cannot be verified as accurate (confidence 33) [1ECF595B], AccurateRip returned [1181E715]
Copy OK

Track 5

Filename G:\Steve Vai - Ultra Zone 1999\05. Steve Vai – Jibboom.wav

Pre-gap length 0:00:01.46

Peak level 98.9 %
Track quality 100.0 %
Test CRC 29C5F1F6
Copy CRC 29C5F1F6
Cannot be verified as accurate (confidence 33) [5D1D66BE], AccurateRip returned [213DC2FF]
Copy OK

Track 6

Filename G:\Steve Vai - Ultra Zone 1999\06. Steve Vai – Voodoo Acid.wav

Pre-gap length 0:00:01.82

Peak level 98.9 %
Track quality 99.9 %
Test CRC 08C6B40A
Copy CRC 08C6B40A
Cannot be verified as accurate (confidence 33) [6CA8B302], AccurateRip returned [235B4C43]
Copy OK

Track 7

Filename G:\Steve Vai - Ultra Zone 1999\07. Steve Vai – Windows to the Soul.wav

Pre-gap length 0:00:01.10

Peak level 98.9 %
Track quality 100.0 %
Test CRC A6DE60B1
Copy CRC A6DE60B1
Cannot be verified as accurate (confidence 33) [7B8090CB], AccurateRip returned [875B2454]
Copy OK

Track 8

Filename G:\Steve Vai - Ultra Zone 1999\08. Steve Vai – The Silent Within.wav

Peak level 98.9 %
Track quality 100.0 %
Test CRC DAD62762
Copy CRC DAD62762
Cannot be verified as accurate (confidence 33) [6BE2107C], AccurateRip returned [A1A85D92]
Copy OK

Track 9

Filename G:\Steve Vai - Ultra Zone 1999\09. Steve Vai – I'll Be Around.wav

Peak level 98.9 %
Track quality 100.0 %
Test CRC 0F5D055C
Copy CRC 0F5D055C
Cannot be verified as accurate (confidence 32) [3F716F96], AccurateRip returned [70FDD1D4]
Copy OK

Track 10

Filename G:\Steve Vai - Ultra Zone 1999\10. Steve Vai – Lucky Charms.wav

Peak level 98.9 %
Track quality 100.0 %
Test CRC 06E5F43C
Copy CRC 06E5F43C
Cannot be verified as accurate (confidence 32) [51870FE1], AccurateRip returned [6EE2FC81]
Copy OK

Track 11

Filename G:\Steve Vai - Ultra Zone 1999\11. Steve Vai – Fever Dream.wav

Pre-gap length 0:00:01.66

Peak level 98.9 %
Track quality 99.9 %
Test CRC EAB7E3B8
Copy CRC EAB7E3B8
Cannot be verified as accurate (confidence 31) [CD0BCA41], AccurateRip returned [71393294]
Copy OK

Track 12

Filename G:\Steve Vai - Ultra Zone 1999\12. Steve Vai – Here I Am.wav

Peak level 98.9 %
Track quality 100.0 %
Test CRC 7EA0258D
Copy CRC 7EA0258D
Cannot be verified as accurate (confidence 31) [F79511BE], AccurateRip returned [693A2C73]
Copy OK

Track 13

Filename G:\Steve Vai - Ultra Zone 1999\13. Steve Vai – Asian Sky.wav

Peak level 98.9 %
Track quality 100.0 %
Test CRC EECB24B4
Copy CRC EECB24B4
Cannot be verified as accurate (confidence 29) [B592FCB4], AccurateRip returned [ACC4709D]
Copy OK


No tracks could be verified as accurate
You may have a different pressing from the one(s) in the database

No errors occurred

End of status report


Steve Vai - The Ultra Zone (1999) + Alive In An Ultra World [2CD] (2001) {Epic} [combined re-up]



–––––––––––––––––––––-
Steve Vai - The Ultra Zone (1999) + Alive In An Ultra World [2CD] (2001) {Epic} [combined re-up]

Steve Vai - Alive In An Ultra World [2CD] (2001) {Epic}
EAC rip (secure mode) | FLAC (image)+CUE+LOG -> 632 Mb | MP3 @320 -> 215 Mb
Full Artwork @ 300 dpi (jpg) -> 45 Mb | 5% repair rar
© 2001 Epic / Sony Music | EPC 501539 2
Rock / Instrumental Rock / Guitar / Zappa Relationships

Steve Vai came up with an ambitious concept for the follow-up to his 1999 album The Ultra Zone: to write a series of compositions that related to different countries, and then to perform and record those tunes in the countries themselves. As he acknowledges in his liner notes to the hour-and-a-half-plus double-CD Alive in an Ultra World, logistics prevented him from exactly accomplishing his goals, especially with regard to geography, so that, for example, "Giant Balls of Gold," the song for Poland, was recorded in Greece, and "The Black Forest," the song for Germany, was recorded in Scotland (both with studio overdubs added later). But for a peripatetic musician like Vai, the idea was doubtless inspiring, and it has spurred him to write some interesting pieces, even if many of them have no obvious connections to the places they're supposed to be about. More often, they sound like Vai's usual musical influences. "Blood and Glory," the song for the U.K., has a majestic sound that does seem British, especially if your idea of Britain is guitarist Brian May of Queen.

Steve Vai - The Ultra Zone (1999) + Alive In An Ultra World [2CD] (2001) {Epic} [combined re-up]


"The Power of Bombos," the song for Greece, is reminiscent of Jimi Hendrix, so maybe it should have been the song for Seattle. And "Devil's Food," the song for Holland, recalls Frank Zappa, whose "Dog/Meat" is even quoted. Some tunes do show obvious national influences, though. "Iberian Jewel," the song for Spain, employs a Spanish guitar and flamenco rhythm; "Incantation," the song for Bulgaria, and "Babushka," the song for Romania, each have a distinct Eastern European gypsy feel; and "Light of the Moon," the song for Australia, borrows the melody of "Waltzing Matilda" in the chorus. For his part, Vai is an engaging, slightly goofy frontman, which allows him to interact successfully with his European and Far East audiences.

Personnel:
Steve Vai: guitar, vocals and musical tormentor of the band
Mike Keneally: keyboards, guitar, vocals
Mike Mangini: drums
Philip Bynoe: bass, vocals
Dave Weiner: guitar, acoustic guitar, choral sitar
Chris Frazier: drums (Whispering A Prayer)
Eric Goldberg: keyboards (Whispering A Prayer)

tracklist:
СD 1

01. Giant Balls Of Gold (4:45) Poland
02. Burning Rain (4:50) Japan
03. The Black Forest (6:38) Germany
04. Alive In An Ultra World (3:53) Slovenia
05. Devil's Food (10:11) Holland
06. Blood And Glory (4:53) United Kingdom
07. Whispering A Prayer (8:43) Ireland
08. Iberian Jewel (4:38) Spain

CD 2
01. The Power Of Bombos (5:05) Greece
02. Incantation (8:53) Bulgaria
03. Light Of The Moon (5:44) Australia
04. Babushka (6:41) Romania
05. Being With You (In Paris) (6:26) France
06. Principessa (5:46) Italy
07. Brandos Costumes (Gentle Ways) (6:04) Portugal

Exact Audio Copy V0.99 prebeta 5 from 4. May 2009

Отчёт EAC об извлечении, выполненном 24. сентября 2010, 17:32

Steve Vai / Alive In An Ultra World\Disc 1

Дисковод: PIONEER DVD-RW DVR-217F Adapter: 0 ID: 1

Режим чтения : Достоверность
Использование точного потока : Да
Отключение кэша аудио : Да
Использование указателей C2 : Нет

Коррекция смещения при чтении : 96
Способность читать области Lead-in и Lead-out : Нет
Заполнение пропущенных сэмплов тишиной : Да
Удаление блоков с тишиной в начале и конце : Нет
При вычислениях CRC использовались нулевые сэмплы : Да
Интерфейс : Установленный внешний ASPI-интерфейс

Выходной формат : Пользовательский кодировщик
Выбранный битрейт : 128 kBit/s
Качество : Высокий
Добавление ID3-тэга : Нет
Утилита сжатия : C:\Program Files\FLAC\FLAC frontend.exe
Дополнительные параметры : -8 -V %s


TOC извлечённого CD

Трек | Старт | Длительность | Начальный сектор | Конечный сектор
––––––––––––––––––––––––––––––––––-
1 | 0:00.00 | 4:45.30 | 0 | 21404
2 | 4:45.30 | 4:50.30 | 21405 | 43184
3 | 9:35.60 | 6:38.27 | 43185 | 73061
4 | 16:14.12 | 3:53.50 | 73062 | 90586
5 | 20:07.62 | 10:09.70 | 90587 | 136331
6 | 30:17.57 | 4:53.23 | 136332 | 158329
7 | 35:11.05 | 8:45.50 | 158330 | 197754
8 | 43:56.55 | 4:38.50 | 197755 | 218654


Характеристики диапазона извлечения и сообщения об ошибках

Выбранный диапазон

Имя файла C:\Torrent\Steve Vai - Alive In An Ultra World\CD1\Steve Vai - Alive In An Ultra World Disc 1.wav

Пиковый уровень 98.8 %
Качество диапазона 100.0 %
CRC теста 721A788D
CRC копии 721A788D
Копирование… OK

Ошибок не произошло


AccurateRip: сводка

Трек 1 точное извлечение (доверие 24) [77F9EF9D]
Трек 2 точное извлечение (доверие 23) [04E65112]
Трек 3 точное извлечение (доверие 24) [E92B7604]
Трек 4 точное извлечение (доверие 24) [961D26F3]
Трек 5 точное извлечение (доверие 24) [504EBE9B]
Трек 6 точное извлечение (доверие 24) [7C6D56AE]
Трек 7 точное извлечение (доверие 24) [BC256244]
Трек 8 точное извлечение (доверие 24) [84A0675E]

Все треки извлечены точно

Конец отчёта

Exact Audio Copy V0.99 prebeta 5 from 4. May 2009

Отчёт EAC об извлечении, выполненном 24. сентября 2010, 17:49

Steve Vai / Alive In An Ultra World\Disc 2

Дисковод: PIONEER DVD-RW DVR-217F Adapter: 0 ID: 1

Режим чтения : Достоверность
Использование точного потока : Да
Отключение кэша аудио : Да
Использование указателей C2 : Нет

Коррекция смещения при чтении : 96
Способность читать области Lead-in и Lead-out : Нет
Заполнение пропущенных сэмплов тишиной : Да
Удаление блоков с тишиной в начале и конце : Нет
При вычислениях CRC использовались нулевые сэмплы : Да
Интерфейс : Установленный внешний ASPI-интерфейс

Выходной формат : Пользовательский кодировщик
Выбранный битрейт : 128 kBit/s
Качество : Высокий
Добавление ID3-тэга : Нет
Утилита сжатия : C:\Program Files\FLAC\FLAC frontend.exe
Дополнительные параметры : -8 -V %s


TOC извлечённого CD

Трек | Старт | Длительность | Начальный сектор | Конечный сектор
––––––––––––––––––––––––––––––––––-
1 | 0:00.00 | 5:04.47 | 0 | 22846
2 | 5:04.47 | 8:53.25 | 22847 | 62846
3 | 13:57.72 | 5:47.25 | 62847 | 88896
4 | 19:45.22 | 6:42.30 | 88897 | 119076
5 | 26:27.52 | 6:24.43 | 119077 | 147919
6 | 32:52.20 | 5:51.57 | 147920 | 174301
7 | 38:44.02 | 6:04.48 | 174302 | 201649


Характеристики диапазона извлечения и сообщения об ошибках

Выбранный диапазон

Имя файла C:\Torrent\Steve Vai - Alive In An Ultra World\CD2\Steve Vai - Alive In An Ultra World Disc 2.wav

Пиковый уровень 100.0 %
Качество диапазона 100.0 %
CRC теста 9589DF3E
CRC копии 9589DF3E
Копирование… OK

Ошибок не произошло


AccurateRip: сводка

Трек 1 точное извлечение (доверие 24) [3620A77E]
Трек 2 точное извлечение (доверие 24) [ED3C32FC]
Трек 3 точное извлечение (доверие 24) [861C6A30]
Трек 4 точное извлечение (доверие 24) [A9828CAE]
Трек 5 точное извлечение (доверие 24) [53E630C3]
Трек 6 точное извлечение (доверие 24) [C695EF1B]
Трек 7 точное извлечение (доверие 24) [3F466C1F]

Все треки извлечены точно

Конец отчёта


Steve Vai - The Ultra Zone (1999) + Alive In An Ultra World [2CD] (2001) {Epic} [combined re-up]

Steve Vai - The Ultra Zone (1999) + Alive In An Ultra World [2CD] (2001) {Epic} [combined re-up]


All thanks goes to the original releaser!


Steve Vai - The Ultra Zone (1999) {Epic}

UPLOADED Linkz

BITSHARE Linkz

OBOOM Linkz



Steve Vai - Alive In An Ultra World [2CD] (2001) {Epic}

UPLOADED Linkz

BITSHARE Linkz

OBOOM Linkz